#TITLE:Love Wing A Bell;
#SUBTITLE:;
#ARTIST:u's;
#TITLETRANSLIT:;
#SUBTITLETRANSLIT:;
#ARTISTTRANSLIT:;
#GENRE:;
#CREDIT:CHMEX;
#BANNER:banner.png;
#BACKGROUND:BGI.jpg;
#LYRICSPATH:;
#CDTITLE:;
#MUSIC:Love Wing A Bell.mp3;
#OFFSET:0.000;
#SAMPLESTART:62.780;
#SAMPLELENGTH:12.000;
#SELECTABLE:YES;
#BPMS:0.000=133.000,139.500=133.000;
#STOPS:0.000=0.220
;
#BGCHANGES:0.000=BGA.avi=1.000=0=0=0=StretchNoLoop====,
99999=-nosongbg-=1.000=0=0=0 // don't automatically add -songbackground-
;
#KEYSOUNDS:;

//---------------dance-single - Blank----------------
#NOTES:
     dance-single:
     Blank:
     Hard:
     8:
     0.619,0.705,0.327,1.000,0.114:
0000
0000
0000
0000
,
0000
0000
0000
0000
1000
0010
0001
0000
,
0100
0000
1000
0000
0001
0000
1000
0001
,
0100
0010
2000
3000
0100
0010
0001
0000
,
0010
1000
0001
0000
0010
0000
0200
0000
,
0300
0000
1000
0010
2000
0000
3000
0000
0100
0000
1000
0000
0001
0000
0001
0000
,
0010
0010
1000
1000
0001
0001
1000
1000
,
0100
0000
0100
0000
0010
0000
0010
1000
0100
1000
0100
0000
0010
0000
0010
0000
,
0100
0000
0010
0001
0010
0000
1000
0000
1000
0000
0010
0000
0002
0000
0000
0000
,
0103
0000
1000
0001
0200
0000
0000
0000
0000
0000
0300
0000
0010
0000
0000
0000
,
2000
0000
0000
0000
0020
0000
0000
0000
3230
0000
0001
0300
2000
0000
0000
0000
,
0000
0000
3200
0001
0320
0000
0000
0000
0000
0000
2000
0000
0130
0000
0000
0000
,
0002
3000
0103
0010
0100
0002
2000
0000
,
0003
0000
0010
3000
0200
0000
0000
0000
0000
0000
0000
0000
0020
0000
0000
0000
,
0300
0000
1000
0030
0001
0000
0200
0000
0010
0300
0200
0000
0002
0000
0000
0000
,
0000
0300
0023
0000
2000
0000
0000
0000
0000
0030
0001
0000
3200
0000
0000
0000
,
0000
0320
2000
0000
0000
3130
0021
0030
,
0020
0000
0000
0030
0000
0000
1000
0000
0000
0020
0000
0030
0000
0000
0000
0000
0000
0000
0200
0000
0000
0000
0000
0000
,
0320
0000
0000
0000
2030
0000
0000
0000
0002
0000
3023
0000
0200
0000
0000
0030
,
0000
0000
0310
0100
0002
0000
0000
0000
0000
0003
0020
0000
2000
0030
0000
0000
,
3020
0000
0100
0031
0100
0020
2000
0030
,
0000
0000
0002
3000
0200
0000
0000
0000
0000
0000
0000
0003
0020
0000
0000
0000
,
0000
0330
2000
0000
0001
0000
3200
0000
0020
0000
0301
0000
0001
0000
0000
0000
,
0000
0000
0032
0000
0200
0000
0000
0000
0000
0300
0010
0000
2000
0000
0000
0000
,
0000
3023
0230
0001
0310
0001
0200
0000
,
0000
0000
0000
0000
0300
0000
1000
0010
1000
0000
0100
0000
0010
0000
0001
0100
,
0020
0000
0031
0100
0002
0000
0000
0000
0003
0000
0010
0000
0200
0000
0000
0000
,
0000
1000
0020
0000
0000
2330
0001
0000
,
3200
0020
0000
0300
2000
0031
0200
0000
,
0000
3000
0000
0000
2000
0000
0000
0000
0302
0000
0000
0000
3200
0000
0000
0000
,
0003
0000
0310
2000
0020
0000
0000
0000
0000
0000
0000
3000
0200
0000
0030
0000
,
0001
0000
0000
0020
0000
0000
0000
0000
0000
0000
0000
0000
0031
0000
0000
0010
0300
0000
0200
0000
0000
0000
0000
0000
,
0000
0000
0000
0300
0020
0000
0030
0000
1000
0000
0001
0000
0100
0000
0000
1001
,
0000
0000
0000
0000
1001
0000
0000
1001
0000
0000
0000
0000
1001
0000
1001
0000
,
1001
0000
0110
0000
0110
0000
0001
1000
0010
0100
0001
0000
2001
0000
0000
0000
,
3001
0010
0102
0000
0013
0100
1000
0010
,
0100
1000
0101
0000
0010
0000
2010
0000
,
0010
0000
0010
3000
0102
0000
0000
0000
0010
0003
0000
0000
2001
0000
0000
0000
,
3010
0000
0101
0000
0001
0100
2010
0000
,
3010
0100
1020
0000
1030
0100
0001
0100
,
2000
0000
3010
0000
0101
0000
0001
0100
0010
0000
0100
0000
2010
0000
0010
0000
,
3010
0100
1200
0000
1300
0100
1010
0100
,
0001
0100
1000
0000
0001
0010
1000
0000
0001
0000
0100
0010
2000
0000
0000
0000
,
3010
0100
0201
0000
0310
0010
1010
0100
,
0001
0100
0201
0000
0301
0010
1010
0100
,
0010
0001
0210
0000
0301
0000
0012
0000
,
1003
0000
0000
0000
0220
0000
0330
0000
0010
0100
0001
0000
2000
0000
0100
0000
,
3010
0100
0020
0030
2000
0100
3001
0010
,
0102
0000
1000
0000
0200
0000
0313
1000
0100
0000
0010
0000
1001
0000
0010
0000
,
0110
0000
0001
0000
2020
0000
3030
0000
0010
1000
0100
1000
0020
0000
0000
0000
,
0000
0030
0001
0010
0100
1000
0200
0000
,
0310
0000
0001
0000
1000
0100
2000
0010
,
0001
0000
0020
0000
0000
0000
0000
3030
0002
0000
0000
0000
2000
0000
0000
0000
,
0000
0000
0000
3003
0002
0000
2000
0000
,
0000
0000
0000
3003
;

//---------------dance-single - Hard----------------
#NOTES:
     dance-single:
     Hard:
     Challenge:
     11:
     0.724,0.745,0.465,1.000,0.193:
0000
0000
0000
0000
,
0000
0000
0000
0000
1000
0100
0012
0000
,
0100
0003
2100
0000
0010
3000
1000
0001
,
0100
0010
2000
0000
3100
0010
2000
3000
,
0100
0001
0020
0000
0100
0030
0220
0000
,
0330
0000
1000
0010
1000
0000
0100
0000
0100
0000
1000
0000
0001
0000
0001
0000
,
0010
0100
1000
0100
0001
0001
1000
1000
,
0100
0000
0100
0000
0010
0000
0010
1000
0100
1000
0100
0000
1000
0000
0010
0000
,
0100
0000
0000
0010
0001
0010
0001
0000
0000
1000
0000
0000
1000
0000
0000
0010
0000
0000
0002
0000
0000
0000
0000
0000
,
0103
0000
0010
0001
0100
0000
0010
0000
0100
0000
1000
0000
0210
0000
0300
0000
,
2000
0000
0020
0000
3130
0001
2000
0000
,
0000
0000
3200
0001
0320
0000
0000
0000
0000
0000
2000
0000
0031
0000
0000
0000
,
0002
0000
0000
0000
3103
0000
0010
0000
0200
0000
0002
0300
2000
0000
0000
0000
,
0003
0000
0020
3000
0200
0000
0000
0000
0000
0000
0030
0000
0020
0000
0000
0000
,
0300
0000
2000
0030
0001
0000
0200
0000
0010
0300
3200
0000
0002
0000
0000
0000
,
0000
0300
0023
0000
2000
0000
0000
0000
0000
0030
0002
0000
3200
0000
0000
0000
,
0000
0323
2000
0000
0000
3130
0021
0030
,
0020
0000
0000
0030
0000
0000
0100
0000
0000
2020
0000
3030
0000
0000
0000
0000
0000
0000
0200
0000
0000
0000
0000
0000
,
0320
0000
0000
0000
2030
0000
0000
0000
0002
0000
3023
0000
0200
0000
0000
0030
,
0000
0000
0310
0100
0002
0000
0000
0000
0000
0003
0020
0000
2000
0030
0000
0000
,
3020
0000
0100
0031
0100
0020
2000
0030
,
0000
0000
0002
3000
0200
0000
0000
0000
0000
0000
0000
0003
0020
0000
0000
0000
,
0000
0330
2000
0000
0001
0000
3200
0000
0020
0000
0301
0000
0001
0000
0000
0000
,
0000
0000
0032
0000
0200
0000
0000
0000
0000
0300
0010
0000
2000
0000
0000
0000
,
0000
3023
0230
0001
0310
0001
0200
0000
,
0000
0000
0000
0000
0300
0000
1000
0010
1000
0000
0100
0000
0010
0000
0001
0100
,
0020
0000
0031
0100
0002
0000
0000
0000
0003
0000
0010
0000
0200
0000
0000
0000
,
0000
1000
0020
0000
0000
2330
0001
0000
,
3200
0020
0000
0300
2000
0031
0200
0000
,
0000
3000
0000
0000
2000
0000
0000
0000
0302
0000
0000
0000
3200
0000
0000
0000
,
0003
0000
0310
2000
0020
0000
0000
0000
0000
0000
0000
3000
0200
0000
0030
0000
,
0001
0020
0000
0000
0031
0310
0200
0000
,
0000
0000
0000
0300
0020
0000
0030
0000
1000
0100
0001
0000
0100
0000
0000
1001
,
0000
0000
0100
0010
1001
0000
0000
1001
0000
0000
0100
0010
0101
0000
1010
0000
,
1001
0000
0110
0000
0110
0000
0001
1000
0010
0100
0001
0000
2001
0000
0100
0000
,
3001
0010
0102
1000
0013
0100
2010
0010
,
3100
0000
0010
0000
0102
0000
1000
0000
0010
0000
0100
0003
2010
0000
0100
0000
,
0010
0000
0010
3000
0102
0000
1000
0000
0010
0003
0100
0000
2001
0000
0100
0000
,
3010
0000
0010
0000
0101
0000
0100
0001
0100
0010
0100
0000
2010
0000
0001
0000
,
3010
0100
1020
0001
1030
0100
0012
0100
,
1003
0000
0010
0000
0101
0000
0001
0100
0010
0000
0100
0000
2010
0000
0010
0000
,
3010
0100
1200
0000
1300
0100
1010
0100
,
0001
0100
1000
0000
0001
0010
1000
0000
0001
0000
0100
0100
2010
0000
0000
0000
,
3010
0100
0201
0000
0310
0010
1002
0100
,
1003
0100
0201
0010
0301
0010
2010
0100
,
3010
0001
0210
0010
0301
0100
0012
0100
,
1003
0000
0100
0000
0220
0330
1000
0100
0010
0100
0010
0000
2000
0000
0100
0000
,
3010
0100
1020
0130
2010
0100
3101
0010
,
0102
0000
1000
0000
0200
0000
0313
1000
0100
0000
0010
0000
1001
0000
0010
0000
,
0110
0000
0001
0000
2020
0000
3030
1000
0010
1000
0100
1000
0020
0000
0000
0000
,
0000
0000
0030
0000
0001
0000
0010
0000
0100
0000
1000
0000
0200
0000
0310
0001
,
0010
0000
0100
0001
0010
0000
0100
0000
0001
0000
2000
0000
0100
0000
0010
0000
,
0001
0020
0000
3030
1001
0000
0220
0000
,
1330
0001
1000
0001
0100
0010
0100
0010
1000
0100
0010
0001
0120
0000
0000
0000
,
0000
0000
0000
0000
,
0000
0000
0000
0030
;

//---------------dance-single - Hard----------------
#NOTES:
     dance-single:
     Hard:
     Medium:
     5:
     0.489,0.461,0.228,0.851,0.015:
0000
0000
0000
0000
,
0000
0000
0000
0000
1000
0010
0001
0000
,
0100
0000
1000
0000
0001
0000
1000
0001
,
0100
0010
0100
0000
0100
0010
0001
0000
,
0010
1000
0001
0000
0010
0000
0200
0000
,
0300
0000
1000
0010
2000
0000
3000
0000
0100
0000
1000
0000
0001
0000
0000
0000
,
0010
0000
1000
0000
0001
0000
1000
0001
,
0100
0001
0020
0030
0100
0100
0020
0000
,
0030
0100
0010
1000
1000
0010
0002
0000
,
0103
1000
0200
0000
0000
0300
0010
0000
,
2000
0000
0000
0000
3020
0000
0000
0000
0230
0000
0001
0300
2000
0000
0000
0000
,
3000
0200
0320
0000
0030
1000
0100
0000
,
0002
0000
0103
0010
0100
0001
2000
0000
,
0000
0000
0010
3000
0200
0000
0000
0000
0000
0000
0000
0000
0320
0000
0000
0000
,
0000
0000
1000
0030
0001
0000
0100
0000
0010
0000
0100
0000
0002
0000
0000
0000
,
0000
0013
2000
0000
3000
0001
0200
0000
,
0000
0310
2000
0000
0000
3100
0020
0030
,
0020
0000
0000
0030
0000
0000
0100
0000
0000
2020
0000
3030
0000
0000
0000
0000
0000
0000
0200
0000
0000
0000
0000
0000
,
0320
0000
2030
0000
0002
3013
0020
0000
,
0030
0000
0010
0000
0002
0000
0000
0000
0000
0003
0010
0000
1000
0000
0000
0000
,
0020
0000
0130
0001
0100
0010
2000
0000
,
3000
0001
0200
0000
0000
0300
0020
0000
,
0000
0030
2000
0000
0001
0000
3100
0000
0010
0000
0001
0000
0020
0000
0000
0000
,
0030
0000
0001
0000
0200
0000
0000
0000
0000
0300
0010
0000
2000
0000
0000
0000
,
0000
3010
0100
0001
0010
0001
0020
0000
,
0000
0000
0000
0000
0000
0030
0100
0000
,
0000
0000
0100
0000
0000
0010
0200
0000
,
0000
0310
0020
0000
0000
1030
0020
0030
,
0100
0020
0000
0030
1000
0001
0200
0000
,
0000
1300
0001
0200
,
0000
1300
0020
0000
0000
0000
0130
0000
,
0001
0020
0000
0000
0031
0010
0200
0000
,
0000
0000
0000
0300
0020
0000
0030
0000
1000
0000
0001
0000
0010
0000
0000
0001
,
0000
0000
0000
0000
0100
0000
0000
1000
0000
0000
0000
0000
1000
0000
0001
0000
,
1000
0110
0020
0000
0030
0000
2001
0000
,
3001
0102
0013
2010
,
3100
0000
0000
0000
0102
0000
0000
0000
0010
0000
0000
0003
2010
0000
0000
0000
,
0010
0000
0000
3000
0102
0000
0000
0000
0010
0003
0000
0000
2001
0000
0000
0000
,
3010
0000
0101
0000
0001
0010
2000
0000
,
3010
0100
2000
3000
1000
0000
0012
0000
,
1003
0101
0010
2010
,
3010
1200
1300
1020
,
2030
0000
3020
0000
0230
0000
2310
3000
,
0100
0010
0002
0003
0100
0010
0002
0000
,
1003
0201
0301
2010
,
3010
0210
0301
0012
,
1003
0000
0220
0330
0010
0100
2000
3000
,
0010
0100
0020
0030
1000
0100
0001
0010
,
0001
1000
0200
0000
0300
0010
0001
0010
,
0100
1000
0020
0030
0000
0100
0020
0000
,
0000
0030
0001
0010
0100
1000
0200
0000
,
0301
0000
0100
0000
1000
0020
0000
0000
,
0000
0000
0000
0000
0000
0000
0000
0030
0100
0000
0000
0000
0220
0000
0000
0000
,
0000
0330
0010
0220
,
0000
0000
0000
0000
0000
0000
0000
0000
0000
0000
0000
0000
0000
0330
0000
0000
;

//---------------dance-single - Blank----------------
#NOTES:
     dance-single:
     Blank:
     Beginner:
     2:
     0.163,0.221,0.000,0.049,0.000:
0000
0000
0000
0000
,
0000
0000
0000
1000
,
0000
0001
0000
1000
,
0000
0000
0000
0001
,
0000
1000
0000
0001
,
0000
0000
0000
1000
,
0000
0001
0000
1000
,
0000
0010
0000
0100
,
0000
0010
1000
0100
,
0000
2000
0000
3010
,
0000
0100
0000
0010
,
0000
0010
0000
0100
,
0000
1000
0000
0100
,
0000
0010
0000
0010
,
0000
0010
0000
0100
,
0000
0010
0000
0001
,
0000
0001
0000
0010
,
0000
0100
0000
0010
,
0000
0100
0000
0010
,
0000
0001
0000
0100
,
0000
0010
0000
0001
,
0000
0010
0000
0100
,
0000
0010
0000
0001
,
0000
0010
0000
0010
,
0000
0010
0000
0002
,
0000
0000
0003
0000
,
0000
0000
0000
1000
,
0000
0000
0000
0010
,
0000
0100
0000
0010
,
0000
0010
0000
0001
,
0000
0010
0000
0100
,
0000
0010
0000
0001
,
0000
0010
0000
0100
,
0000
0010
0000
0010
,
0000
0000
0200
0000
0000
0300
0010
0000
,
0000
0010
0000
0100
,
0001
0100
0000
0010
,
0000
0010
0000
0100
,
1000
0100
0000
0001
,
0000
0001
0000
0100
,
0001
0100
0000
0001
,
1000
0001
0000
0100
,
0000
0010
0000
0100
,
0000
0001
0000
0100
,
1000
0010
0000
0100
,
0000
0010
0000
0001
,
1000
0001
0000
0100
,
0000
0010
0000
0100
,
0001
0010
0000
0010
,
1000
0100
0000
1000
,
0000
0100
0000
0010
,
0000
0001
0000
0010
,
1000
0100
0010
0020
,
0000
0030
0100
0020
,
0000
0000
0000
0000
,
0000
0000
0000
0000
0000
0000
0000
0030
;

//---------------dance-single - Blank----------------
#NOTES:
     dance-single:
     Blank:
     Easy:
     4:
     0.253,0.359,0.010,0.376,0.000:
0000
0000
0000
0000
,
0000
0000
0000
2000
,
0000
3002
0000
0203
,
0000
0000
0000
0320
,
0000
2030
0000
3020
,
0000
0000
0000
0130
,
0100
0010
0010
1000
,
0001
0010
0100
0020
,
0000
0030
1000
0020
,
0000
0030
0000
0002
,
0003
1000
0000
0010
,
0000
0100
0000
0010
,
0000
0001
0000
0010
,
0000
0010
0000
2000
,
0000
0000
0000
3010
,
0000
0001
0000
0100
,
0000
1000
0000
0100
,
0010
0001
0000
2000
,
0000
3001
0000
0001
,
0000
1000
0000
0100
,
0010
0001
1000
0020
,
0000
0030
0100
0010
,
0000
0001
1000
0020
,
0030
0100
0000
2000
,
3000
0100
0010
0002
,
0000
0000
0003
0000
,
0000
0000
0000
2000
,
0000
3001
0000
0002
,
0000
0203
0000
0320
,
0000
1030
0010
2000
,
0000
3200
0000
0310
,
0000
0001
0000
2000
,
0000
3010
0000
0001
,
1000
0001
1000
0002
,
0000
2003
0000
3010
,
0001
0010
1000
1000
,
0001
0001
0100
0010
,
0010
1000
0020
0230
,
0320
0230
0310
0001
,
1000
0001
1000
0010
,
0010
1000
1000
0010
,
0100
2000
3000
0100
,
0010
0001
0010
0101
,
0010
0001
0010
1000
,
0100
1000
0001
0001
,
1000
1000
0001
0010
,
0100
0010
0001
0001
,
0001
1000
1000
0001
,
0010
0200
0300
0020
,
2030
3020
0230
2300
,
3000
0100
0010
0001
,
1000
0001
0200
0000
,
0000
0300
0010
2000
,
0000
0000
3010
0200
,
0000
0000
0000
0000
,
0000
0000
0000
0300
;
