#TITLE:Listen to my heart!!;
#SUBTITLE:;
#ARTIST:NicoRinPana;
#TITLETRANSLIT:;
#SUBTITLETRANSLIT:;
#ARTISTTRANSLIT:;
#GENRE:;
#CREDIT:CHMX;
#BANNER:banner.png;
#BACKGROUND:BGI.png;
#LYRICSPATH:;
#CDTITLE:;
#MUSIC:Listen to my heart!!.mp3;
#OFFSET:0.000;
#SAMPLESTART:92.540;
#SAMPLELENGTH:12.000;
#SELECTABLE:YES;
#BPMS:0.000=150.000,73.000=150.000;
#STOPS:0.000=0.040
;
#BGCHANGES:0.000=BGAbeta.avi=1.000=0=0=1=StretchNormal====,
99999=-nosongbg-=1.000=0=0=0 // don't automatically add -songbackground-
;
#KEYSOUNDS:;

//---------------dance-single - Blank----------------
#NOTES:
     dance-single:
     Blank:
     Hard:
     8:
     0.608,0.618,0.123,0.460,0.168:
0000
0000
0000
0000
,
0000
0000
0000
0000
0000
0000
0000
0001
,
1000
0000
0010
0000
0000
0000
0100
0000
0010
0000
0100
1000
0000
0000
0100
0000
,
0010
0100
0001
0000
0010
0100
0000
1000
,
0010
0000
0100
0000
0000
0000
0001
0000
0010
0000
0100
0010
0000
0000
0100
0000
,
0001
0010
1000
0000
0010
0100
0000
0010
,
0001
0000
0020
0000
0000
0000
1000
0000
0100
0030
2000
0000
0000
0000
0010
3000
,
0100
0001
0000
0010
1000
0010
0000
1000
,
0010
0200
0000
0010
0301
0020
0000
0100
,
1030
0000
0020
0000
0000
0000
0001
0030
0100
0000
0002
0000
0000
0000
0013
0000
,
0100
0020
0000
0031
0010
2000
0000
0100
,
3001
0020
0000
0000
0030
0000
0000
0010
,
1000
0000
0001
0000
0020
0000
0000
0030
0100
0000
0020
0000
0000
0000
0200
0000
,
0000
0330
0000
0000
0001
0000
0000
0000
0100
0000
0000
0000
0001
0000
0000
0000
,
1000
0000
0010
0000
0100
0000
1000
0000
0100
0000
1000
0100
0000
1000
0000
0100
,
1000
0000
0100
0000
0010
0000
0100
0000
0010
0000
0100
0010
0000
0100
0000
0010
,
0100
0000
0010
0000
0100
0000
0001
0000
0100
0000
0001
0010
0000
0100
0000
0010
,
0001
0100
0001
0100
0001
1000
0010
0000
,
1001
0000
1001
0000
1000
0000
0010
0100
,
0001
0000
0000
0000
0010
0000
1000
0000
0001
0000
0000
0000
0020
0000
0100
0030
,
0010
0000
0000
0000
0200
0000
0001
0300
0100
0000
0000
0000
0200
0000
1300
0000
,
0100
0000
0200
0010
0001
0300
0010
2000
,
0001
0000
0000
0000
0001
0000
0000
0000
0010
0000
0000
0000
0100
3000
0010
0000
,
0001
0000
1002
0000
0100
0000
0010
1000
,
0100
0000
0000
0003
0010
0000
0100
0000
1000
0000
0000
0000
0001
0000
0100
0000
,
0010
2002
0000
0000
0000
0000
0000
0000
,
3003
0000
0000
0000
1000
0000
1000
0000
0010
0000
0100
0010
0000
0100
0000
0010
,
0100
0000
0010
0000
0001
0000
0001
0000
0100
0000
0010
1000
0000
0010
0000
1000
,
0010
0100
0001
0000
0100
0000
1000
0000
,
0100
0200
0310
0001
,
0100
0010
1000
0100
,
0001
1000
0001
0100
,
0001
0100
0001
0100
,
0001
0000
1020
0000
1000
0030
0210
0000
,
0001
0300
0010
0000
1000
0000
0010
0000
,
0201
0301
1020
1030
,
0201
0000
0301
1000
0010
0100
0001
1000
,
0010
0100
0010
1000
0001
0010
1000
0100
,
0100
0010
0001
0010
1000
0100
0100
0010
,
0001
1000
0010
0100
0001
0010
1000
0010
,
0100
0001
0010
0001
0010
0100
1000
0010
,
0100
0010
0100
0001
0010
1000
0001
0100
,
0010
0001
0010
1000
0010
0100
0001
0010
,
1000
0000
0010
0000
0100
0000
0000
0100
0000
0000
0100
0000
0000
0000
0010
0000
,
1000
0000
0010
0000
0100
0000
0001
0000
0100
0000
0010
0100
0000
0010
0000
0100
,
0010
0000
0100
0000
0010
0000
0001
0000
0010
0000
0001
0010
0000
0010
0000
0010
,
0001
0000
0010
0000
0100
0000
0010
0000
1000
0000
0001
0010
0000
1000
0000
0010
,
0001
0001
1000
0010
0100
0001
1000
0000
,
0100
0001
0011
0000
0010
0000
1000
0010
,
0100
0000
0010
0000
0001
0000
0010
1000
,
0001
0000
0010
0000
0100
0000
0010
1000
,
0001
0000
0010
0000
1000
0000
0100
1000
,
0100
0020
0000
1000
0130
0020
0000
0031
,
0010
0200
0000
1000
0310
0002
0003
0001
,
0010
0200
0000
0010
0301
0020
0000
0100
,
1030
0000
0020
0000
0000
0000
1030
0000
0100
0000
0000
0000
1010
0000
0000
1100
,
0000
0000
1000
0000
0020
0000
0000
0030
0220
0000
0000
0030
0020
0000
0300
0200
,
0000
0030
0320
0000
0230
0000
0000
0320
0000
0000
0230
0000
0000
0000
1000
0300
,
0100
0000
1000
0000
0000
0000
0010
0000
0100
0000
1000
0010
0000
0000
0100
0000
,
0010
0100
0001
0000
0010
1000
0000
0010
,
0100
0000
0001
0000
0000
0000
0010
0000
1000
0000
0010
0001
0000
0000
0010
0000
,
0001
1000
0010
0000
0100
0010
0000
0001
,
0010
0200
0000
1300
0100
0020
0000
0031
,
0010
0200
0000
1300
0100
0010
0000
0001
,
1000
0020
0000
0130
0010
0002
0003
0001
,
0010
0200
0000
1300
0100
0020
0000
0031
,
0010
0200
0000
1300
0100
0020
0000
0130
,
0010
0002
0000
0003
0000
0000
0000
0100
,
1000
0010
0100
0000
0010
1000
0000
0010
,
0000
0001
0010
0100
,
0010
0000
0100
0000
0010
0000
1000
0000
0010
0000
0100
0010
0000
0100
0000
0010
,
0100
0000
0100
0000
0010
0000
0010
0000
0100
0000
0001
0100
0000
0001
0000
0100
,
0001
0000
0100
0000
0001
0000
1000
0000
0001
0000
1000
0001
0000
1000
0000
1000
,
0001
0010
0100
0010
1000
0001
0100
0000
,
0022
0033
0220
0000
0000
0000
0000
0000
,
0000
0330
0000
0000
;

//---------------dance-single - Hard----------------
#NOTES:
     dance-single:
     Hard:
     Challenge:
     11:
     0.760,0.843,0.386,0.657,0.255:
0000
0000
0000
0000
,
0000
0000
0000
0000
0000
0000
0000
0001
,
1000
0000
0010
0000
0000
0000
0100
0000
0010
0000
0100
1000
0000
0000
0100
0000
,
0010
0100
0001
0000
0010
0100
0000
1000
,
0010
0000
0100
0000
0000
0000
0001
0000
0010
0000
0100
0010
0000
0000
0100
0000
,
0001
0010
1000
0000
0010
0100
0000
0010
,
0001
0000
0020
0000
0000
0000
1000
0000
0100
0030
2000
0000
0000
0000
0010
3000
,
0100
0002
0003
0010
1000
0010
0000
1000
,
0010
0200
0000
0010
0301
0020
0000
0100
,
1030
0000
0020
0000
0000
0000
0001
0030
0100
0000
0002
0000
0000
0000
0013
0000
,
0100
0020
0000
0031
0010
2000
0000
0100
,
3001
0020
0000
0000
0030
0000
0000
0010
,
1000
0000
0001
0000
0020
0000
0000
0030
0100
0000
0020
0000
0000
0000
0200
0000
,
0000
0330
0000
0000
1001
0000
0000
0000
0100
0000
0000
0000
0001
0000
0000
0000
,
1000
0000
0010
0000
1100
0000
1100
0000
0100
0000
1000
0001
0000
0010
0000
0100
,
1000
0000
0100
0000
0110
0000
0110
0000
0010
0000
0100
0010
0000
0001
0000
0010
,
0100
0000
1000
0000
0110
0000
0110
0000
0100
0000
0001
0010
0000
0100
0000
1000
,
0001
0110
0001
0100
0001
1000
0010
0000
,
1001
0000
1001
0000
1000
0001
0010
0100
,
0001
0000
1000
0000
0010
0000
1000
0000
0001
0000
0100
0000
0020
0000
0100
0030
,
0010
0000
0001
0000
0200
0000
0001
0300
0100
0000
0010
0000
0200
0000
1300
0000
,
0100
0010
0200
0010
0001
1300
0010
2000
,
0001
0000
0000
0000
0001
0000
0000
0000
0010
0000
0000
0000
0100
3000
0010
0000
,
0001
0100
1002
0000
0100
0000
0010
1000
,
0100
0000
1000
0003
0010
0000
0100
0000
1000
0000
0010
0000
0001
0000
0100
0000
,
0010
2002
0000
0000
0000
0000
0000
0000
,
3003
0000
0000
0000
1100
0000
1100
0000
0010
0000
0100
0010
0000
0100
0000
0010
,
0100
0000
0010
0000
0011
0000
0011
0000
0100
0000
0010
1000
0000
0010
0000
1000
,
0010
0000
0100
0000
0001
0000
0010
0000
0100
0000
1000
0100
0000
0000
0010
0000
,
0100
1000
0200
0000
0310
0002
0000
0000
,
0103
0000
0000
0000
0010
0000
0100
0000
1000
0000
0010
0100
0000
0000
0010
0000
,
0001
0000
0100
0000
0020
0000
0000
0000
0032
0023
0230
0302
0203
2300
3200
0320
,
0032
0023
0230
2300
3200
0300
0010
0000
0001
0000
0010
0100
0000
0000
0100
0000
,
0001
0100
1020
0000
1000
0030
0210
0000
,
0001
0000
0300
0000
0010
0000
0100
0000
1000
0000
0100
0010
0000
0000
0001
0000
,
0201
0000
0301
0000
1020
0000
1030
0100
,
0001
0010
0001
1000
0010
0100
0001
1000
,
0010
0000
0100
1000
0010
0000
1000
0000
0001
0000
0010
0000
1000
0000
0100
0000
,
0100
0010
0001
0010
1000
0100
0100
0010
,
0001
0000
1000
0000
0010
0000
0100
0000
0001
0000
0020
0200
2330
3200
0320
2030
,
3200
0320
0032
0003
0010
0000
0001
0000
0010
0000
0100
0000
1000
0000
0010
0000
,
0100
0000
0010
1000
0100
0000
0001
0000
0010
0000
1000
0000
0001
0000
0100
0000
,
0010
0001
0010
1000
0010
0100
0001
0010
,
1000
0000
0010
0000
0110
0000
0000
0101
0000
0000
1001
0000
0000
0000
0010
0000
,
1000
0000
0010
0000
0110
0000
0110
0000
0100
0000
0010
0100
0000
0001
0000
1000
,
0010
0000
0100
0000
0011
0000
0011
0000
0010
0000
0001
0010
0000
0100
0000
0001
,
0100
0000
1000
0000
1100
0000
1100
0000
1000
0000
0001
0100
0000
1000
0000
0010
,
0001
0001
1100
0110
0101
1010
1001
0000
,
0100
0001
0011
0100
0010
0100
1000
0010
,
0100
0001
0010
0100
0001
0100
0010
1000
,
0001
0100
0010
0010
0100
0100
0010
1000
,
0001
0100
0010
0100
1000
0010
0100
1000
,
0100
0120
0000
1000
0130
0020
0000
0031
,
0010
0210
0000
1000
0310
0002
0003
0001
,
0010
0210
0000
0010
0301
0020
0000
0100
,
1030
0000
0020
0000
0000
0000
1030
0000
0100
0000
0000
0000
1010
0000
0000
1100
,
0000
0000
1000
0000
0020
0000
0000
0030
0220
0000
0000
0030
0020
0000
0300
0200
,
0000
0030
0020
0300
0200
0000
0030
0020
0000
0300
0230
0000
0000
0000
1300
0000
,
0100
0000
1000
0000
0000
0000
0010
0000
0100
0000
0010
1000
0000
0000
0100
0000
,
0010
0100
0001
0000
0010
1000
0000
0010
,
0100
0000
0001
0000
0000
0000
0010
0000
1000
0000
0010
0001
0000
0000
0010
0000
,
0001
1000
0010
0000
0100
0010
0000
0001
,
0010
0200
0010
1300
0100
0020
0100
0031
,
0010
0200
0010
1300
0100
0010
0100
0001
,
1000
0020
1000
0130
0010
0002
0103
0001
,
0010
0200
0001
1300
0100
0020
1000
0031
,
0010
0200
0010
1300
0100
0020
1000
0130
,
0010
0002
0010
0103
0010
0001
0010
0100
,
1000
0000
0010
0000
0100
0000
0000
0010
0000
0000
0100
0000
0000
0010
0000
0010
,
0100
0001
0010
0100
0010
0000
0000
0000
0001
0000
0000
0000
0010
0000
0000
0000
,
0100
0000
1000
0000
1100
0000
1100
0000
0010
0000
0100
1000
0000
0001
0000
1000
,
0100
0000
0010
0000
0110
0000
0110
0000
0010
0000
0001
0100
0000
0001
0000
0010
,
0001
0000
0100
0000
0001
0000
1000
0000
0001
0000
1000
0010
0000
0100
0000
0001
,
1000
0010
0100
0010
1000
0001
0100
0000
,
0022
0033
0220
0000
0000
0000
0000
0000
,
0000
0000
0000
0000
,
0330
0000
0000
0000
;

//---------------dance-single - Hard----------------
#NOTES:
     dance-single:
     Hard:
     Medium:
     7:
     0.507,0.557,0.099,0.427,0.127:
0000
0000
0000
0000
,
0000
0000
0000
0000
,
0000
0000
0000
0000
,
0000
0000
0000
0000
,
0000
0000
0000
0000
,
0000
0000
0000
0000
,
0000
0000
0000
0000
,
0000
0000
0000
0000
0000
0000
0000
0100
,
1000
0100
0020
0100
0031
0020
0000
1000
,
0130
0000
0020
0000
0000
0000
0001
0030
0100
0000
0002
0000
0000
0000
0013
0000
,
0100
0020
0000
0031
0010
2000
0000
0100
,
3001
0020
0000
0000
0030
0000
0000
0010
,
1000
0000
0001
0000
0020
0000
0000
0030
0100
0000
0020
0000
0000
0000
0200
0000
,
0000
0330
0000
0000
1001
0000
0000
0000
0000
0000
0000
0000
0000
0000
0000
0000
,
0000
0000
0000
0000
0100
0000
1000
0000
0100
0000
1000
0100
0000
1000
0000
0100
,
1000
0000
0100
0000
0010
0000
0100
0000
0010
0000
0100
0010
0000
0100
0000
0010
,
0100
0000
0010
0000
0100
0000
0001
0000
0100
0000
0100
0001
0000
0100
0000
0001
,
0100
0001
0010
0001
0100
1000
0001
0000
,
1001
0000
1001
0000
1000
0000
0010
0100
,
0001
0000
0010
1000
0001
0000
0010
0100
,
0010
0000
0100
0001
0100
0000
0100
1000
,
0100
0000
0200
0000
0001
0300
0010
2000
,
0001
0000
0000
0000
0001
0000
0000
0000
0010
0000
0000
0000
0100
3000
0000
0000
,
0001
1002
0100
0010
,
0100
0000
0000
0003
0010
0000
0000
0000
1000
0000
0000
0000
0001
0000
0100
0000
,
0010
2002
0000
0000
0000
0000
0000
0000
,
3003
0000
0000
0000
,
0000
0000
0000
0000
,
0000
1000
0001
1000
,
0100
0200
0310
0001
,
0100
0010
1000
0100
,
0001
0000
1000
0000
0001
0000
0100
0010
,
0001
0100
0001
0100
,
0001
0000
1020
0000
1000
0030
0210
0000
,
0001
0300
0010
0000
1000
0000
0010
0000
,
0201
0000
0301
0000
1020
0000
1030
0100
,
0010
0002
0000
0013
0100
0020
0000
1030
,
0010
0200
0000
1300
0001
0020
0000
0130
,
0100
0010
0001
0000
1000
0100
0000
0020
,
0000
2030
0000
0000
3000
0010
1000
0010
,
0100
0001
0010
0001
0010
0100
1000
0010
,
0100
0010
0100
0001
0010
1000
0001
0100
,
0010
0001
0020
0000
0130
0010
0000
0020
,
0030
0000
2000
0000
0100
0000
0000
0100
0000
0000
3100
0000
0000
0000
0010
0000
,
1000
0000
0010
0000
0100
0000
0001
0000
0100
0000
0010
0100
0000
0010
0000
0100
,
0010
0000
0100
0000
0010
0000
0001
0000
0010
0000
0001
0010
0000
0001
0000
0010
,
0001
0000
0010
0000
1000
0000
0001
0000
1000
0000
0001
1000
0000
0001
0000
1000
,
0001
1000
0100
0010
0100
0001
1000
0000
,
0100
0001
0011
0000
0010
0000
1000
0010
,
0100
0000
0010
0000
0001
0000
0010
1000
,
0001
0000
0010
0000
0100
0000
0010
1000
,
0001
0000
0010
0000
1000
0000
0100
1000
,
0100
0020
0000
1000
0130
0020
0000
0031
,
0010
0200
0000
1000
0310
0002
0003
0001
,
0010
0200
0000
0010
0301
0020
0000
0100
,
1030
0000
0020
0000
0000
0000
0030
0000
0000
0000
0000
0000
1000
0000
0000
0100
,
0000
0000
0010
0000
0002
0000
0000
0000
0010
0000
0000
0000
0100
0000
0000
0010
,
0000
0000
0010
0000
0100
0000
0000
0100
0000
0000
0100
0000
0003
0000
1000
0000
,
0100
1000
0000
0010
0100
1000
0000
0100
,
0010
0100
0001
0000
0010
1000
0000
0010
,
0100
0001
0000
0010
1000
0010
0000
0010
,
0001
1000
0010
0000
0100
0010
0000
0001
,
0010
0200
0000
1300
0100
0020
0000
0031
,
0010
0200
0000
1300
0100
0010
0000
0001
,
1000
0020
0000
0130
0010
0002
0003
0001
,
0010
0200
0000
1300
0100
0020
0000
0031
,
0010
0200
0000
1300
0100
0020
0000
0130
,
0010
0002
0000
0003
0000
0000
0000
0100
,
1000
0010
0100
0000
0010
1000
0000
0010
,
0000
0001
0010
0100
,
0010
0000
0200
0000
0000
0000
0300
0000
0100
0000
0010
0100
0000
0010
0000
0100
,
0010
0000
0100
0000
0010
0000
1000
0000
0010
0000
0100
0001
0000
0100
0000
0001
,
0100
0000
0001
0000
0100
0000
0001
0000
1000
0000
0001
1000
0000
0001
0000
1000
,
0001
0010
0100
0010
1000
0001
0100
0000
,
0022
0033
0220
0000
0000
0000
0000
0000
,
0000
0330
0000
0000
;

//---------------dance-single - Medium----------------
#NOTES:
     dance-single:
     Medium:
     Easy:
     4:
     0.309,0.464,0.008,0.362,0.000:
0000
0000
0000
0000
,
0000
0000
0000
0000
,
0000
0000
0000
0000
,
0000
0000
0000
0000
,
0000
0000
0000
0000
,
0000
0000
0000
0000
,
0000
0000
0000
0000
,
0000
0000
0000
0000
,
0100
0000
0200
0300
0002
0003
0200
0300
,
0020
0030
0200
0300
0002
0003
0020
0030
,
0002
0003
0020
0030
0002
0003
0200
0300
,
0020
0030
0200
0300
0000
0000
0000
0000
,
0020
0030
0200
0300
0002
0003
0020
0030
,
0200
0300
0200
0300
0000
0000
0000
0000
,
0000
0100
0100
0100
,
0100
0010
0010
0010
,
0010
0010
0001
0001
,
0001
0001
1000
0001
,
1000
0000
1000
0001
,
1000
0010
0010
0100
,
0100
1000
0010
1000
,
0010
0100
0100
0001
,
0001
0010
0001
0010
,
0001
0010
0010
0100
,
0100
1000
0010
1000
,
0010
1000
0001
1000
,
0001
0010
0000
0000
,
0000
0010
0000
0000
,
0000
1000
0001
1000
,
0100
0200
0300
0002
,
0103
0010
1000
0100
,
0001
2000
3002
0003
,
0010
0100
0001
0100
,
0001
0200
2300
3010
,
0001
0010
1000
0010
,
0200
0302
0000
0003
,
0010
0001
0100
1000
,
0010
0100
0001
0010
,
0100
0001
1000
0010
,
1000
0010
0100
1000
,
0100
0010
0010
1000
,
0100
0100
0010
0001
,
0010
0020
0030
0001
,
0010
0100
0100
0100
,
0010
0010
0001
0010
,
0010
0001
0001
0001
,
0001
0010
0010
0010
,
0010
0001
1000
0001
,
1000
0001
0010
1000
,
0100
0010
0001
0010
,
0001
0010
0100
0010
,
0001
0010
1000
0100
,
0002
0000
0003
0000
,
2000
0000
0000
3000
,
0020
0000
0030
0000
,
2000
0000
0000
3000
,
0000
0001
1000
0001
,
1000
0010
0010
0000
,
0100
1000
0100
0010
,
0010
0001
0010
0000
,
0100
0001
1000
0010
,
0001
0010
0100
0010
,
0000
2000
3000
0002
,
0003
2000
3000
0010
,
1000
0200
0300
0002
,
0003
2000
3000
0020
,
0030
2000
3000
0020
,
0030
0020
0030
0000
,
1000
0100
0010
1000
,
0010
0001
0000
0000
,
0000
0100
0100
0100
,
0010
0010
0010
0001
,
0001
0001
1000
0001
,
1000
0001
0010
0001
,
0000
0220
0000
0000
,
0000
0330
0000
0000
;

//---------------dance-single - Blank----------------
#NOTES:
     dance-single:
     Blank:
     Beginner:
     3:
     0.141,0.156,0.008,0.033,0.000:
0000
0000
0000
0000
,
0000
0000
0000
0000
,
0000
0000
0000
0000
,
0000
0000
0000
0000
,
0000
0000
0000
0000
,
0000
0000
0000
0000
,
0000
0000
0000
0000
,
0000
0000
0000
0000
,
0000
1000
0000
0000
,
0000
0001
0000
0000
,
0000
1000
0000
0000
,
0000
0001
0000
0000
,
0000
0100
0000
0000
,
0000
0010
0000
0000
,
0000
1000
0000
0001
,
0000
0100
0000
0010
,
0000
0100
0000
0001
,
0000
0100
0010
0010
,
0000
1000
0000
0001
,
0000
0100
0000
0010
,
0000
1000
0000
1000
,
0000
0010
0000
0010
,
0000
0001
0000
0001
,
0000
0100
0000
0100
,
0000
0010
0000
1000
,
0000
0010
0000
0001
,
0000
0010
0000
0000
,
0000
0010
0000
0000
,
0000
1000
0000
0001
,
0000
0100
0000
0010
,
0000
0100
0000
1000
,
0000
0100
0000
0100
,
0000
0010
0000
0001
,
0000
0010
0000
0010
,
0000
0100
0000
1000
,
0000
0100
0000
0100
,
0000
0010
0000
1000
,
0000
0001
0000
0100
,
0000
0010
0000
1000
,
0000
0010
0000
0100
,
0000
0001
0000
0100
,
0000
0010
0000
1000
,
0000
0010
0000
0100
,
0000
0001
0000
0010
,
0000
0100
0000
0000
,
0000
1000
0000
0000
,
0000
0010
0000
0000
,
0000
0001
0000
1000
,
0000
0010
0000
0100
,
0000
0010
0000
0010
,
0000
0100
0000
1000
,
0000
0100
0000
0010
,
0000
0010
0000
0001
,
0000
0010
0000
0010
,
0000
1000
0000
0010
,
0000
0001
0000
0010
,
0000
0020
0000
0000
,
0000
0000
0000
0030
,
0000
0010
0000
1000
,
0000
0010
0000
0010
,
0000
0001
0000
0100
,
0000
0010
0000
0010
,
0000
0100
0000
0100
,
0000
0010
0000
0010
,
0000
0001
0000
0001
,
0000
0010
0000
0010
,
0000
0100
0000
0100
,
0000
1000
0000
0000
,
0000
0010
0000
0001
,
0000
2000
3000
0000
,
0000
0010
0000
0000
,
0000
1000
0000
0000
,
0000
0001
0000
0000
,
0000
0100
0000
0001
,
0000
0220
0000
0000
,
0000
0000
0000
0000
,
0330
0000
0000
0000
;
