#TITLE:LONELIEST BABY;
#SUBTITLE:;
#ARTIST:u's;
#TITLETRANSLIT:;
#SUBTITLETRANSLIT:;
#ARTISTTRANSLIT:;
#GENRE:;
#CREDIT:CHMX;
#BANNER:banner.png;
#BACKGROUND:BGI.png;
#LYRICSPATH:;
#CDTITLE:;
#MUSIC:LONELIEST BABY.mp3;
#OFFSET:0.000;
#SAMPLESTART:69.980;
#SAMPLELENGTH:12.000;
#SELECTABLE:YES;
#BPMS:0.000=132.000;
#STOPS:0.000=0.140
;
#BGCHANGES:0.000=BGA.avi=1.000=0=0=0=StretchNoLoop====,
99999=-nosongbg-=1.000=0=0=0 // don't automatically add -songbackground-
;
#KEYSOUNDS:;

//---------------dance-single - Blank----------------
#NOTES:
     dance-single:
     Blank:
     Hard:
     8:
     0.602,0.989,0.277,0.882,0.143:
0000
0000
0000
0000
,
0000
0000
0000
0000
,
0220
0330
1000
0000
0000
0000
0001
0000
,
0000
0000
1000
0000
0000
0000
0001
0100
,
0220
0330
1000
0000
0000
0000
0001
0000
,
0000
0200
1310
1001
,
0110
0100
0001
0010
1000
0010
0000
0010
,
0100
0000
0010
0000
0001
0000
0010
1000
0100
0000
0010
0000
1000
0000
0100
0000
,
1000
0000
0010
0001
0100
0000
0001
0000
0100
0000
0020
0000
0030
0000
1000
0100
,
0010
0000
1000
0000
0010
0000
0200
0000
0000
0000
0310
0000
1000
0100
0010
0000
,
0001
0010
1000
0010
0100
0010
0000
0010
,
0001
0000
0010
0000
1000
0000
0010
0001
0100
0000
0001
0000
0200
0000
0300
0000
,
0220
0000
0330
0000
0000
0000
0220
0000
0330
0000
0000
0000
0020
0230
0302
0023
,
0230
0320
0230
2300
3200
2300
3200
0000
1310
0000
0000
0000
0220
0000
0330
0000
,
2002
3003
0100
0010
0200
0300
1000
0010
,
0100
0001
1000
0020
0000
0000
0200
0330
,
0110
0001
0010
1000
0002
0003
0010
0100
,
0001
0010
1000
0020
0000
0030
0010
0020
,
0000
0130
0001
0010
0200
0300
0100
0001
,
0010
1000
0001
0200
0000
0300
0100
0200
,
0000
0310
1000
0001
0100
0010
0001
0020
,
0030
0010
0100
0001
0010
0010
0220
0330
,
0110
0000
0000
0000
0010
0000
0010
0100
0000
0010
0000
0010
1000
0000
0010
0000
,
0000
0000
0001
0010
0100
0000
0100
0001
0000
0010
0000
1000
0010
0000
0200
0000
,
0000
0300
0200
0000
0320
0000
0030
0000
0200
0000
0320
0000
0030
0000
0020
0000
,
0000
0030
1000
0000
0001
0000
0010
0000
0200
0000
0300
0000
0020
0000
0030
0000
,
0100
0010
0002
0003
0010
0002
0003
0002
,
0003
0010
1000
0001
0010
0100
0020
0030
,
0200
1300
0001
0010
0100
0001
0000
0020
,
0030
0010
0001
0010
0100
0010
1000
0010
,
0200
0000
0010
0000
0001
0000
0310
0100
,
0000
1000
0000
0100
0020
0030
0000
0020
,
0000
0130
1000
0001
0100
0010
0100
0001
,
0020
2030
3020
0230
,
0300
0010
1000
0020
0000
0030
0000
0020
,
0030
0010
0100
0002
0000
0003
0020
0200
,
0030
0310
0010
0100
0001
0010
1000
0001
,
0200
0000
0000
0000
,
0300
0000
2000
3020
,
1031
0000
0010
0100
1010
0000
0010
0100
,
0001
0010
1000
0100
1010
0010
0100
0001
,
1001
0000
0010
2000
0000
0000
3000
0000
,
2000
3002
0203
0320
,
1031
0000
0022
0033
1001
0000
0011
0001
,
0100
0001
0010
0001
0100
0020
0030
0100
,
0200
0300
0010
0200
0300
2000
0000
0002
,
0000
0000
0000
0000
0000
3003
0001
0000
,
1010
0000
0001
0010
1100
0000
0001
0010
,
0100
0001
0010
1000
0101
0010
0001
0010
,
1001
0000
0100
0020
0000
0030
1000
0001
,
0020
0230
0302
2003
,
3001
0010
1000
0001
0000
0010
0000
2000
,
0000
3100
2000
0000
0000
3000
0010
1000
,
0010
0001
0010
0200
0300
0020
0030
2000
,
0000
0000
3001
0000
0100
0000
0010
0100
1000
0100
0010
0100
0001
0100
0001
0100
,
0020
0030
0000
0000
0022
0033
2002
3003
,
0210
0000
0020
0000
0331
0000
0010
0000
1000
0000
0000
0001
0000
0000
0100
0000
,
0000
0000
0001
0000
0010
0000
0100
0000
0001
0000
0000
1000
0000
0000
0100
0000
,
0000
0000
0010
0000
0100
0000
0001
0000
0010
0000
0000
1000
0000
0000
0010
0000
,
0000
2000
3200
0320
,
1030
0000
0001
0000
0010
0000
0100
0000
0001
0000
0000
0100
0000
0000
0010
0000
,
0000
0000
0100
0000
0010
0000
0001
0000
0010
0000
0000
0100
0000
0000
0020
0000
,
0130
0001
0100
0010
0000
0000
0010
1000
0010
0100
0000
0000
0001
0100
0010
0100
,
0000
0000
0220
0000
0000
0000
0000
0000
0000
0000
0000
0000
0000
0000
0000
0330
,
0110
0000
1000
0000
0010
0000
0100
0000
0101
0000
0000
0110
0000
0000
2002
0000
,
0000
0000
0000
3003
0000
0000
0000
0000
;

//---------------dance-single - Hard----------------
#NOTES:
     dance-single:
     Hard:
     Challenge:
     11:
     0.719,1.000,0.311,0.974,0.311:
0000
0000
0000
0000
,
0000
0000
0000
0000
,
0220
0330
1000
0000
0000
0000
0001
0000
,
0000
0000
1000
0000
0000
0000
0001
0110
,
2020
3030
1000
0000
0000
0000
0001
0000
,
0001
0010
0100
1000
0001
1000
0001
1000
0010
1000
0010
0100
0010
1000
0001
1000
0001
1000
0400
0000
0000
0000
0300
0000
,
0110
1000
0001
0010
1000
0001
1000
0010
,
0100
0000
0010
0000
0001
0000
0010
1000
0100
0000
0010
0000
1000
0000
0100
0000
,
1000
0000
0010
0001
0100
0010
0001
0000
0100
0000
0020
0000
0130
0000
1000
0100
,
0010
1000
0100
0000
0010
0000
0200
0000
0010
0000
0301
0000
0010
0100
1000
0000
,
0001
0010
1000
0010
0100
0010
0001
0010
,
0001
0000
0010
0000
1000
0000
0010
0001
0100
0000
0001
0000
0200
0000
0300
0000
,
0010
1000
0010
0200
0300
0000
0100
0010
0100
0002
0003
0000
0020
0230
0302
0023
,
0230
0320
0230
2300
3020
0230
2300
3000
1010
0000
0000
0000
0220
0000
0330
0000
,
2002
3003
0100
0010
0200
0300
1000
0010
,
0100
0001
1000
0020
0000
0000
0200
0330
,
0110
0001
0010
1000
0200
0300
0010
0100
,
0001
0010
1000
0020
0000
0030
0010
0020
,
0000
0130
0001
0010
0200
0300
0100
0001
,
0010
1000
0001
0200
0000
0300
0010
0020
,
0030
0010
1000
0001
0100
0010
0001
0020
,
0030
0010
0100
0001
0110
0010
0220
0330
,
0110
0000
0000
0000
0010
0000
0010
0100
0000
0010
0000
0010
1000
0000
2020
0000
,
3030
0000
0001
0010
0100
0000
0100
0001
0000
0010
0000
0100
0001
0000
0202
0000
,
0003
0300
0200
0000
0320
0000
0030
0000
0200
0000
0320
0000
0030
0000
0020
0000
,
0000
0030
1000
0000
0001
0000
0010
0000
0200
0000
0300
0000
0120
0000
0030
0000
,
0100
0110
0002
0003
0010
0002
0003
0002
,
0003
0110
1000
0001
0010
0100
0020
0030
,
0200
1300
0001
0010
0100
0001
0000
0020
,
0030
0010
0001
0010
0100
0010
1000
0010
,
0200
0000
0010
0000
0001
0000
0310
0100
,
0000
1000
0000
0100
0020
0030
0000
0020
,
0000
0130
1000
0001
0100
0010
0100
0001
,
0020
2030
3020
0230
,
0300
0010
1000
0020
0000
0030
0000
0020
,
0030
0010
0100
0002
0000
0003
0020
0200
,
0030
0310
0010
0100
0001
0010
1000
0001
,
0200
0000
0000
0310
0000
0000
0020
0000
0000
1030
0000
0000
2000
0000
0000
3010
0000
0000
0020
0000
0000
0031
1000
0001
,
1000
0001
0100
0010
0100
0010
0100
0001
1000
0001
1000
0001
0400
0000
0000
0000
0300
0000
2000
0000
0000
0000
3000
0000
,
1100
0100
0001
0100
1100
0010
0001
0010
,
1100
1000
0001
1000
1100
0010
0100
0001
,
1001
0100
0010
2000
0000
3000
0000
0000
,
2000
0000
3002
0000
0103
0100
0020
0000
,
1031
0000
0022
0033
1001
0000
0011
0001
,
0100
0001
0010
0001
0100
0020
1030
0100
,
0200
0300
0010
0200
0300
2000
0000
0002
,
0000
0000
3013
0000
0100
1000
0000
1000
0200
0000
0300
0100
0010
0000
0010
0000
,
1100
0010
0001
0010
1001
0100
0010
0001
,
1100
0100
0010
0100
1001
0010
0001
0010
,
1001
0010
0100
0020
0000
0030
1000
0001
,
0020
0230
0302
2003
,
3001
0010
1000
0001
0000
0010
0000
2000
,
0000
3100
2000
0000
0000
3000
0010
1000
,
0010
0001
0010
0200
0300
0020
0030
2000
,
0000
0000
3001
0000
0100
0000
0010
0100
1000
0100
0010
0100
0010
0001
0010
0100
,
0020
0130
0010
0001
0022
0033
2002
3003
,
0210
0000
0020
0000
0331
0000
0010
0000
1000
0000
0000
0001
0000
0000
0100
0000
,
0000
0000
0001
0000
0010
0000
0100
0000
0001
0000
0000
1000
0000
0000
0100
0000
,
0000
0000
0010
0000
0100
0000
0001
0000
0010
0000
0000
1000
0000
0000
0010
0000
,
0000
0000
0000
0100
2000
0000
3000
1000
0200
0010
0000
0300
0020
0000
0031
0100
,
1000
0000
0001
0000
0010
0000
0100
0000
0001
0000
0000
0100
0000
0000
0010
0000
,
0000
0000
0100
0000
0010
0000
0001
0000
1000
0000
0000
0100
0000
0000
0020
0000
,
0130
0001
0100
0010
0000
0000
0010
1000
0010
0100
0000
0000
0001
0100
0010
0100
,
0000
0000
0020
2030
3002
0203
0320
0230
2300
3200
2300
3020
2030
0000
0000
3000
,
0110
0000
1000
0000
0010
0000
0100
0000
0101
0000
0000
0110
0000
0000
2002
0000
,
0000
0000
0000
3003
0000
0000
0000
0000
;

//---------------dance-single - Hard----------------
#NOTES:
     dance-single:
     Hard:
     Medium:
     7:
     0.512,0.549,0.193,0.773,0.063:
0000
0000
0000
0000
,
0000
0000
0000
0000
,
0000
1000
0000
1000
,
0000
1000
0000
1000
,
0000
1000
0000
1000
,
0100
0010
0010
1001
,
0010
0100
0001
0010
1000
0010
0000
0010
,
0100
0010
0001
0010
0100
0010
1000
0100
,
1000
0010
0100
0001
0100
0020
0030
1000
,
0010
1000
0010
0200
0000
0310
1000
0010
,
0001
0010
1000
0010
0100
0010
0000
0010
,
0001
0010
1000
0010
0100
0001
0200
0300
,
0220
0000
0330
0000
0000
0000
0220
0000
0330
0000
0000
0000
0040
0400
0000
0000
,
0000
0000
0000
0330
0010
0000
0220
0330
,
2000
3000
0100
0010
0200
0300
1000
0010
,
0110
0000
0000
0001
0000
0000
0020
0000
0000
0000
0000
0000
0200
0000
0000
0330
,
0000
0001
0010
1000
0002
0003
0010
0100
,
0002
0000
0010
0003
2000
0000
0000
3000
0200
0000
0000
0300
0010
0000
0020
0000
,
0000
0130
0001
0010
0200
0300
0100
0001
,
0120
0000
0030
1000
0000
0000
0200
0000
0000
0000
0300
0000
0100
0000
0020
0000
,
0000
0030
1000
0001
0100
0010
0001
0020
,
0030
0010
0100
0001
0010
0010
0020
0030
,
0110
0000
0000
0000
0010
0000
0010
0100
0000
0010
0000
0010
1000
0000
0010
0000
,
0000
0000
0001
0000
0100
0000
0100
0001
0000
0010
0000
0100
0010
0000
0200
0000
,
0000
0300
0200
0000
0320
0000
0030
0000
0200
0000
0320
0000
0030
0000
0020
0000
,
0000
0030
1000
0000
0001
0000
0010
0000
0200
0000
0300
0000
0020
0000
0030
0000
,
0100
0010
0002
0003
0010
0002
0003
0002
,
0003
0010
1000
0001
0010
0100
0020
0030
,
0200
1300
0001
0010
0100
0001
0000
0020
,
0030
0010
0001
0010
0100
0010
1000
0010
,
0200
0000
0000
0000
0000
0000
1300
0100
,
0000
1000
0000
0100
0020
0030
0000
0020
,
0000
0031
0100
0001
0100
0010
0100
0001
,
0020
2030
3020
0230
,
0300
0010
1000
0020
0000
0030
0000
0020
,
0030
0010
0100
0002
0000
0003
0020
0200
,
0030
0310
0010
0100
0001
0010
0100
0001
,
0200
0000
0000
0000
,
0300
0000
2000
3020
,
1031
0010
1010
0010
,
0001
0010
1000
0100
1010
0000
0100
0000
,
1001
0000
0010
2000
0000
0000
3000
0000
,
2000
3002
0203
0320
,
1031
0000
0022
0033
1001
0000
0022
0033
,
0100
0002
0003
0020
0030
0200
0300
0010
,
0200
0300
0010
0200
0300
2000
0000
0002
,
0000
0000
0000
0000
0000
3003
0001
0000
,
1010
0000
0001
0010
1100
0000
0001
0010
,
1100
0001
0010
1000
0101
0000
0001
0000
,
1001
0000
0200
0000
0000
0300
1000
0001
,
0020
0230
0302
2003
,
3100
0001
0100
0001
0000
0010
0000
2000
,
0000
3100
2000
0000
0000
3000
0010
1000
,
0010
0001
0010
0200
0300
0020
0030
2000
,
0000
3001
0100
0010
0200
0000
0001
0300
,
0220
0330
0000
0000
0020
0030
2002
3003
,
0100
0000
0010
0000
0100
0000
0010
0000
0100
0000
0000
0001
0000
0000
0100
0000
,
0000
0000
0010
0000
0100
0000
0010
0000
0100
0000
0000
1000
0000
0000
0100
0000
,
0000
0000
0010
0000
0100
0000
0010
0000
0100
0000
0000
1000
0000
0000
0100
0000
,
0000
2000
3200
0320
,
0130
0000
0010
0000
0100
0000
0010
0000
1000
0000
0000
0100
0000
0000
0010
0000
,
0000
0000
0100
0000
0010
0000
0100
0000
0010
0000
0000
0100
0000
0000
0020
0000
,
0000
0000
0000
0000
,
0030
0000
0220
0000
0000
0000
0000
0000
0000
0000
0000
0000
0000
0000
0000
0330
,
0010
0000
0100
0000
0010
0000
0100
0000
0010
0000
0000
0100
0000
0000
2000
0000
,
0000
0000
0000
3000
0000
0000
0000
0000
;

//---------------dance-single - Blank----------------
#NOTES:
     dance-single:
     Blank:
     Easy:
     6:
     0.286,0.327,0.126,0.260,0.004:
0000
0000
0000
0000
,
0000
0000
0000
0000
,
2002
3003
0000
0000
,
0000
0000
0000
0000
,
2002
3003
0000
0000
,
0000
0000
1000
0001
,
0010
1000
1000
0001
,
0001
1000
0100
0010
,
0001
0010
1000
0000
0001
0010
1000
0000
,
1000
0100
0010
0000
1000
0100
0010
0000
,
0001
1000
0001
1000
,
0010
0010
0100
0100
,
1000
0000
0000
0001
0000
0000
2000
0000
,
0000
0000
0000
3000
0001
0000
1001
0000
,
0001
0000
0100
0000
,
0010
0000
2000
0000
,
3010
0000
0100
0000
,
0001
0000
0000
0000
0020
0000
0000
0030
,
1000
0000
0010
0000
,
0100
0000
0001
0000
,
1000
0000
0010
0000
,
0100
0000
0010
0001
,
0010
1000
0010
0001
,
0010
0100
0010
0001
,
0010
0010
0010
0001
,
1000
0001
0010
0010
,
0100
0010
0001
1000
,
0001
1000
0010
0010
,
0100
0100
0010
0010
,
1000
1000
0001
1000
,
2002
0000
0000
0000
0000
0003
3000
0000
,
0000
0000
1000
0001
,
0001
1000
1000
0001
,
0200
0320
2030
3010
,
1000
0001
0000
1000
,
0000
0010
0000
0100
,
0010
0001
0010
1000
,
0020
0000
0000
0030
,
0000
0000
0010
0011
,
1000
0011
1000
0011
,
0010
0100
0011
0001
,
0011
0001
1000
0010
,
0001
0010
0100
1000
,
0011
1000
0011
1000
,
0001
1000
0001
0100
,
0010
0001
1000
0001
,
0010
0001
0100
0010
,
1000
0011
1000
0011
,
0100
0001
1000
0011
,
1000
0011
0100
0001
,
2000
0000
3002
0000
0203
0300
0020
0000
,
1030
0000
0000
0001
0000
0000
0000
0100
,
0000
0010
0001
1000
,
0001
0000
0000
1000
0000
0000
0002
0000
,
0000
0003
1000
0001
,
0010
0000
2000
3002
,
0203
0000
0000
0300
0020
0000
0000
0030
,
2000
0000
0000
0000
3002
0000
0000
0003
,
0200
0000
0000
0300
0020
0000
0000
0030
,
1000
0001
1000
0001
,
2000
0000
0000
3000
0002
0000
0000
0003
,
0200
0000
0000
0300
0020
0000
0000
0030
,
1000
0000
0000
0100
0000
0000
0020
0030
,
0000
0004
0000
0000
0000
0000
0000
0000
,
0000
0003
0000
0000
0000
0000
0000
0000
0100
0000
0000
0001
0000
0000
0100
0000
;

//---------------dance-single - Blank----------------
#NOTES:
     dance-single:
     Blank:
     Beginner:
     4:
     0.216,0.272,0.084,0.126,0.004:
0000
0000
0000
0000
,
0000
0000
0000
0000
,
0000
0000
0000
0000
,
0000
0000
0000
0000
,
0000
0000
0000
0000
,
0000
0000
1000
0001
,
0010
1000
0000
0001
,
0000
0100
0000
0010
,
0000
1000
0000
0001
,
0000
0100
0000
0010
,
1000
0001
0000
1000
,
0000
0010
0000
0100
,
0010
0000
0000
0100
0000
0000
0020
0000
,
0000
0000
0000
0030
0010
0000
0010
0000
,
0010
1000
0000
0001
,
0000
0100
0000
0010
,
0000
1000
0000
0010
,
0000
0002
0000
0003
,
1000
0001
0000
1000
,
0000
0001
0000
0100
,
0000
0010
0000
1000
,
0000
0001
1000
0001
,
1000
0001
0000
1000
,
0000
0010
0000
0001
,
0100
0001
0100
0001
,
1000
0001
1000
0020
,
0030
0100
0000
1000
,
0000
0001
1000
0001
,
1000
0001
1000
0001
,
0100
0010
2000
3002
,
0203
0000
0000
0300
,
0000
0001
0000
1000
,
0000
0010
0000
0100
,
0001
1000
0010
0100
,
0010
0001
0010
0100
,
1000
0100
0010
0100
,
0001
0010
0100
1000
,
0020
0000
0000
0030
,
0000
0000
1000
0001
,
1010
0000
0011
0000
,
1000
0001
0101
0000
,
2200
0000
0000
0000
0000
0000
0000
0000
3300
0000
0000
0000
,
1000
0001
0100
0001
,
1010
0000
0101
0000
,
0010
1000
0001
0010
,
1000
0001
0010
0002
,
0000
0000
0000
0003
,
1001
0000
0011
0000
,
1000
0000
0011
0000
,
2002
0000
3003
0000
,
1000
0000
0001
0100
,
0010
1000
0000
0001
,
0000
1000
0000
0001
,
0000
0100
0000
0010
,
1000
0010
0002
0000
,
0103
0000
0001
0100
,
1000
0001
1000
0000
,
0001
0100
0001
0000
,
1000
0010
1000
0000
,
0010
0001
0010
1000
,
0000
1000
0001
1000
,
0000
0010
0001
0100
,
0002
0000
0000
0000
,
0003
0000
0000
0002
0000
0000
0000
0000
0000
0000
0000
0000
0000
0000
0000
0000
0000
0000
0000
0000
0000
0000
0003
0000
,
0001
0000
0000
0000
0000
0000
0000
0000
0010
0000
0000
0100
0000
0000
0010
0000
;
