#TITLE:Korekara No Someday;
#SUBTITLE:;
#ARTIST:u's;
#TITLETRANSLIT:;
#SUBTITLETRANSLIT:;
#ARTISTTRANSLIT:;
#GENRE:;
#CREDIT:CHMX;
#BANNER:banner.png;
#BACKGROUND:BGI.png;
#LYRICSPATH:;
#CDTITLE:;
#MUSIC:Korekara No Someday.mp3;
#OFFSET:0.000;
#SAMPLESTART:63.660;
#SAMPLELENGTH:12.000;
#SELECTABLE:YES;
#BPMS:0.000=120.000,210.000=120.010,211.000=240.000;
#STOPS:0.000=0.080
;
#BGCHANGES:0.000=BGA.avi=1.000=0=0=1=StretchNormal====,
99999=-nosongbg-=1.000=0=0=0 // don't automatically add -songbackground-
;
#KEYSOUNDS:;

//---------------dance-single - Hard----------------
#NOTES:
     dance-single:
     Hard:
     Challenge:
     11:
     0.785,0.874,0.620,0.458,0.687:
0000
0000
0000
0000
,
0000
0000
0000
0000
0000
0000
0000
1000
,
0000
0000
0000
0000
1000
0000
0100
0000
1000
0000
0020
0000
0000
0000
0031
0100
0001
0000
0010
0000
0100
0000
0010
0000
1000
0000
0010
0000
0110
0000
0000
0000
,
0000
0000
0000
0000
0001
0000
0010
0000
0001
0000
0100
0000
0000
0000
0010
0100
0010
0000
0100
0000
1000
0000
0010
0000
0100
0000
0001
0000
0110
0000
0000
0000
,
0100
0000
0000
0000
0010
0000
0000
0000
0100
0000
0000
0000
0000
0001
0100
0001
0000
0000
1000
0010
1000
0000
0100
0000
0000
0010
0100
0010
1000
0000
0010
0000
,
1000
0002
2000
0000
0000
0000
0000
0000
0000
0000
0000
0000
3003
0000
0010
0100
,
0010
0001
0010
0100
1000
0100
2000
0000
3100
0000
0010
0000
0001
0020
0000
0000
,
0130
0000
0010
0000
1100
0000
0020
0000
0000
0000
0030
0000
0001
1000
0100
0010
,
0001
0000
0101
0000
0110
0000
1020
0000
0000
0000
0000
0030
0001
1000
0100
0010
,
0100
0010
0001
0010
0100
0100
1000
0010
,
0100
0000
0010
0000
1001
0000
0110
0000
0010
0000
0010
0010
0001
0000
0100
0100
,
0001
0000
0010
0010
0001
0000
0001
0001
0100
0000
0001
0001
0100
0000
0001
0001
,
0010
0000
0001
0001
0001
0000
0010
0010
0010
0000
0100
0100
0100
0000
0001
0000
,
0110
0000
1001
0000
0110
0000
0001
0000
0001
0000
0010
0100
0001
0010
0000
0000
,
2002
0000
0000
0000
3003
0000
2200
0000
3310
0000
0001
0000
0010
0002
0000
0000
,
0013
0000
0010
0000
0100
0000
2000
0000
0000
0000
0000
0000
3100
0010
0000
0000
,
0100
0000
0101
0000
0010
0000
2000
0000
0000
0000
3000
0000
0100
0020
0000
0030
,
0000
0101
0101
0110
0010
2000
3020
0030
,
0110
0000
1010
0000
0110
0000
1001
0000
0010
0000
1000
0000
0010
2000
0000
3000
,
0010
0000
0100
0000
0001
0000
0020
0000
0000
0000
0030
0000
0100
2000
0000
3000
,
0100
0000
0001
0000
0100
0000
0010
0000
1000
0001
0000
0001
0000
0200
0000
0000
,
0001
0300
0110
0000
0100
0000
0001
0000
0001
0000
0010
1000
0010
0200
0000
0310
,
0100
0000
0010
0000
1000
0000
0001
0010
1000
0000
0010
0000
1000
0000
0100
0000
0001
0000
0000
0000
1000
0000
0100
0000
0000
0000
0020
0000
0000
0000
0000
0000
,
0031
0010
0100
0110
0001
1010
0001
0110
,
0001
0000
0000
0000
0100
0000
0010
1000
0100
0000
0001
0000
1000
0000
0010
0000
0000
0000
0100
0000
0001
0000
0200
0000
0000
0000
0320
0000
0000
0000
0030
0000
,
0002
0000
2003
0000
3110
0000
0001
0000
0101
0000
0000
1001
0000
0000
1020
0000
,
1000
0000
0030
0000
0100
0000
0010
1000
0010
1000
0010
0000
0001
0000
0000
0000
0200
0000
0300
0000
0001
0000
0001
0000
1000
0000
0000
0000
0100
0000
0000
0000
,
0020
0000
1030
1000
0200
0000
0310
0000
0020
0000
1030
1000
0200
0000
0310
0000
,
0020
0000
0000
0000
1030
0000
1000
0001
0100
0010
0000
0000
0001
0000
0000
0000
0100
0000
0000
0000
0010
0000
0010
0000
0100
0000
0000
0000
0001
0000
0000
0000
,
0100
0010
0000
0200
0300
2020
0000
3030
0100
0000
0010
0000
0001
0000
0010
0000
,
0001
1001
0101
0011
0011
0101
0110
1010
,
1010
0000
1010
0000
0000
0000
0101
0000
0101
0000
0000
0000
0002
0000
0000
0000
0003
0000
0001
0010
0001
0100
0001
0100
0001
0100
0010
0000
0001
0000
0000
0000
,
1000
0000
0010
0000
0100
0001
0000
0010
1000
0000
0001
0000
0100
0000
0010
0000
,
0100
0000
0010
0000
0100
0010
0000
0001
1000
0000
0010
0000
0100
0000
1000
0000
,
1000
0001
0001
1000
1000
0001
0001
0100
,
0100
0000
0110
0000
0001
0000
0010
0000
0001
0000
1000
0100
0010
0001
0100
0000
,
0001
0000
1000
0000
0001
0100
0000
0100
0010
0000
0001
0000
0001
0000
0100
0000
,
0100
0000
0010
0000
0010
1000
0000
0100
0001
0000
1000
0100
0001
0000
0100
0000
,
0001
0000
0001
0000
1000
0100
0000
0010
0001
0000
0100
0000
0001
0000
1000
0000
,
1000
0000
0000
0000
0010
0000
0000
0000
0100
0000
0000
0000
0010
0000
0000
0000
1000
0000
0000
0000
0001
0000
0010
1000
0100
0000
0000
0000
0010
0000
0000
0000
,
1000
0000
0001
0000
0001
0200
0000
0300
0010
0000
0001
0000
1000
0020
0000
0030
,
0100
0000
0001
0000
0100
0020
0000
0000
1030
0000
0010
0000
1000
0000
1000
0000
,
0010
0100
0001
0010
0100
0010
1000
0001
,
0100
0010
2002
3113
1001
1010
0101
1100
,
0011
1100
0101
1010
1001
0110
0101
0011
,
0000
0000
0000
0000
1000
0000
0100
0000
1000
0000
0020
0000
0000
0000
0031
0100
0001
0000
0010
0000
0100
0000
0010
0000
1000
0000
0010
0000
0110
0000
0000
0000
,
0000
0000
0000
0000
0001
0000
0010
0000
0001
0000
0100
0000
1000
0000
0001
0010
0001
0000
0100
0000
1000
0000
0010
0000
0100
0000
0001
0000
0110
0000
0000
0000
,
0100
0000
0000
0000
0010
0000
0000
0000
0102
0000
0000
0000
0003
0000
0001
0100
0001
0000
1000
0010
1000
0000
0000
0010
0100
0010
0000
0000
1000
0010
1000
0000
,
0010
0100
0002
0000
0000
0000
0000
0000
0000
0000
0000
0000
0000
0003
0010
1000
,
0100
0010
1000
0010
0100
1000
0000
0000
0110
0000
0000
0110
0000
0000
0110
0000
,
0000
0110
0000
0000
0110
0000
2002
0000
0000
0000
0000
0000
0000
0000
0000
0000
,
0000
0000
0000
0000
,
0000
0000
0000
0000
0000
0000
3003
0000
0001
1000
0001
1000
0000
0000
0000
0000
0000
0000
0000
0000
0000
0000
0000
0000
0000
0000
0000
0000
0000
0000
0000
0000
;

//---------------dance-single - Medium----------------
#NOTES:
     dance-single:
     Medium:
     Easy:
     5:
     0.255,0.275,0.010,0.143,0.000:
0000
0000
0000
0000
,
0000
0000
0000
0000
0000
0000
0000
2000
,
0000
3000
0000
0002
0000
0000
0003
2000
,
0000
3000
0000
0002
0000
0003
0000
0100
,
0000
0000
0000
0001
0000
0000
1000
0000
,
0000
0002
0000
0000
0000
0000
0000
0000
,
0000
0000
0000
0003
0000
0000
1000
0000
,
0100
0100
0010
0010
,
1000
0100
0100
0010
,
1000
0010
0100
0010
,
0001
0010
0100
0010
,
0001
0100
0100
0010
,
0010
0100
0100
0001
,
0001
0010
0010
0100
,
0200
0000
0000
0300
0100
0000
0010
0000
,
1000
0001
0100
0010
,
0100
0010
0100
0001
,
1000
0001
0100
0000
,
0010
0100
0010
1000
,
0001
0100
0010
0100
,
0100
1000
1000
0001
,
0100
0010
0100
0020
,
0000
0000
0000
0030
1000
0000
0001
0000
,
0100
0000
0100
0010
0100
0010
0100
0010
,
0100
0010
0100
0010
1000
0000
0010
0000
,
0001
0000
0010
0000
0010
0000
0000
0010
,
0000
0010
1000
0010
,
0100
0100
0001
0001
,
1000
1000
0001
0001
,
0100
0100
0010
0010
,
0001
0100
0001
0100
,
0010
2000
0000
0000
,
3010
0100
0010
0001
,
0010
0100
0010
1000
,
0001
1000
0001
1000
,
0001
0100
0010
0001
,
1000
1000
0001
0001
,
1000
1000
0100
0100
,
0010
0010
1000
1000
,
0001
0001
0100
0100
,
0010
0001
0010
0100
,
1000
0100
0010
0001
,
0020
0000
0000
0000
0000
0030
0100
0000
,
0010
0000
1000
0000
1000
0001
1000
0001
,
1000
0001
1000
0001
1000
0001
1000
0001
,
0000
0000
0200
0000
0000
0300
0000
0001
,
0000
0000
0200
0000
0000
0000
0300
0010
,
0000
0000
0200
0000
0000
0300
0000
0000
,
0000
0002
0000
0000
0000
0000
0000
0000
,
0000
0003
0001
0000
,
0000
0000
0000
2002
0000
0000
0000
0000
,
0000
0000
0000
0000
,
0000
0000
0003
3000
0000
0000
0000
0000
;

//---------------dance-single - Blank----------------
#NOTES:
     dance-single:
     Blank:
     Beginner:
     2:
     0.136,0.199,0.000,0.076,0.000:
0000
0000
0000
0000
,
0000
0000
0000
0000
,
0000
0000
0000
0000
,
0000
0000
0000
0000
,
0000
0000
0000
0000
,
0000
0000
0000
0000
,
0000
0000
0000
1000
,
0000
0001
0000
0100
,
0000
0010
0000
1000
,
0000
0001
0000
0001
,
0000
1000
0000
1000
,
0000
0010
0000
0010
,
0000
0100
0000
0100
,
0000
0010
0000
0001
,
0000
0000
0000
1000
,
0000
0010
0000
0100
,
0000
0001
0000
1000
,
0000
0001
0000
0100
,
0000
0010
0000
1000
,
0000
0001
0000
1000
,
0000
0001
0000
1000
,
0000
0010
0000
0100
,
0000
0100
0000
0001
,
0000
1000
0000
0001
,
0000
0100
0000
0010
,
0000
1000
0000
0020
,
0030
0000
1000
0000
,
0001
0000
1000
0000
,
0001
0000
0100
0000
,
0010
0000
1000
0001
,
0001
0010
0000
0000
,
0000
2000
0000
3000
,
0001
0000
1000
0000
,
0001
0000
1000
0000
,
0001
0000
1000
0000
,
0010
0000
0100
0000
,
0001
0000
1000
0000
,
0001
0000
0100
0000
,
0010
0000
1000
0000
,
0010
0000
0100
0010
,
0100
0010
1000
0010
,
0100
0010
0010
0010
,
0100
0100
0010
0010
,
0010
0020
0000
0000
,
0000
0030
0100
0010
,
0000
2000
0000
3010
,
0000
0002
0000
0013
,
0000
2000
0000
3010
,
0000
0000
0002
0000
,
0000
0000
0003
0000
0001
0000
0000
0001
,
0000
0000
0000
0002
0000
0000
0000
0000
,
0000
0000
0000
0000
,
0000
0003
0000
0000
;

//---------------dance-single - Expert----------------
#NOTES:
     dance-single:
     Expert:
     Hard:
     8:
     0.666,0.774,0.467,0.591,0.410:
0000
0000
0000
0000
,
0000
0000
0000
0000
0000
0000
0000
1000
,
0000
0000
1000
0100
0000
0020
0000
0000
0000
0000
0000
0030
0000
0000
0100
0000
,
0000
0000
1000
0010
0000
0200
0000
0000
0300
0000
0002
0000
0000
0003
0101
0000
,
0100
0010
0200
0000
1300
0010
0100
0000
,
1000
0000
0002
0000
0000
0000
0000
0000
0000
0000
0000
0000
0000
0003
0010
0100
,
0010
0001
0010
0100
1000
0100
2000
0000
3100
0000
0010
0000
0001
0020
0000
0000
,
0130
0000
0010
0000
0100
0000
0020
0000
0000
0000
0030
0000
0001
0200
0000
0000
,
0300
0000
0001
0000
0010
0000
1020
0000
0000
0000
0000
0030
0001
0200
0000
0000
,
0300
0000
0010
0000
0001
0000
0020
0000
0000
0000
0230
0000
0000
0320
0000
0000
,
0130
0000
0010
0000
1001
0000
0110
0000
0010
0000
0010
0010
0001
0000
0100
0100
,
0001
0000
0010
0010
0001
0000
0020
0000
0000
0000
0000
0000
0130
0001
0000
0000
,
0010
0000
0001
0001
0001
0000
0010
0010
0010
0000
0100
0100
0100
0000
0001
0000
,
0110
0000
1001
0000
0110
0000
0001
0000
0001
0000
0010
0100
0001
0010
0000
0000
,
2002
0000
0000
0000
3003
0000
0200
0000
0310
0000
1000
0000
0010
0002
0000
0000
,
0013
0000
0010
0000
0100
0000
2000
0000
0000
0000
0000
0000
3100
0020
0000
0030
,
0000
0000
0001
0000
0010
0000
2000
0000
0000
0000
3000
0000
0100
0020
0000
0030
,
0000
0001
0100
0110
0010
2000
3020
0030
,
0100
0000
1010
0000
0010
0000
0001
0000
0010
0000
1000
0000
0010
2000
0000
3000
,
0010
0000
0100
0000
0001
0000
0020
0000
0000
0000
0030
0000
0100
2000
0000
3000
,
0100
0000
0001
0000
0100
0000
0010
0000
1000
0001
0000
0001
0000
0200
0000
0000
,
0001
0300
0110
0000
0100
0000
0001
0000
0001
0000
0010
1000
0010
0200
0000
0310
,
0100
0000
0002
0000
2003
0000
3010
0100
0001
0000
1000
0100
0000
0200
0000
0000
,
0301
0010
0100
0100
0001
1000
0001
0100
,
0001
0000
0000
0000
0100
0000
0010
1000
0100
0000
0001
0000
1000
0000
0010
0000
0000
0000
0100
0000
0001
0000
0200
0000
0000
0000
0320
0000
0000
0000
0030
0000
,
0002
0000
2003
0000
3110
0000
0001
0000
0101
0000
0000
1001
0000
0000
1020
0000
,
1000
0030
0100
0000
0010
0000
0001
0000
0200
0300
0001
0001
1000
0000
0100
0000
,
0020
0000
1030
1000
0200
0000
0310
0000
0020
0000
1030
1000
0200
0000
0310
0000
,
0020
0000
1030
1000
0100
0000
0001
0000
0100
0000
0010
0010
0100
0000
0001
0000
,
0100
0010
0000
0200
0300
2020
0000
3030
0100
0000
0010
0000
0001
0000
0010
0000
,
0001
1001
0101
0011
0011
0101
0110
1010
,
1010
1010
0000
0101
0101
0000
0002
0000
0003
0001
0010
0100
1000
0200
0000
0000
,
1300
0000
0010
0000
0100
0001
0000
0010
1000
0000
0001
0000
0100
0000
0010
0000
,
0100
0000
0010
0000
0100
0010
0000
0001
1000
0000
0010
0000
0100
0000
1000
0000
,
1000
0001
0001
1000
1000
0001
0001
0100
,
0100
0000
0110
0000
0001
0000
0010
0000
0001
0000
1000
0100
0010
0001
0100
0000
,
0001
0000
1000
0000
0001
0100
0000
0100
0010
0000
0001
0000
0001
0000
0100
0000
,
0100
0000
0010
0000
0010
1000
0000
0100
0001
0000
1000
0100
0001
0000
0100
0000
,
0001
0000
0001
0000
1000
0100
0000
0010
0001
0000
0100
0000
0001
0000
1000
0000
,
1000
0000
0010
0000
0100
0000
0010
0000
1000
0000
0001
0010
0100
0000
0010
0000
,
1000
0000
0001
0000
0001
0200
0000
0300
0010
0000
0001
0000
1000
0020
0000
0030
,
0100
0000
0001
0000
0100
0020
0000
0000
1030
0000
0010
0000
1000
0000
1000
0000
,
0010
0100
0001
0010
0100
0010
1000
0001
,
0100
0010
2002
3113
1001
1010
0101
1100
,
0011
1100
0101
1010
1001
0110
0101
0011
,
0000
0000
1000
0100
0000
0020
0000
0000
0000
0000
0000
0000
0000
0030
0110
0000
,
0000
0000
0001
0010
0000
0200
0000
0000
0000
0300
2000
0000
0000
3000
0010
0000
,
0100
0000
0010
0000
0002
0000
0003
0000
0001
0000
1000
0000
0020
0030
0000
0000
,
0100
0000
0002
0000
0000
0000
0000
0000
0000
0000
0000
0000
0000
0003
0010
1000
,
0100
0010
1000
0010
0100
1000
0000
0000
0110
0000
0000
0110
0000
0000
0110
0000
,
0000
0110
0000
0000
0110
0000
2002
0000
0000
0000
0000
0000
0000
0000
0000
0000
,
0000
0000
0000
0000
,
0000
0000
0000
0000
0000
0000
3003
0000
0001
1000
0001
1000
0000
0000
0000
0000
0000
0000
0000
0000
0000
0000
0000
0000
0000
0000
0000
0000
0000
0000
0000
0000
;

//---------------dance-single - Hard----------------
#NOTES:
     dance-single:
     Hard:
     Medium:
     6:
     0.538,0.599,0.219,0.696,0.143:
0000
0000
0000
0000
,
0000
0000
0000
0000
0000
0000
0000
1000
,
0000
0000
1000
0000
0000
0020
0000
0000
0000
0000
0000
0030
0000
0000
0100
0000
,
0000
0000
0010
0000
0000
0200
0000
0000
0300
0000
0002
0000
0000
0003
0001
0000
,
0100
0010
0200
0000
1300
0010
0100
0000
,
1000
0000
0002
0000
0000
0000
0000
0000
0000
0000
0000
0000
0000
0003
0010
0000
,
0001
0000
0010
0000
0100
0000
2000
0000
3100
0000
0010
0000
0000
0020
0000
0000
,
0130
0000
0010
0000
0100
0000
0020
0000
0000
0000
0030
0000
0000
0200
0000
0000
,
0300
0000
0001
0000
0010
0000
0020
0000
0000
0000
0000
0030
0000
0200
0000
0000
,
0300
0000
0010
0000
0001
0000
0020
0000
0000
0000
0230
0000
0000
0320
0000
0000
,
0130
0010
1001
0010
0010
0010
0001
0100
,
0001
0010
0001
0020
0000
0000
0031
0000
,
0010
0001
0001
0010
0010
0100
0100
0001
,
0010
0001
0010
1000
0001
0010
0001
0000
,
2002
0000
0000
0000
3003
0000
0220
0000
0000
0330
1000
0000
0000
0002
0000
0000
,
0013
0000
0010
0000
0100
0000
2000
0000
0000
0000
0000
0000
3000
0020
0000
0030
,
0000
0000
0001
0000
0010
0000
2000
0000
0000
0000
3000
0000
0000
0020
0000
0030
,
0000
0001
0100
0200
0300
2000
3020
0030
,
0100
0000
1000
0000
0010
0000
0001
0000
0010
0000
1000
0000
0000
0200
0000
0300
,
0010
0000
0100
0000
0001
0000
0020
0000
0000
0000
0030
0000
0000
2000
0000
3000
,
0000
0000
0001
0000
0100
0000
0010
0000
1000
0001
0000
0001
0000
0200
0000
0000
,
0001
0300
0110
0000
0100
0000
0001
0000
0001
0000
0010
0000
0000
0200
0000
0300
,
0100
0000
0002
0000
2003
0000
3010
0000
0001
0000
0010
0000
0000
0200
0000
0000
,
0301
0010
0100
0100
0001
1000
0001
0100
,
0001
0000
0100
0000
0001
0000
0010
0000
0000
0100
0000
0000
0020
0000
0000
0030
,
0002
0000
2003
0000
3010
0000
0001
0000
0100
0000
0000
1001
0000
0000
1020
0000
,
1000
0030
0100
0000
0010
0000
0001
0000
0200
0300
0001
0000
1000
0000
0100
0000
,
0020
1030
0200
0310
0020
1030
0200
0310
,
0020
1030
0100
0001
0100
0010
0100
0001
,
0000
0010
0000
0200
0300
2020
0000
3030
0100
0000
0010
0000
0001
0000
0010
0000
,
0001
1001
0101
0011
0011
0101
0110
1010
,
0010
0010
0000
0001
0001
0000
0002
0000
0000
0000
2000
0000
0003
0000
0001
3000
,
1000
0010
0100
0001
1000
0001
0100
0020
,
0000
0030
2000
0000
0000
3000
0020
0000
0000
0030
0010
0000
0100
0000
1000
0000
,
1000
0001
0001
1000
1000
0001
0001
0200
,
0000
0300
0020
0000
0000
0030
2000
0000
0000
3000
1000
0000
0010
0000
0100
0000
,
0001
1000
0001
0100
0010
0001
0001
0200
,
0000
0300
0020
0000
0000
0000
2030
0000
0000
0000
3020
0000
0000
0000
0130
0000
,
0001
0001
1000
0100
0001
0100
0001
1000
,
1000
0010
0100
0010
1000
0001
0100
0010
,
1000
0000
0001
0000
0000
0200
0000
0300
0010
0000
0001
0000
0000
0020
0000
0030
,
0100
0000
0001
0000
0000
0020
0000
0000
1030
0000
0010
0000
1000
0000
1000
0000
,
0010
0100
0001
0010
0100
0010
1000
0001
,
0100
0000
0010
0000
2002
0000
0000
3003
1001
0000
0010
0000
0001
0000
1000
0000
,
0001
1000
0001
1000
0001
0010
0100
0001
,
0000
0000
1000
0000
0000
0020
0000
0000
0000
0000
0000
0000
0000
0030
0110
0000
,
0000
0000
0001
0000
0000
0200
0000
0000
0000
0300
2000
0000
0000
3000
0010
0000
,
0100
0000
0010
0000
0002
0000
0003
0000
0001
0000
1000
0000
0020
0030
0000
0000
,
0100
0000
0002
0000
0000
0000
0000
0000
0000
0000
0000
0000
0000
0003
0010
0000
,
0100
0000
1000
0000
0100
0000
0000
0000
0110
0000
0000
0110
0000
0000
0110
0000
,
0000
0110
0000
0000
0110
0000
2002
0000
0000
0000
0000
0000
0000
0000
0000
0000
,
0000
0000
0000
0000
,
0000
0000
0000
0000
0000
0000
0000
0000
0000
0000
0000
3003
0000
0000
0000
0000
0000
0000
0000
0000
0000
0000
0000
0000
0000
0000
0000
0000
0000
0000
0000
0000
;
