#TITLE:Kokuhaku Biyori, Desu!;
#SUBTITLE:;
#ARTIST:Minami Kotori & Koizumi Hanayo;
#TITLETRANSLIT:;
#SUBTITLETRANSLIT:;
#ARTISTTRANSLIT:;
#GENRE:;
#CREDIT:;
#BANNER:banner.png;
#BACKGROUND:BGI.png;
#LYRICSPATH:;
#CDTITLE:;
#MUSIC:Kokuhaku Biyori, Desu!.mp3;
#OFFSET:0.000;
#SAMPLESTART:48.269;
#SAMPLELENGTH:15.000;
#SELECTABLE:YES;
#BPMS:0.000=172.000;
#STOPS:0.000=0.320
;
#BGCHANGES:0.000=BGA.avi=1.000=0=0=0=StretchNoLoop====,
396.000=Kokuhaku Biyori^ Desu!-bg.png=1.000=0=0=1=Centered====,
99999=-nosongbg-=1.000=0=0=0 // don't automatically add -songbackground-
;
#KEYSOUNDS:;

//---------------dance-single - Kurosan & Loak----------------
#NOTES:
     dance-single:
     Kurosan & Loak:
     Challenge:
     11:
     0.806,0.857,0.507,0.669,0.177:
0000
0000
0000
0000
,
0000
0000
0000
0000
,
0000
0000
0000
0000
,
0000
0000
0000
0000
,
0000
0000
0000
0000
,
0000
0000
1000
0001
0100
0000
0010
1000
0002
0000
0000
0000
0010
0000
0000
0000
,
1003
0020
0230
0302
0000
0103
0010
2000
,
0000
3002
0023
0230
2300
0000
0010
0000
,
3002
0000
0000
0000
0103
0000
0010
1000
0001
0000
0010
0100
0010
0000
0002
0000
,
0000
1003
0010
0100
0001
0000
1000
0001
,
0100
0010
0100
1000
0001
0010
0100
0010
,
0100
0010
0002
0003
2000
3000
0100
0001
,
0100
0010
0100
0100
0001
0010
1000
0100
,
0000
0010
0001
1000
0010
0000
0110
0100
,
0001
0000
1001
1000
0100
0000
0010
0100
,
0000
1000
0001
1000
1010
0010
0100
0001
,
0000
0000
1000
0000
0001
0000
0010
0100
1000
0000
0010
0100
0001
0000
2000
0000
,
0000
3002
0023
2030
3100
0001
0100
1000
,
0010
0100
0010
0001
0100
0001
0010
0100
,
0001
2000
3200
0320
0032
0103
0001
1000
,
0010
0100
0010
0010
2000
3100
0001
0020
,
0030
0100
1000
0001
0100
0000
0110
0010
,
1000
0000
1001
1000
0100
0000
0011
0001
,
1000
0000
0000
0000
0001
0100
0001
0000
0010
0000
0100
0000
1000
0000
0001
0000
,
0000
0101
0000
0110
0000
0010
1000
0010
,
0100
0001
0010
0000
0100
0000
1000
0010
0200
0000
0000
0000
0301
0000
2000
0000
,
0000
3010
1000
0100
0020
0000
0031
0100
,
0010
1000
0010
0100
0001
0000
1000
0002
,
0000
0013
0100
0010
0002
1003
0010
0100
,
0001
0010
0100
1000
0001
0100
0010
0100
,
0001
0100
0010
0100
0001
0010
0100
0010
,
0001
0010
0100
0010
0011
0001
1001
1000
,
1010
0000
0010
0000
0110
0000
0100
0000
0101
0000
0001
0000
1001
0000
0001
1000
,
0010
0000
1000
0100
0010
0000
0001
0010
0001
0000
0010
1000
0010
0000
0010
0000
,
0000
0000
0010
0000
0001
1000
0001
0100
2002
0000
3003
0000
0001
0000
0010
0000
,
0100
1000
0010
1000
1001
0100
0010
0100
,
0001
1000
0010
1000
1001
1000
0001
1000
,
0010
0000
0000
0100
0000
0000
0010
0000
0000
0001
0000
0000
0220
0000
0000
0000
0330
0000
1000
0000
0000
2002
0000
0000
,
3003
0100
0010
1000
0001
0000
1100
0000
,
0001
0000
0011
0000
0100
0010
1000
0002
,
0000
1003
0001
0010
0100
0010
0001
0100
,
0020
0000
0000
0000
2030
0000
0000
0000
3002
0000
0000
0000
1003
0000
0010
0100
,
0001
0010
0100
1000
0001
0010
0100
1000
0001
0000
0000
0000
1000
0000
0001
0000
,
0100
0010
1000
0010
1001
0010
0001
0100
,
0010
1000
0100
0010
0110
0001
1000
0100
,
0001
0000
0000
0100
0000
0000
0010
0000
0000
1000
0000
0000
0210
0000
0000
0000
0000
0000
0000
0000
0300
0010
0000
0000
,
0002
1003
1020
0130
,
0001
0001
1000
0000
1200
0000
0310
0000
,
0001
0001
0100
0010
1010
0000
1100
0000
,
1001
0000
0000
0000
0101
0000
0000
1000
0001
0000
0000
0000
0110
0000
0000
0000
,
0100
1000
0100
0010
0001
0100
0010
1000
0002
0000
0000
0000
1003
0000
0001
0000
,
0010
0100
0001
1000
0010
1000
0001
0100
,
0010
1000
0001
0100
0010
0100
0001
1000
,
0010
1000
0001
2002
0000
3003
0010
0100
,
0001
1000
0010
2020
0000
3030
0100
0001
,
1000
0000
0010
0000
0001
0000
2002
0000
0000
3003
0010
0000
0100
0000
2200
0000
,
0000
3300
0010
0000
1000
0000
2002
0000
0000
3003
0010
0000
0100
0000
0001
0000
,
0010
0000
0010
0000
1000
0000
0220
0000
0330
0000
0001
0000
0100
0000
0010
1000
,
0001
0000
1000
0000
1001
0000
0010
0100
0002
0000
0000
0000
0000
0000
0000
0000
,
0000
0000
0000
0003
0010
0000
0210
0000
0000
0000
0000
0000
0000
0000
0000
0000
,
0000
0300
1000
1000
0110
0000
0002
2003
,
0000
0000
3000
1020
0000
0130
0001
2020
,
0000
0000
0000
0000
3030
0000
0002
0000
0000
0000
0013
0000
0100
0000
1000
0100
,
0010
0000
0010
0001
0100
0000
0001
0100
1000
0000
0100
0010
0100
0000
1000
0010
,
0100
0000
0001
0100
0010
0000
0200
0000
0000
0000
0000
0000
1301
0000
1001
0000
,
1001
0000
1001
0000
0110
0000
0110
0000
0110
0000
0010
0100
1000
0000
0100
0000
,
0100
0010
0001
0000
0010
0000
1002
0000
0000
0000
0000
0000
0000
0000
0000
0000
,
0000
0100
1000
0000
,
0000
0010
1000
0000
0200
0000
0000
0000
,
0000
0000
0000
0000
,
0000
0000
0303
0000
;

//---------------dance-single - Loak----------------
#NOTES:
     dance-single:
     Loak:
     Hard:
     8:
     0.643,0.750,0.111,0.659,0.076:
0000
0000
0000
0000
,
0000
0000
0000
0000
,
0000
0000
0000
0000
,
0000
0000
0000
0000
,
0000
0000
0000
0000
,
0000
1001
2000
0010
,
3002
0023
0230
2300
0000
3001
1000
0020
,
0000
0230
0302
2003
3200
0000
0010
0000
,
2300
0000
0000
0000
3001
0000
1000
0001
2000
0000
3200
0000
0320
0000
0032
0000
,
0000
1003
0010
1000
0001
0000
0100
0001
,
0000
0100
0010
1000
0001
0000
1000
0200
,
0000
0310
0001
0000
1000
0000
0001
1000
,
0000
0010
1000
0100
0010
0000
0001
0100
,
0000
0010
0100
0101
1000
0000
0101
0100
,
0001
0000
1010
0010
0100
0000
0001
2000
,
0000
3001
0100
0010
0100
0001
0010
0100
,
0000
0000
0010
0000
0001
0000
1000
0010
2000
0000
3001
0000
2000
0000
3020
0000
,
0000
0230
0302
0023
2030
3000
0010
0001
,
0000
0100
0001
1000
0100
0000
0010
0200
,
0000
2300
3002
0203
0320
0030
1000
0010
,
0000
0100
0010
1000
0001
0000
1000
0100
,
0000
0010
0100
1000
0001
0000
1000
0010
,
0100
0000
0001
1000
0100
0000
0010
0001
,
1000
0000
0000
0000
0001
1000
0001
0000
0100
0000
0010
0000
1000
0000
0001
0000
,
0000
1000
0000
0100
0000
0010
0001
0010
,
0100
1000
0100
0010
0001
0000
1000
0001
,
0000
0100
0010
1000
0020
0000
0130
1000
,
0100
0010
0001
0010
0001
0000
0100
0020
,
0000
0130
1000
0010
0200
0301
1000
0001
,
0010
0100
1000
0001
1000
0000
0010
0000
,
0100
0100
0001
0000
1000
0000
0100
0000
,
0010
0010
0001
0000
1001
0000
0001
0010
,
0001
0000
0100
0000
0001
0000
1000
0000
0100
0000
1000
0000
0001
0000
1000
0010
,
1000
0000
0001
1000
0001
0000
0010
0100
1000
0000
0001
1000
0010
0000
0100
0000
,
0000
0001
1000
0001
0100
0000
0110
0100
,
0001
0010
0100
1000
0010
0000
1010
0010
,
0100
0001
0010
0100
1000
0000
1100
1000
,
0100
0010
0001
0100
0020
0000
0130
0002
,
0000
1003
0001
0010
0100
0000
1000
0000
,
0001
0001
1000
0000
0100
0010
0001
1000
,
0000
0001
0100
0010
1000
0001
1000
0100
,
0010
0000
0000
0000
0100
0000
0000
0000
2000
0000
0000
0000
0000
0000
3010
1000
,
0010
0000
0100
0000
0001
1000
0001
1000
0100
0000
0000
0000
1100
0000
0100
0000
,
1000
0001
0010
0001
0100
0000
0101
0100
,
0001
0010
0100
1000
0010
0000
1010
1000
,
0010
0100
0001
0010
0200
0000
0310
0001
,
2000
0000
3010
0100
0002
0000
1003
0100
,
0010
0100
1000
0010
0200
0000
0301
0100
,
0010
1000
0010
0100
0002
0000
0203
0000
,
0320
2030
3020
0230
,
0301
1000
0001
0000
1000
0001
1000
0001
0200
0000
0000
0000
0000
0000
0000
0000
,
0000
0000
0000
0300
0001
0000
2000
0000
0000
0000
0000
0000
0000
0000
0000
0000
,
0000
3000
0001
2000
0000
0000
0000
0000
,
3000
0000
0001
0200
0000
0000
0000
0000
,
0000
0300
0001
0002
0000
0000
0000
0000
,
0003
0000
0100
0020
0000
1030
0100
2000
,
0000
3010
0100
0001
0000
0010
0100
0020
,
0000
0000
0000
0000
0000
0030
2000
0000
0000
0000
3010
0000
0100
0000
0002
0000
,
0000
0000
0013
0000
0100
0000
0010
0100
0002
0000
0000
0000
0000
0000
0000
0000
,
0000
0003
0010
0200
0000
0000
0000
0000
,
0000
0000
0300
0000
1000
0000
1000
0000
0020
0000
0000
0000
0000
0030
0002
0000
,
0000
0000
0000
0000
0003
0020
0000
0000
0030
0000
0100
0000
0010
0000
0200
0000
,
0000
0000
0300
0002
0000
1003
0100
0010
,
0010
0100
1000
0100
0010
0010
0100
1000
,
1000
0100
0010
0200
0300
0000
1000
1000
,
0001
0001
1000
1000
0010
0010
0000
0100
,
0000
0001
0000
2000
0000
0000
0000
0000
,
0000
0100
0100
0000
,
0000
0010
0010
0000
0002
0000
0000
0000
,
0000
0000
0000
0000
,
0000
0000
3003
0000
;

//---------------dance-single - Loak----------------
#NOTES:
     dance-single:
     Loak:
     Medium:
     7:
     0.512,0.607,0.020,0.780,0.005:
0000
0000
0000
0000
,
0000
0000
0000
0000
,
0000
0000
0000
0000
,
0000
0000
0000
0000
,
0000
0000
0000
0000
,
0000
1001
2000
0000
,
3000
0002
0023
0230
0000
0300
0000
2000
,
0000
3002
0203
0320
2030
0000
0001
0000
,
3002
0000
1000
0000
0023
0230
0320
0032
,
0000
0000
0000
0000
0003
0000
1000
0010
,
0000
0100
0010
1000
0001
0000
1000
0200
,
0000
0300
0010
0000
0001
0000
0010
0001
,
0000
1000
0001
0010
0100
0000
1000
0010
,
0000
0000
0000
1000
0001
0000
1000
0010
,
0100
0000
1000
0100
0010
0000
0001
2000
,
0000
3000
0000
0001
0100
0010
0100
0001
,
0000
1000
0001
1000
0200
0000
0300
0020
,
0000
0000
0000
0000
0030
0000
0001
1000
,
0000
0010
1000
0001
0010
0000
0100
0020
,
0000
0032
2003
3020
0230
0300
0001
0100
,
0000
0010
0100
0001
1000
0000
0001
0010
,
0000
0100
0010
0001
1000
0000
0000
0001
,
0100
0000
0010
1000
0002
0003
0001
0010
,
0100
0000
0000
1000
0001
1000
0010
0100
,
0000
0010
0000
0100
0000
0001
0010
0100
,
1000
0100
0010
0001
0010
0000
0001
0100
,
0000
0010
0100
0001
2000
0000
0000
3100
,
0020
0000
0030
0000
0000
0000
0001
2000
,
0000
3010
0100
0001
2000
0000
0000
3001
,
0020
0000
0030
0100
1000
0000
0001
0000
,
1000
0001
0010
0000
0100
0000
0001
0000
,
1000
0100
0001
0000
0010
0000
0100
0010
,
1000
0100
0001
0010
0200
0000
0000
0000
,
0000
0000
0300
0000
,
0000
0000
0000
0000
0002
0000
0003
1000
,
0010
1000
0010
0100
0002
0000
0003
1000
,
0100
1000
0100
0010
0002
0000
0003
1000
,
0010
1000
0010
0100
0002
0000
1003
0200
,
0300
0000
0000
0010
0100
0000
1000
0000
,
0001
0000
1000
0000
0010
0100
0001
0200
,
0000
0300
0000
0010
1000
0001
1000
0100
,
0010
0000
0000
0000
0001
0000
0000
0000
2000
0000
0000
0000
0000
0000
3001
0010
,
0100
0000
0010
0000
2000
0000
3000
0001
,
0100
0001
0100
0010
2000
0000
3000
0001
,
0010
0001
0010
0100
2000
0000
3000
0001
,
1000
0001
1000
0010
0200
0000
0000
0310
,
2000
0000
3000
0000
0002
0000
0000
0013
,
0200
0000
0300
0000
2000
0000
0000
3001
,
0200
0300
0010
1000
0002
0000
0023
0000
,
0230
2300
3002
0203
,
0320
0000
2030
0000
3002
0000
0003
1000
,
0200
0000
0000
0000
,
0000
0300
0000
1000
,
0000
0000
0001
0200
0000
0000
0000
0000
,
0300
0000
1000
0002
0000
0000
0000
0000
,
0000
0000
0003
0000
1000
0000
0002
0000
0000
0003
0010
0000
1000
0000
0020
0000
,
0000
1030
0010
0200
0000
0310
2000
0020
,
0000
0000
0000
0000
0000
3030
0010
0000
0000
0000
0001
0000
0010
0000
0200
0000
,
0000
0310
0100
0000
2020
0000
0000
0000
,
0000
0000
3130
0200
0000
0000
0000
0000
,
0300
0000
0010
0010
0002
0000
0000
0203
,
0000
0000
0300
0020
0000
1030
0001
2000
,
0000
3000
0000
0000
0100
0010
0001
0100
,
1000
0100
0010
0001
0100
1000
0100
0010
,
0001
0100
1000
0200
0000
0300
2000
0000
,
3200
0000
0320
0000
0200
0030
0300
1000
,
0000
0100
0000
0020
0000
0000
0000
0000
,
0000
0000
0000
0000
,
0000
0000
0000
0000
,
0000
0000
0000
0000
,
0000
0000
0030
0000
;

//---------------dance-single - Loak----------------
#NOTES:
     dance-single:
     Loak:
     Easy:
     4:
     0.290,0.321,0.071,0.193,0.000:
0000
0000
0000
0000
,
0000
0000
0000
0000
,
0000
0000
0000
0000
,
0000
0000
0000
0000
,
0000
0000
0000
0000
,
0000
2000
3001
1000
,
0000
1000
0001
0100
,
0010
0001
0001
1000
,
1000
0010
0001
0020
,
0000
0030
0000
1000
,
0000
0001
0000
1000
,
0000
0010
0100
0010
,
0000
0001
0010
1000
,
0010
1000
1000
0001
,
0001
0010
0010
0100
,
0100
0010
0001
1000
,
0000
1000
0001
1000
,
0010
0100
0010
0001
,
0000
1000
0000
0001
,
0000
1000
0001
1000
,
0000
0010
0000
0100
,
0000
0010
0001
1000
,
0001
1000
0010
0100
,
0001
0100
0001
0000
,
0010
0000
2000
0000
,
0000
3000
2000
0000
,
3001
0000
0010
0000
,
0100
0000
1000
0000
,
0100
0000
1000
0000
,
0001
0010
1000
0010
,
1000
0010
0100
0001
,
0100
0010
0001
0010
,
1000
0010
1000
0001
,
0110
0001
0010
1000
,
0000
0000
0010
1000
,
0001
1000
0000
0010
,
0100
0001
0010
1000
,
0010
1000
0001
0000
,
1001
0000
0001
1000
,
0001
0010
1000
0001
,
0010
0001
0010
0100
,
0001
0010
1001
0000
,
0010
0000
1001
0010
,
0100
0000
0001
0100
,
0001
0000
1000
0010
,
0100
0001
0010
1000
,
0001
1000
0001
1000
,
0001
0100
0010
0100
,
0010
0001
0010
1000
,
0001
0100
0001
0010
,
1000
0100
2000
0000
,
0000
0000
0000
0000
,
0000
0000
0000
0000
,
3000
2000
0000
3000
,
0000
0002
0003
0000
,
0000
2000
3000
0002
,
0003
0200
0300
0000
,
0000
2000
0000
3002
,
0000
0003
2002
0003
,
0000
3020
0000
0000
,
0030
0100
0020
0030
,
2000
0000
0000
3000
,
0001
1000
0001
1000
,
0001
0100
0010
0100
,
0010
1001
0000
0010
,
0100
0001
1000
0001
,
0000
0220
0000
0000
,
0000
0000
0000
0000
,
0000
0000
0030
0000
,
0000
0000
0000
0000
,
0000
0000
0300
0000
;

//---------------dance-single - Loak----------------
#NOTES:
     dance-single:
     Loak:
     Beginner:
     2:
     0.177,0.250,0.010,0.152,0.000:
0000
0000
0000
0000
,
0000
0000
0000
0000
,
0000
0000
0000
0000
,
0000
0000
0000
0000
,
0000
0000
0000
0000
,
0000
0000
0001
0000
,
0000
0000
1000
0000
,
0000
0000
0010
0000
,
0000
0000
0100
0000
,
0000
0000
0001
0000
,
0000
0000
1000
0000
,
0000
0000
0100
0000
,
0000
0000
0010
0000
,
0000
0000
0001
0000
,
1000
0000
1000
0000
,
0010
0000
0001
0000
,
0000
0000
0100
0000
,
0000
0000
0010
0000
,
0000
0000
0100
0000
,
0000
0000
0010
0000
,
0000
0000
1000
0000
,
0000
0000
0001
0000
,
1000
0000
0001
0000
,
1000
0000
0100
0000
,
0000
0000
0010
0000
,
0000
0000
0100
0000
,
0000
0000
1000
0000
,
0000
0000
0001
0000
,
0000
0000
0100
0000
,
0000
0000
0001
1000
,
0000
0001
0000
1000
,
0000
0001
0000
1000
,
0000
0010
2000
0000
,
0000
0000
3000
0000
,
0000
0000
0001
1000
,
0001
1000
0001
0000
,
0100
1000
0100
0000
,
1000
0001
1000
0000
,
0000
0000
0001
0000
,
1000
0000
0001
0000
,
0000
0000
0010
0000
,
1000
0000
0100
0010
,
0000
0000
0001
0000
,
1000
0001
1000
0000
,
0001
1000
0001
0000
,
1000
0001
0010
0000
,
0000
0000
0100
0000
,
0001
0000
1000
0000
,
0100
0000
0001
1000
,
0001
1000
0010
0100
,
0001
0010
0010
0000
,
0200
0000
0000
0000
,
0000
0002
0300
0000
,
0000
2000
0003
0000
,
0000
0002
3000
0000
,
0000
0023
0000
0230
,
0000
0302
0000
0023
,
0000
0000
0030
0020
0000
0000
0030
0000
,
0000
0000
0200
0000
,
0000
0000
0000
0300
2000
0000
0000
0000
,
0000
0000
0000
3000
0002
0000
0000
0000
,
0013
0000
0100
0000
,
0010
0000
0001
1000
,
0001
1000
0001
1000
,
0001
1000
0000
0010
,
0001
0000
0010
0000
0100
0000
0000
0010
,
0000
2002
0000
0000
,
0000
0000
0000
0000
,
0000
0000
0000
0000
,
0000
0000
0000
0000
,
0000
0000
3003
0000
;
