#TITLE:Kaguya No Shiro de Odoritai;
#SUBTITLE:;
#ARTIST:u's;
#TITLETRANSLIT:;
#SUBTITLETRANSLIT:;
#ARTISTTRANSLIT:;
#GENRE:;
#CREDIT:;
#BANNER:Kaguya No Shiro de Odoritai-bn.png;
#BACKGROUND:Kaguya No Shiro de Odoritai-bg.png;
#LYRICSPATH:;
#CDTITLE:;
#MUSIC:Kaguya No Shiro de Odoritai.mp3;
#OFFSET:0.000;
#SAMPLESTART:66.045;
#SAMPLELENGTH:12.000;
#SELECTABLE:YES;
#BPMS:0.000=135.000,223.000=135.000;
#STOPS:0.000=0.320
;
#BGCHANGES:0.000=BGA.avi=1.000=0=0=0=StretchNoLoop====,
99999=-nosongbg-=1.000=0=0=0 // don't automatically add -songbackground-
;
#KEYSOUNDS:;

//---------------dance-single - Loak----------------
#NOTES:
     dance-single:
     Loak:
     Hard:
     7:
     0.614,0.697,0.390,0.779,0.186:
0000
0000
0000
0000
,
0000
0000
0000
0000
,
0000
0000
0002
0000
0003
1000
0002
0000
,
0003
0000
1000
0000
0001
0010
0000
0200
0000
0000
0000
0000
0000
0300
1001
0000
,
1001
0000
0020
0000
0030
1000
0020
0000
,
0030
0000
0100
0000
0100
0001
0000
0020
0000
0000
0000
0000
0000
0030
0000
0000
,
0001
1000
0001
1000
0002
0000
0023
0000
2030
0000
3200
0000
0000
0000
0000
0300
,
0000
0000
1000
0100
0020
0000
0000
0030
0200
0300
2000
0000
0000
0000
3000
0000
,
1001
0000
0000
0000
0020
0000
0032
0000
0203
0000
0320
0000
0000
0000
0000
0030
,
0000
0000
0100
0001
0200
0000
0000
0300
2000
0000
3200
0000
0000
0300
1010
0000
,
1001
0000
0000
0000
0001
0000
0000
0000
0001
0000
0000
1000
0100
0000
0010
0000
,
0100
0000
0001
0000
0010
0000
0100
1000
0010
0000
0100
0000
0002
0000
0003
0000
,
0001
0000
1000
0001
0000
0000
0000
0000
0010
0000
0100
0001
0000
0000
0010
0000
,
0100
0000
1000
0000
0100
0000
0010
0000
0100
0000
0010
0002
0000
0000
0003
0000
,
0100
0000
0100
0001
0000
0000
1000
0000
0100
0000
0010
0002
0000
0000
0000
0003
,
0010
0000
0100
0000
0001
0000
0010
0000
0100
0000
1000
0200
0000
0000
0300
0000
,
0000
1000
0100
0010
0001
0010
0100
1000
,
0010
0000
0000
0000
0101
0000
0000
0000
1010
0000
0000
0000
2002
0000
0000
3003
,
0000
0000
1000
0000
0001
0000
0000
0000
0100
0001
0100
0000
0010
1000
0010
0000
,
0001
0000
0010
0000
0000
0000
1000
0000
0001
0000
0100
0000
0010
0010
0000
0100
,
2000
0000
0000
3000
1010
0000
0000
0100
0000
0000
0010
0100
0000
0000
0100
0000
,
1000
0000
0010
0000
0100
0000
0001
0000
0010
0000
1000
0010
0000
0000
0000
0000
,
0001
0000
0100
0010
0000
0000
0001
0000
0010
0000
1000
0010
0000
0000
0000
0000
,
0001
0000
0100
0000
0001
0000
0100
0000
0010
0000
1000
0200
0000
0300
0000
0000
,
0101
1000
0100
0010
0001
0100
0010
0200
,
0310
0000
0110
0000
0011
0000
2002
3003
,
1001
0000
0000
0000
0002
0000
0000
0003
0010
1000
0010
0000
0100
0001
0100
0000
,
1000
0000
1010
0000
0101
0000
0100
0001
,
1000
0001
1000
0001
2000
0000
3001
0000
0100
0000
1000
0010
0000
0000
0001
0000
,
0100
0000
0010
0000
0200
0000
0000
0000
0000
0300
1000
0000
0020
0000
0000
0000
,
0030
0000
0100
0000
1000
0000
0100
0000
0010
0000
0001
0000
0200
0000
0000
0300
,
0020
0030
0101
0000
1010
0000
1001
0000
,
0110
0000
2200
3300
0001
0000
0020
0000
,
2030
3000
0100
0010
,
0002
0000
0000
0000
0000
0003
0000
0000
2000
0000
0000
3000
0002
0000
0000
0003
,
0200
0000
0000
0300
0010
0000
0100
0000
0000
0000
0010
0000
0000
0000
0110
0000
,
0000
0000
0010
0000
1000
0000
0100
0000
0010
0000
0001
0000
0010
0100
0000
0010
,
1000
1000
0100
0001
1001
0100
0010
0001
,
1001
1000
0010
0001
0010
0100
1000
1010
,
0220
0330
0100
0010
0001
0010
0100
1000
,
0010
0100
1000
0000
0100
0020
0000
0030
,
1001
0000
0100
0001
0010
0100
1000
0010
,
0100
0010
0002
0003
0020
0230
0000
0301
,
0010
0000
0001
1000
0010
0000
0000
0010
0000
0000
0200
0000
0320
0000
0030
0000
,
0000
0000
1000
0100
1000
0000
0010
0000
0001
0000
1000
0000
0010
0100
0001
1000
,
0010
0100
0010
0001
0100
0000
0010
0000
1001
0000
0100
0000
0010
0000
0100
0000
,
1001
0100
0010
0100
1000
0010
0100
0101
,
0022
0033
1000
0001
0100
0010
0100
1000
,
0010
1000
2200
3300
0220
0330
0022
0033
,
2200
3300
0001
0010
1000
0100
0010
0200
,
0300
0000
0100
1000
0100
0010
0002
0000
,
0003
0001
1000
0001
1000
0010
0100
1000
,
0100
0000
0020
2030
3020
0000
0030
0000
0200
0000
0300
0000
0020
0000
0030
0000
,
2000
3000
0002
0003
0200
0300
0010
1000
,
0100
0010
0000
0001
0010
0200
0300
0000
,
2002
0000
0000
3003
,
0000
0000
0010
0100
0002
0000
0000
0003
0010
0000
0200
0000
0000
0000
0300
0000
,
1001
0000
0000
0000
0010
0000
0100
0000
0001
0000
0020
0000
0000
0000
0000
0030
,
0000
0000
0010
0100
0002
0000
0000
0003
0010
0000
2000
0000
0000
0000
0010
0000
,
3010
0000
0002
0203
0320
2030
0000
0000
,
3000
0000
0001
0100
0020
0000
0000
0000
0130
0000
2000
0000
0000
0000
0000
3000
,
1001
0000
0001
0100
0010
2000
0000
0000
,
0000
3000
0010
0100
0002
0000
0000
0003
0010
0000
2000
0000
0000
3000
1001
0000
,
0220
0330
1001
0000
0000
0110
0000
0000
,
1010
0110
0000
0000
0000
1001
0000
0000
,
1001
0220
0000
0000
0000
0000
0000
0000
,
0000
0000
0000
0000
,
0000
0000
0000
0000
0000
0330
0000
0000
0000
0000
0000
0000
0000
0000
0000
0000
;

//---------------dance-single - Blank----------------
#NOTES:
     dance-single:
     Blank:
     Beginner:
     3:
     0.135,0.140,0.000,0.124,0.000:
0000
0000
0000
0000
,
0000
0000
0000
0000
,
0000
0002
0000
0000
,
0000
0000
0003
0000
,
0000
2000
0000
0000
,
0000
0000
0000
3000
,
0000
0000
0001
0000
,
1000
0000
0001
0000
,
1000
0000
0010
0000
,
0100
0000
0010
0000
,
1000
0000
0000
0000
,
0000
0000
0000
0000
,
0000
0010
0000
0001
,
0000
0100
0000
0010
,
0000
1000
0000
0010
,
0000
0100
0000
0010
,
0000
1000
0000
0001
,
0000
0100
0000
0010
,
0000
1000
0000
0010
,
0000
0000
0000
0000
,
0000
0001
0000
1000
,
0000
0001
0000
0100
,
0000
0010
0000
1000
,
0000
0010
0000
0100
,
0000
0010
0000
0001
,
0000
0010
0000
0100
,
0000
1000
0000
0010
,
0000
0100
0000
0010
,
0000
1000
0000
0010
,
0000
0001
0000
0100
,
0000
0010
0000
1000
,
0000
0002
0000
0000
,
0000
0003
0000
0000
0200
0000
0000
0000
,
0000
0000
0302
0000
,
0000
0000
0000
0003
2000
0000
0000
0000
,
0000
3000
0020
0000
0000
0000
0030
0000
,
0000
0000
0000
0000
,
0000
0000
2000
0000
0000
3000
0002
0000
,
0000
2003
0000
3000
,
0000
0000
1000
0000
,
0001
0000
0100
0000
,
0010
0000
1000
0000
,
0001
0000
0200
0000
,
0300
0000
1000
0000
,
0010
0000
0100
0000
,
0001
0000
1000
0000
,
0001
0000
1000
0000
,
0020
0030
0000
0000
0001
0000
0000
0000
,
1000
0000
0010
0000
,
0100
0000
0010
0000
,
1000
0000
0010
0000
,
0100
0000
0000
0000
,
0000
0000
1000
0000
,
0010
0000
0100
0000
,
0010
0000
0000
0000
2000
0000
0000
3000
,
0020
0000
0000
0000
0000
0030
0000
0000
,
0001
0000
1000
0000
,
0010
0000
1000
0000
,
0001
0000
0100
0000
,
0010
0000
0100
0000
,
0001
0000
1000
0000
,
0010
0000
0100
0000
,
0010
0000
0001
0000
,
0100
0000
0000
0000
,
0000
0000
0000
0000
,
0000
0200
0000
0000
0000
0000
0000
0000
,
0000
0000
0000
0000
,
0000
0000
0000
0000
0000
0300
0000
0000
;

//---------------dance-single - Hard----------------
#NOTES:
     dance-single:
     Hard:
     Challenge:
     10:
     0.715,0.697,0.489,0.887,0.249:
0000
0000
0000
0000
,
0000
0000
0000
0000
,
0000
0000
0002
0000
0003
1000
0002
0000
,
0003
0000
1000
0000
0001
0010
0000
0200
0000
0000
0000
0000
0000
0300
1010
0000
,
0101
0000
0020
0000
0030
1000
0020
0000
,
0030
0000
0100
0000
0100
0001
0000
0020
0000
0000
0000
0000
0000
0030
0000
0000
,
0001
1000
0100
1000
0002
0000
0023
0000
2030
0000
3200
0000
0000
0000
0000
0300
,
0000
0000
1000
0100
0020
0000
0000
0030
0200
0300
2000
0000
0000
0000
3000
0000
,
1001
0000
0000
0000
0020
0000
0032
0000
0203
0000
0320
0000
0000
0000
0000
0030
,
0000
0000
0100
0001
0200
0000
0000
0300
2000
0000
3200
0001
0010
0300
1010
0000
,
1001
0000
0000
0000
0001
0000
0000
0000
0001
0000
0000
1000
0100
0000
0010
0000
,
0100
0000
0001
0000
0010
0000
0100
1000
0010
0000
0100
0000
0002
0000
0003
0000
,
0001
1000
0002
0103
0020
0130
0002
0013
,
0200
1300
0200
0310
0200
0310
0002
0013
,
0200
0301
0020
1030
0200
0310
0002
0103
,
0020
0000
0130
0000
0001
0000
0010
0000
0100
0000
1000
0200
0000
0010
0301
0010
,
0100
0010
1000
0000
0100
0000
0010
0000
0001
0000
0010
0000
0100
0000
1000
0000
,
0010
0000
0000
0000
0202
0000
0303
0000
2020
0000
3030
0000
2002
0000
0000
3003
,
2002
0000
3103
0000
0001
0000
0000
0000
0100
0001
0100
0000
0010
1000
0010
0000
,
0001
0000
0010
0000
0000
0000
1000
0000
0001
0000
0100
0000
0010
0010
0000
0100
,
2000
0000
0000
3000
1000
0100
0001
0000
1000
0100
0001
0000
1000
0000
0100
0000
,
1000
0000
0010
0000
0001
0100
0010
0000
0001
0100
1000
0000
0001
0010
1000
0000
,
1001
0000
0100
0000
0010
0100
1000
0000
0001
0100
1000
0000
1000
0100
0010
0000
,
0001
0010
0100
0000
0001
0000
0100
0000
0010
0000
1000
0000
0010
0100
0010
0001
,
0100
0010
1000
0000
0100
0000
0010
0000
0001
0000
0100
0000
0010
0000
0200
0000
,
0310
0110
0011
1001
,
1001
0000
0000
0000
0200
0000
0000
0300
0010
1000
0010
0000
0100
0001
0100
0000
,
1000
0000
1010
0000
0101
0000
0100
0001
,
1000
0001
1000
0001
2000
0000
3001
0000
0100
0000
1000
0010
0000
0000
0001
0000
,
0100
0000
0010
0000
0200
0000
0001
0000
0010
0300
1000
0000
0020
0000
0131
0000
,
0101
0000
0010
0000
1000
0000
0100
0000
0010
0000
0001
0000
0200
0000
0010
0300
,
0100
0101
1010
1001
,
0110
0000
0000
0000
2200
0000
3300
0000
0002
0003
0001
0000
0020
0030
0010
0000
,
2000
3000
1000
0000
1100
0000
0100
0000
0200
0300
0100
0000
0020
0030
0010
0000
,
0002
0003
0001
0000
0011
0000
2000
3000
1000
0100
0002
0013
0001
0000
0200
0300
,
0100
0001
0010
0001
0100
0000
0100
0000
0000
0000
0110
0000
0000
0000
0110
0000
,
0000
0000
1010
0000
0100
0000
0010
0000
0001
0000
0010
0000
0001
0010
0000
0010
,
0100
1000
0100
0001
1001
0100
0010
0001
,
0101
1000
0010
0001
0010
0100
0001
1010
,
0220
0330
0100
0010
0001
0010
0100
1000
,
0010
0100
1000
0000
0100
0020
0000
0030
,
1001
0000
0110
0001
0010
0100
1000
0010
,
0100
0010
0002
0003
0020
0230
0000
0301
,
0010
0000
0001
1000
0010
0000
0000
0010
0000
0000
0200
0000
0320
0000
0030
0000
,
0000
0000
1000
0100
1000
0000
0010
0000
0001
0000
1000
0000
0010
0100
0001
1000
,
0010
0100
0010
0001
0100
0000
0001
0000
1001
0000
0100
0000
0010
0000
1000
0000
,
1001
0100
0010
0100
1000
0010
0100
0101
,
0022
0033
1001
0001
0100
0010
0100
1000
,
0010
1000
2200
3300
0220
0330
0022
0033
,
2200
3300
0001
0010
1000
0100
0010
0200
,
0300
0000
0100
1000
0100
0010
0002
0000
,
0003
0000
1000
0000
0001
0010
1000
0000
0001
0010
1000
0000
0100
1000
0100
0000
,
1000
0000
0020
2030
3020
0000
0030
0000
0200
0000
0300
0000
0020
0000
0030
0000
,
2000
3000
0002
0003
0200
0300
0010
1100
,
0110
0010
0000
0001
0010
0200
0300
0000
,
2002
0000
0000
3003
,
0000
0000
0010
0100
0002
0000
0000
0003
0010
0000
0200
0000
0000
0000
0300
0000
,
1001
0000
0000
0000
0010
0000
0100
0000
0001
0000
0020
0000
0000
0000
0000
0030
,
0000
0000
0010
0100
0002
0000
0000
0003
0010
0000
0100
0001
0100
0000
0001
0000
,
0110
0110
0001
0200
0320
2030
0000
0000
,
3000
0000
0001
0100
0020
0000
0000
0000
0130
0000
1000
0000
0010
0100
0010
0000
,
2002
3003
0001
0100
0010
2000
0000
0000
,
0000
3000
0010
0100
0002
0000
0000
0003
0010
0000
1000
0001
0100
0000
1001
0000
,
0220
0330
1001
0000
0000
0110
0000
0000
,
1010
0110
0000
0000
0000
1001
0000
0000
,
1001
0220
0000
0000
0000
0000
0000
0000
,
0000
0000
0000
0000
,
0000
0000
0000
0000
0000
0330
0000
0000
0000
0000
0000
0000
0000
0000
0000
0000
;

//---------------dance-single - Hard----------------
#NOTES:
     dance-single:
     Hard:
     Medium:
     6:
     0.520,0.502,0.116,0.779,0.041:
0000
0000
0000
0000
,
0000
0000
0000
0000
,
0000
0000
0002
0000
0003
1000
0002
0000
,
0003
0000
1000
0000
0001
0010
0000
0200
0000
0000
0000
0000
0000
0000
0000
0000
,
0300
0000
0020
0000
0030
1000
0020
0000
,
0030
0000
0100
0000
0100
0001
0000
0020
0000
0000
0000
0000
0000
0030
0100
0000
,
0101
0000
0000
0000
0002
0000
0023
0000
2030
0000
3200
0000
0000
0000
0000
0300
,
0000
0000
1000
0100
0020
0000
0000
0030
0200
0300
2000
0000
0000
0000
3000
0000
,
1000
0000
0000
0000
0020
0000
0032
0000
0203
0000
0320
0000
0000
0000
0000
0030
,
0000
0000
0100
0001
0200
0000
0000
0300
2000
0000
3200
0000
0000
0300
0010
0000
,
0001
0000
0000
0000
0001
0000
0000
0000
0001
0000
0000
1000
0100
0000
0010
0000
,
0100
0001
0010
0100
0010
0100
0002
0003
,
0001
1000
0000
0000
0010
0100
0000
0010
,
0100
1000
0100
0010
0100
0020
0030
0000
,
0100
0200
0300
1000
0100
0020
0030
0000
,
0010
0100
0001
0010
0100
0200
0000
0300
,
0000
1000
0100
0010
0001
0010
0100
1000
,
0010
0000
0000
0000
0101
0000
0000
0000
1010
0000
0000
0000
2002
0000
0000
3003
,
0000
1000
0002
0000
0003
0010
0200
0000
,
0000
0300
0000
1000
0001
0100
0010
0000
,
2000
0000
0000
3000
1010
0000
0000
0000
0100
0000
0010
0000
0100
0000
0000
0000
,
1000
0010
0100
0000
0010
1000
0010
0000
,
0100
0100
0010
0000
0010
1000
0010
0000
,
0001
0100
0001
0000
0010
0200
0300
0000
,
0100
1000
0100
0010
0001
0100
0010
0200
,
0310
0000
0100
0000
0010
0000
2002
3003
,
0010
0000
0000
0000
0002
0000
0000
0003
0000
0000
0010
0000
0200
0000
0000
0000
,
0000
0300
1010
0000
0101
0000
2200
3300
,
0020
0030
0100
0001
0100
0000
1000
0001
,
0100
0000
0200
0310
0100
0000
0020
1000
,
0130
0000
0000
0000
1000
0000
0100
0000
0010
0000
0000
0000
0200
0000
0001
0300
,
0020
0030
0001
0000
1000
0000
0001
0000
,
0100
0000
2200
3300
0010
0000
0020
0000
,
2030
3000
0100
0010
,
0002
0000
0000
0000
0000
0003
0000
0000
2000
0000
0000
3000
0002
0000
0000
0003
,
0200
0000
0000
0300
0010
0000
0100
0000
0000
0000
0001
0000
0000
0000
0110
0000
,
0000
0000
1000
0000
0100
0000
0010
0000
0001
0000
0001
0000
0010
0100
0000
0010
,
1000
1000
0100
0001
0010
1000
0010
1000
,
0001
1000
0010
0001
0010
0100
1000
0010
,
0020
0030
0100
0010
0001
0010
0100
1000
,
0010
0100
1000
0000
0100
0020
0000
0030
,
0001
0000
0100
0001
0010
0100
1000
0010
,
0100
0010
0002
0003
0020
0230
0000
0301
,
0010
0000
0001
0000
0010
0000
0000
0010
0000
0000
0200
0000
0320
0000
0030
0000
,
0000
1000
2000
0000
3100
0020
0000
0030
,
0010
0010
0100
0001
0010
0100
0010
1000
,
0001
0100
0010
0100
1000
0010
0100
0001
,
0002
0003
1000
0001
0100
0010
0100
1000
,
0010
1000
0200
0300
0020
0030
0020
0030
,
2000
3000
0001
0010
1000
0100
0010
0200
,
0300
0000
0100
1000
0100
0010
0002
0000
,
0003
0001
1000
0001
1000
0010
0100
1000
,
0100
0000
0020
0030
0020
0000
0030
0000
0200
0000
0300
0000
0020
0000
0030
0000
,
2000
3000
0002
0003
0200
0300
0010
1000
,
0100
0010
0000
0001
0010
0200
0300
0000
,
2002
0000
0000
3003
,
0000
0000
0010
0000
0002
0000
0000
0003
0010
0000
0200
0000
0000
0000
0300
0000
,
0001
0000
0000
0000
0010
0000
0100
0000
0001
0000
0020
0000
0000
0000
0000
0030
,
0000
0000
0010
0000
0002
0000
0000
0003
0010
0000
2000
0000
0000
0000
0010
0000
,
3010
0000
0002
0203
0320
2030
0000
0000
,
3000
0000
0001
0000
0020
0000
0000
0000
0130
0000
2000
0000
0000
0000
0000
3000
,
1001
0000
0001
0100
0010
2000
0000
0000
,
0000
3000
0010
0000
0002
0000
0000
0003
0010
0000
2000
0000
0000
3000
0001
0000
,
0002
0003
1000
0000
0000
0010
0000
0000
,
1000
0100
0000
0000
0000
0001
0000
0000
,
0001
0220
0000
0000
0000
0000
0000
0000
,
0000
0000
0000
0000
,
0000
0000
0000
0000
0000
0330
0000
0000
0000
0000
0000
0000
0000
0000
0000
0000
;

//---------------dance-single - Medium----------------
#NOTES:
     dance-single:
     Medium:
     Easy:
     5:
     0.268,0.281,0.182,0.091,0.000:
0000
0000
0000
0000
,
0000
0000
0000
0000
,
0000
2000
3000
2000
,
3000
2000
0000
3000
,
0000
0002
0003
0002
,
0003
0002
0000
0003
,
0000
1000
0001
1000
,
1000
0001
0010
0001
,
0001
0010
1000
0010
,
0100
1000
0100
0001
,
1001
0010
0000
1000
,
0000
0001
1000
0001
,
0100
0010
0001
0010
,
0010
0100
0010
0011
,
0000
0001
1000
0010
,
0000
1000
0001
0100
,
0000
0010
1000
0010
,
0100
0100
0100
0010
,
0000
1000
0001
0010
,
0100
0000
0000
1000
,
0001
0010
1000
0001
,
1000
0001
0001
1000
,
0001
1000
0100
0010
,
0001
1000
0001
1000
,
1001
0010
0001
0010
,
0100
1001
0000
0101
,
0000
0011
0000
0010
,
0000
1000
0000
0010
,
0000
2000
3000
0001
,
0000
0100
0000
0010
,
0000
1000
0000
0001
,
0000
0100
0001
1001
,
0010
1000
0100
0010
,
0001
0000
0001
0010
,
0100
0000
1000
0010
,
0001
0010
0000
1000
,
0000
0001
0000
1000
,
0001
1000
1001
0000
,
1001
0000
1001
0001
,
0010
0100
1000
0100
,
0010
1000
0001
1000
,
1001
0000
0001
1000
,
0001
1000
0010
0100
,
0010
1001
0000
0010
,
0000
1000
0000
0001
,
0100
0001
1001
0010
,
1001
0010
0100
0010
,
2002
3003
0001
0000
,
1000
0001
0001
0100
,
0100
0000
1000
0000
,
0001
0000
0100
0001
,
0000
1000
1000
0001
,
0001
1000
0001
1000
,
0001
1000
0001
1000
,
0000
1001
0000
0010
,
0100
0001
1000
0001
,
0010
0000
1000
0001
,
1001
0000
0010
0100
,
0010
0000
0100
0001
,
1001
0000
0010
0100
,
0010
0000
1000
0001
,
1001
0000
1000
0001
,
1000
0000
0010
0100
,
1001
0010
0000
1000
,
0000
0001
0000
1001
,
0000
2002
0000
0000
,
0000
0000
0000
0000
,
0000
0000
0000
3003
;
