#TITLE:Hello, Hoshi o Kazoete;
#SUBTITLE:;
#ARTIST:MakiRinPana;
#TITLETRANSLIT:;
#SUBTITLETRANSLIT:;
#ARTISTTRANSLIT:;
#GENRE:;
#CREDIT:CHMX;
#BANNER:banner.png;
#BACKGROUND:BGI.jpg;
#LYRICSPATH:;
#CDTITLE:;
#MUSIC:Hello, Hoshi o Kazoete.mp3;
#OFFSET:0.000;
#SAMPLESTART:58.960;
#SAMPLELENGTH:12.000;
#SELECTABLE:YES;
#BPMS:0.000=230.000;
#STOPS:0.000=0.440
,121.000=0.560
;
#BGCHANGES:0.000=BGA.avi=1.000=0=0=0=StretchNoLoop====,
99999=-nosongbg-=1.000=0=0=0 // don't automatically add -songbackground-
;
#KEYSOUNDS:;

//---------------dance-single - Blank----------------
#NOTES:
     dance-single:
     Blank:
     Hard:
     9:
     0.665,0.667,0.477,0.466,0.260:
0000
0000
0000
0000
,
0000
0000
0000
0000
,
0000
0000
0000
0000
,
0000
1000
0000
0100
,
0000
0000
0000
0010
0000
0000
0001
0000
0000
0100
0000
0100
,
1000
0000
0000
0000
0000
0110
0000
0000
0000
0000
0100
0000
0000
0000
0000
0000
,
2000
0000
0000
0000
0000
0000
0000
0000
0000
0000
0000
0000
0000
0000
0000
3000
0000
0000
0100
0000
0000
0000
0010
0000
,
1000
0000
1000
0010
1000
0001
0200
0000
,
0310
0000
0010
1000
0000
0000
0100
0000
0000
0010
0000
0000
,
0100
1100
0100
0011
,
0010
0000
0000
1100
0000
0000
0100
0000
0000
0010
0000
0100
,
1000
0000
0100
0010
0000
0000
0001
0000
0000
1000
0000
1000
,
0100
0000
0001
0010
0000
0000
0100
0000
1000
0100
0000
0000
,
0010
0000
0110
0000
0000
0011
0000
0000
,
0020
0000
0000
0000
0030
0000
0010
0100
,
0020
0030
0000
0000
0000
0000
0000
0000
,
0000
0000
0000
0000
1010
0000
0000
0110
,
0000
0101
0000
0000
,
0001
0000
0000
0000
0001
0000
0010
0000
0000
1000
0000
0000
0100
0000
0000
0010
0000
0000
0100
0000
0000
0000
0000
0000
,
0001
0000
0000
0100
0000
0000
0010
0000
0000
0001
0000
0001
,
0010
0000
0001
0100
0000
0000
0100
0000
1000
0010
0000
0000
,
1000
0000
0101
0000
0000
1100
0000
0000
,
2020
0000
0000
3030
0000
0000
1000
0000
0000
0001
0000
1000
,
0100
0000
0100
0010
0000
0000
0010
0000
0000
0001
0000
0000
,
0001
0000
1000
0100
0000
0000
0010
0000
0000
1000
0000
0000
,
0001
0000
0000
0000
0000
0000
0110
0000
0000
0000
0000
0000
0000
0000
0000
0100
0002
0000
0000
0000
0000
0000
0003
0000
,
0210
0000
0000
0300
2100
0000
0000
0000
,
0000
0000
0000
3000
0000
0000
2020
0000
0000
3030
0000
0000
1010
0000
0000
0000
0000
0000
0010
0000
0000
0000
0100
0000
,
0010
0000
0000
0001
0000
0000
0010
0000
0100
1000
0000
0100
,
0010
0000
0010
0100
0000
0000
0010
0000
0000
0001
0000
0100
,
0010
0000
0000
1001
0000
1000
0001
0000
0000
1000
0000
0000
,
0010
0100
0002
1003
,
0100
0010
0100
0001
,
1000
0010
0200
0010
,
1300
1010
0001
1000
,
0010
0100
0001
1000
,
0010
0100
0010
1000
,
0001
0100
0001
1000
,
0010
0000
0000
0100
0000
0100
1000
0000
0100
0010
0000
0000
,
0010
0100
0001
1000
,
0010
0100
0001
1000
,
0010
1000
0020
0100
,
0031
0101
0001
0010
,
0010
1000
0001
1000
,
0100
0001
0010
0110
,
0000
1010
0000
0000
0200
0000
0000
0000
,
0000
0000
0300
0000
0000
0000
0010
0100
,
0010
0001
0010
0100
0010
0001
0010
0100
,
0000
0020
0000
0030
0000
0000
0010
0100
,
1000
0100
0010
0100
1000
0100
0010
0100
,
0000
0200
0000
0300
0000
1001
0000
0000
,
1000
0002
0000
0003
0001
0000
0110
0000
,
0100
2000
0000
0000
3010
0000
2000
0000
,
0000
3002
0000
0023
,
0000
0000
2030
0000
0000
3000
2200
0000
,
3300
0000
0000
1000
0000
0100
0010
0000
0100
0001
0000
0000
,
0100
0010
0100
0001
,
1000
0010
0100
1001
,
0000
0110
0000
0000
1010
0000
0010
0000
,
0001
0000
0000
0000
0000
0000
1000
0000
0000
0000
0100
0000
0010
0000
0000
0000
0100
0000
0001
0000
0000
0100
0000
0000
,
0010
0100
0002
0000
0103
0010
1000
0000
,
0100
0010
0010
0001
,
1000
0010
0100
0001
,
1000
0000
0000
0010
0000
1000
0100
0000
1000
0010
0000
0000
,
0100
0001
1000
0010
,
0100
0001
1000
1010
,
0000
0000
0000
0101
0000
0000
0000
0000
0000
0000
0000
0000
0110
0000
0000
0000
0001
0000
0010
0000
0000
0000
0100
0000
,
1000
0000
1000
0100
0000
0000
0100
0000
0000
1010
0000
0000
,
1000
0020
0000
0031
,
0220
0000
0330
0110
0000
0000
0011
0000
,
0010
0000
2000
0000
3000
0000
0100
0010
,
0001
0010
0100
0000
0001
0000
2002
0000
,
3003
0000
0000
1000
0000
0000
0000
0000
0000
0000
0000
0000
0001
0000
0000
0000
0000
0000
0100
0000
0000
0000
0001
0000
,
0000
0100
0000
1000
0000
0100
0000
0010
0000
0200
0000
0000
,
0000
0300
0000
0220
0000
0000
0000
0000
0000
0000
0000
0000
,
0000
0000
0000
0000
0000
0330
1000
0000
,
0010
0000
1000
0100
0000
0100
0001
0000
0010
0100
0000
0000
,
0100
0000
0001
0010
0000
0000
1000
0000
0000
0110
0000
0000
,
0000
0011
0000
0000
1010
0000
0100
0000
,
0010
0000
0000
0100
0000
0000
0001
0000
0001
0100
0000
0000
,
1000
0000
0000
0001
0000
0010
0100
0000
0010
1000
0000
0000
,
1000
0000
0010
0001
0000
0000
0010
0000
0000
1100
0000
0000
,
0000
1010
0000
0000
1100
0000
0000
0000
,
2002
0000
0000
3003
0000
0000
0002
0000
,
0000
0020
0003
0000
0031
0000
0200
0000
,
0000
0000
0000
0300
0000
0000
0010
0000
0000
0000
1000
0000
0000
0000
0010
0000
0000
0000
0002
0000
0000
0000
0000
0000
,
0000
0000
0000
0020
0003
0000
0000
0000
0000
0000
0000
0000
0032
0000
0000
0000
0000
0000
0000
0000
0000
0000
0000
0000
,
0000
0000
0000
0000
0000
0000
0000
0000
0000
0000
0000
0000
0000
0003
0000
0000
;

//---------------dance-single - Hard----------------
#NOTES:
     dance-single:
     Hard:
     Challenge:
     12:
     0.851,0.949,0.683,0.770,0.548:
0000
0000
0000
0000
,
0000
0000
0000
0000
,
0000
0000
0000
0000
,
0000
1001
0000
0010
,
0000
0000
0000
0010
0000
0000
0001
0000
0000
0100
0000
0010
,
1000
0000
0000
0000
0000
0110
0000
0000
0000
0000
0001
0000
0000
0000
0000
0000
,
2000
0000
0000
0000
0000
0000
3000
0000
0000
0100
0000
0100
,
1000
0000
1000
0010
1000
0001
0200
0000
,
0010
0000
0000
0300
0010
0000
1000
0000
0000
0000
0000
0000
0100
0000
0000
0000
0000
0000
0010
0000
0000
0000
0000
0000
,
0100
1010
0100
0101
,
0010
0000
0000
1010
0000
0000
0100
0000
0000
0010
0000
0100
,
1000
0000
0100
0010
0000
0000
0001
0000
0000
1000
0000
1000
,
0100
0000
0001
0010
0000
0000
0100
0000
1000
0100
0000
0000
,
0010
0000
0110
0000
0000
0011
0000
0000
,
0010
0000
1000
0100
0000
0100
0001
0000
0000
2002
0000
3003
,
1000
0000
0010
1000
0000
0000
0200
0000
0000
0320
0000
0000
,
0000
0000
0130
0000
2020
0000
3030
0220
,
0000
0330
0202
0000
0313
0000
0100
0000
,
0001
0000
0000
0000
0001
0000
0010
0000
0000
1000
0000
0000
0100
0000
0000
0010
0000
0000
0200
0000
0000
0000
0000
0000
,
0302
0000
0000
0003
0000
0000
0101
0000
0000
0000
0100
0000
0010
0000
0000
0000
0000
0000
0001
0000
0000
0000
0001
0000
,
0010
0000
0001
0100
0000
0000
0100
0000
1000
0002
0000
0003
,
1000
0000
0101
0000
0000
0110
0000
0000
,
0202
0000
0000
0000
0000
0000
0000
0000
0000
0000
0000
0000
0000
0000
0000
0000
0000
0000
0000
0000
0000
0303
0000
0000
1000
0000
0000
0000
0000
0000
0000
0000
0000
0000
0000
0000
0001
0000
0000
0000
0000
0000
0000
0000
1000
0000
0000
0000
,
0100
0000
0100
0010
0000
0000
0010
0000
0100
0001
0000
0000
,
0001
0000
0000
0000
0000
0000
0000
0000
1000
0000
0000
0000
0100
0000
0000
0000
0000
0000
0000
0000
0000
0000
0000
0000
0010
0000
0000
0100
0000
0000
1000
0000
0000
0100
0000
0000
0020
0000
0000
0000
0000
0000
0000
0000
0000
0030
0000
0000
,
0020
0000
0000
0000
0000
0000
0000
0000
0000
0030
0000
0000
0120
0000
0000
0000
0000
0000
0000
0000
0000
0000
0000
0000
0030
0000
0000
0000
0000
0000
0100
0000
0002
0000
0000
0000
0000
0000
0000
0000
0000
0000
0000
0000
0003
0000
0000
0000
,
0100
0010
0001
0010
0100
1000
0200
0000
0300
0200
0000
0300
,
0100
0000
0000
0000
0001
0000
0020
0000
0000
0030
0000
0000
0010
0000
0100
0000
1000
0000
0100
0000
0010
0000
0001
0000
,
0100
0010
0100
1000
0100
0010
0001
0100
0010
0001
0010
0001
,
0010
0100
0010
0001
0000
0000
0010
0000
0000
0100
0000
1000
,
0010
0000
0000
0101
0000
1000
0001
0000
0000
0110
0000
0000
,
1100
0110
0110
0102
,
2000
0000
0000
3023
0000
0030
0010
0000
0000
0110
0000
0000
,
0011
0000
0000
0110
0000
0000
1100
0000
0000
0201
0000
0300
,
0200
0000
0300
1100
0000
0100
0010
0000
0001
0100
0000
0000
,
1000
0000
0000
0010
0000
0010
0100
0000
0000
0001
0000
0000
,
1000
0000
0100
0010
0000
0010
0100
0000
0000
0100
0000
0010
,
0002
0000
0003
0010
0000
0100
0001
0000
0000
0001
0000
0100
,
1000
0000
0000
0010
0000
0010
0100
0000
0100
1000
0000
0000
,
1000
0000
0000
0010
0000
1000
0100
0000
0000
0001
0000
0000
,
1000
0000
0001
0010
0000
0010
0100
0000
0000
0011
0000
0000
,
1100
0000
0000
0110
0000
0000
1100
0000
0000
0210
0000
0300
,
2000
3000
1010
0000
0101
0000
1001
0000
,
0010
0000
0010
0100
0000
0100
1000
0000
0000
0001
0000
0000
,
1000
0000
1000
0100
0000
0100
0001
0000
0010
0001
0000
0000
,
0000
0000
0000
0110
0000
0000
0000
0000
0000
0000
0000
0000
1010
0000
0000
0000
1000
0000
0010
0000
0000
0000
0100
0000
,
0001
0000
0000
0000
0010
0000
0001
0000
0000
0000
1000
0000
0001
0000
0000
0000
0100
0000
0010
0000
0000
0001
0000
0000
,
0010
0100
0010
0001
0010
0100
0010
0001
,
0000
0020
0000
0000
0030
0000
1000
0100
,
0010
0100
1000
0100
0010
0100
1000
0100
,
0000
0020
0000
0000
0030
0000
1001
0000
,
0100
0202
0000
0303
0020
0030
1010
0000
,
0100
2200
0000
0000
3310
0000
2001
0000
,
0000
3002
0000
0023
,
0000
0000
2030
0000
0000
3000
2020
0000
,
3130
0000
0000
1000
0000
0100
0010
0000
0100
0001
0000
0000
,
0100
0000
0000
0010
0000
0010
0100
0000
0000
0001
0000
0000
,
1000
0000
0000
0010
0000
0010
0100
0000
0000
0001
0000
0000
,
0100
0000
0000
0010
0000
0100
2000
0000
3000
1100
0000
0000
,
0020
0000
0000
0000
0030
0000
0001
0000
0000
0000
0100
0000
0010
0000
0000
0000
0100
0000
0001
0000
0000
0100
0000
0000
,
0010
0100
0002
0000
0103
0010
1000
0000
,
0100
0000
0100
0010
0000
0000
0010
0000
0000
0001
0000
0000
,
1000
0000
0000
0010
0000
0010
0100
0000
0100
0001
0000
0000
,
1000
0000
0000
0010
0000
1000
0100
0000
1000
0010
0000
0000
,
0100
0000
0000
0001
0000
0100
1000
0000
0000
0010
0000
0000
,
0100
0000
0010
0001
0000
0000
1000
0000
0000
1010
0000
0000
,
0000
0000
0000
0101
0000
0000
0000
0000
0000
0000
0000
0000
0110
0000
0000
0000
0001
0000
0010
0000
0000
0000
0100
0000
,
1000
0000
0000
0100
0000
0000
0010
0000
0100
0101
0000
0000
,
1000
0020
0000
0031
,
0220
0000
0330
0110
0000
0000
0011
0000
,
0010
0000
2000
0000
3100
0000
0100
0010
,
0001
0010
0100
0000
0001
0000
2002
0000
,
3003
0000
0000
1000
0000
0000
0000
0000
0000
0000
0000
0000
0001
0000
0000
0000
0000
0000
0110
0000
0000
0000
0001
0000
,
0000
0010
0000
0100
0000
1000
0000
0100
0000
1200
0000
0000
,
0300
2002
0000
0000
,
0000
0000
0000
3003
0000
0000
1000
0000
,
0010
0000
0000
0100
0000
0010
0001
0000
0000
0100
0000
0000
,
0100
0000
0001
0010
0000
0000
1000
0000
0000
0110
0000
0000
,
0000
0011
0000
0000
1010
0000
0100
0000
,
0010
0000
0000
0100
0000
0000
0001
0000
0010
0100
0000
0000
,
1000
0000
0000
0001
0000
0010
0100
0000
0010
1000
0000
0000
,
1000
0000
0010
0001
0000
0000
0100
0000
0000
2020
0000
0000
,
3030
0220
0000
0330
0202
0000
0303
0000
,
0220
0000
0000
1330
0000
0000
0100
0000
0010
0002
0000
0000
,
0000
0020
0003
0000
0031
0000
0200
0000
,
0000
0000
0000
0310
0000
1000
0100
0010
0000
0002
0000
0000
,
0000
0000
0000
0000
0023
0000
0000
0000
0000
0000
0000
0000
0130
0010
0002
0000
0000
0000
0000
0000
0000
0000
0000
0000
,
0000
0000
0003
0000
;

//---------------dance-single - Hard----------------
#NOTES:
     dance-single:
     Hard:
     Medium:
     7:
     0.566,0.617,0.325,0.553,0.033:
0000
0000
0000
0000
,
0000
0000
0000
0000
,
0000
0000
0000
0000
,
0000
1000
0000
0100
,
0000
0010
0001
0100
,
1000
0000
0100
0000
0000
0010
0000
0000
,
2000
0000
3000
0000
,
0000
0000
1000
0010
1000
0001
0200
0000
,
0310
0100
1000
0000
0100
0000
0010
0000
,
0100
1000
1000
0001
,
0001
1000
1000
0010
,
1000
0010
0001
1000
,
0100
0010
0100
0100
,
0010
0000
0110
0000
0000
0011
0000
0000
,
0020
0000
0030
0010
,
0100
0110
0000
0000
,
0000
0000
0000
0000
1010
0000
0000
0110
,
0000
0101
0000
0000
,
0000
0000
0010
1000
0100
0010
0100
0000
,
0001
0100
0020
0032
,
0023
0000
0230
0300
0100
0000
0020
0000
,
2030
0000
3101
0000
0000
1100
0000
0000
,
2020
3030
1000
0001
,
0100
0010
0010
0001
,
0001
0100
0010
1000
,
0001
0000
0210
0000
0300
0200
0000
0300
,
0210
0000
0000
0300
2100
0000
0000
0000
,
0000
3000
2020
3030
0000
0000
0000
0000
,
0000
0000
0000
0000
,
0000
0000
0000
0000
,
0000
1001
1000
0001
,
1000
0010
0100
0002
,
0100
0013
0010
0100
,
0001
1000
0010
0200
,
0001
1300
1001
0001
,
1000
0010
0100
0001
,
1000
0010
0100
0002
,
1000
0013
0100
0001
,
1000
0010
0100
1000
,
1000
0010
0100
0001
,
1000
0010
0100
0001
,
1000
0010
1000
0200
,
1000
0310
1010
0001
,
0010
0010
1000
0001
,
1000
0100
0001
0011
,
0000
0110
0000
0000
2010
0000
0000
0000
,
0000
3000
0000
0000
0000
0000
0010
0001
,
0010
0100
0010
0001
0010
0100
0010
0001
,
0000
0020
0000
0000
0000
0030
1000
0100
,
0010
0100
1000
0100
0010
0100
1000
0100
,
0000
0020
0000
0000
0030
0000
1001
0000
,
0000
0202
0000
0000
0000
0303
0110
0000
,
0000
2020
0000
0000
0000
3030
2000
0000
,
0000
3002
0000
0023
,
0000
0000
2030
0000
0000
3000
2200
0000
,
3300
1000
0010
0001
,
0100
0010
0100
0001
,
1000
0010
0100
0001
,
0000
0010
0000
0000
0100
0000
0010
0000
,
0001
0000
1000
0000
0010
0000
0001
0100
,
0010
0100
0002
0000
0103
0010
1000
0000
,
0100
0010
0010
0001
,
1000
0010
0100
0001
,
1000
0010
0100
0010
,
0100
0001
1000
0010
,
0100
0001
1000
0010
,
0000
0001
0000
0000
0010
0000
0010
0000
,
1000
0100
0100
1010
,
1000
0020
0000
0031
,
0220
0000
0330
0110
0000
0000
0001
0000
,
0010
0000
2000
0000
3000
0000
0100
0010
,
0001
0010
0100
0000
0001
0000
0120
0000
,
0030
0000
0000
1000
0000
0000
0000
0000
0000
0000
0000
0000
0001
0000
0000
0000
0000
0000
0100
0000
0000
0000
0001
0000
,
0000
0100
0000
1000
0000
0100
0000
0010
0000
0200
0000
0000
,
0000
0300
0000
0020
0000
0000
0000
0000
0000
0000
0000
0000
,
0000
0000
0000
0000
0000
0030
1000
0000
,
0010
0100
0001
0100
,
0100
0010
1000
0010
,
0000
0001
0000
0000
0010
0000
0100
0000
,
0010
0000
0100
0000
0001
0000
0102
0003
,
1000
0001
0100
1000
,
1000
0001
0100
0001
,
0000
0001
0000
0000
0100
0000
0000
0000
,
2020
0000
0000
3030
0000
0000
0002
0000
,
0000
0020
0003
0000
0031
0000
0200
0000
,
0000
0000
0000
0310
0000
1000
0000
0010
0000
0002
0000
0000
,
0000
0000
0000
0020
0003
0000
0000
0000
0000
0000
0000
0000
0032
0000
0000
0000
0000
0000
0000
0000
0000
0000
0000
0000
,
0000
0000
0003
0000
;

//---------------dance-single - Medium----------------
#NOTES:
     dance-single:
     Medium:
     Easy:
     5:
     0.431,0.521,0.033,0.629,0.022:
0000
0000
0000
0000
,
0000
0000
0000
0000
,
0000
0000
0000
0000
,
0000
1001
0000
0000
,
0000
0000
0000
0000
,
0000
0001
0000
0000
,
2000
0000
3000
0000
,
0000
1000
1000
0200
,
0310
1000
0100
0010
,
0100
1000
1000
0001
,
0001
2000
0000
3000
,
0000
0010
0001
1000
,
0000
0010
0100
0100
,
0010
0010
0000
0000
,
0020
0000
0030
0010
,
0100
0110
0000
0000
,
0000
0000
0000
0000
0020
0000
0000
0030
,
0000
0001
0000
0000
,
0000
0010
0100
0100
,
0001
0100
0020
0032
,
0023
0000
0230
0300
0100
0000
0020
0000
,
2030
3002
0003
0000
,
0020
0030
1000
0001
,
0100
0010
0010
0001
,
0001
0100
0010
1000
,
0001
0200
0300
0000
,
0200
0000
0000
0300
2000
0000
0000
0000
,
0000
3000
2000
3000
0000
0000
0000
0000
,
0000
0000
0000
0000
,
0000
0000
0000
0000
,
0000
0000
1000
0000
2000
3000
1000
0000
,
0010
0100
0002
1000
,
0013
0000
0000
0001
,
1000
0010
0100
0020
,
0130
0001
0001
0010
,
0000
0100
0002
1003
,
0010
0100
0002
0013
,
0010
0100
0001
1000
,
0010
0000
0100
0000
2000
3000
1000
0000
,
0010
0000
0100
0000
0002
0003
0020
0000
,
0030
0000
0001
1000
,
0010
1000
0200
0000
,
0000
0300
0000
0010
,
0010
1000
0001
1000
,
0100
0001
0002
2003
,
3000
0000
2000
0000
,
0000
3000
0000
0000
0000
0000
0010
0000
,
0100
0010
0001
0010
,
0200
0300
1000
0010
,
1000
0010
1000
0100
,
0020
0030
0000
0001
,
0000
0002
0000
0000
0000
0003
0010
0000
,
0000
0020
0000
0000
0000
0030
2000
0000
,
0000
3002
0000
0023
,
0000
0000
2030
0000
0000
3000
2000
0000
,
3000
1000
0010
0001
,
0100
0010
0100
0001
,
0000
0010
0100
0001
,
0100
0001
0100
0020
,
0000
0030
0000
0000
0000
0000
0001
0000
,
0010
0002
0103
1000
,
0100
0010
0010
0001
,
1000
0010
0100
0002
,
0000
0000
0000
0003
0000
0000
0020
0000
,
0000
0030
0002
0000
0000
0000
0103
0000
,
0010
0001
1000
0020
,
0030
0000
0020
0000
,
0030
0100
0100
0010
,
1000
0020
0000
0031
,
0020
0000
0030
0010
0000
0000
0001
0000
,
0010
2000
3000
0100
,
0001
0100
0001
0020
,
0030
0000
0000
1000
0000
0000
0000
0000
0000
0000
0000
0000
0001
0000
0000
0000
0000
0000
0100
0000
0000
0000
0001
0000
,
0000
0100
0000
0001
0000
0100
0000
0010
0000
0200
0000
0000
,
0000
0300
0000
0120
0000
0000
0000
0000
0000
0000
0000
0000
,
0000
0000
0000
0000
0000
0030
1000
0000
,
0010
0100
0001
0100
,
0100
0010
1000
0010
,
0000
0001
0000
0000
0010
0000
0100
0000
,
0010
0100
0001
0000
,
0000
0200
0000
0000
,
0000
0000
0000
0300
0100
0000
0002
0000
,
0000
0003
0000
0000
0100
0000
0000
0000
,
0020
0000
0000
0030
0000
0000
0002
0000
,
0000
0003
0000
2000
,
0000
3000
0000
0000
0000
0000
0002
0000
,
0003
0000
0002
0000
,
0000
0000
0000
0000
0003
0000
0000
0000
0000
0000
0000
0000
;

//---------------dance-single - Blank----------------
#NOTES:
     dance-single:
     Blank:
     Beginner:
     2:
     0.150,0.182,0.000,0.076,0.000:
0000
0000
0000
0000
,
0000
0000
0000
0000
,
0000
0000
0000
0000
,
2000
3000
0000
0000
,
0000
0001
0000
0000
,
0000
1000
0000
0000
,
0000
0001
0000
0000
,
0000
0100
0000
0000
,
0000
0100
0000
0000
,
0000
0010
0000
0000
,
0000
0010
0000
0000
,
0000
1000
0000
0000
,
0000
1000
0000
0000
,
0000
0001
0000
0000
,
0200
0000
0000
0000
,
0000
0310
0000
0000
,
0000
0000
0020
0030
,
0000
0010
0000
0000
,
0000
0010
0000
0000
,
0000
1000
0000
0000
,
0000
0001
0000
0000
,
0000
0100
0000
0000
,
0000
0100
0000
0000
,
0000
0010
0000
0000
,
0000
1000
0000
0000
,
0000
0001
0000
0000
,
0000
0100
0000
0000
,
0000
0001
0000
0000
,
0000
0000
0000
0000
,
0000
0000
0000
0000
,
0000
1000
0000
0001
,
0000
0000
0000
0001
,
0000
0000
0000
1000
,
0000
0010
0000
0001
,
0000
0000
0000
0100
,
0000
0000
0000
0010
,
0000
0000
0000
1000
,
0000
0000
0000
0010
,
0000
0010
0000
0010
,
0000
0000
0000
1000
,
0000
0000
0000
0001
,
0000
0000
0000
0100
,
0000
0010
0000
0010
,
0000
0000
0000
1000
,
0000
0000
0000
0001
,
0000
0000
0020
0000
,
0000
0030
0000
0001
,
0000
0010
0000
1000
,
0000
0100
0000
0001
,
0000
0010
0000
0100
,
0000
0010
0000
0010
,
0000
0000
0000
0001
,
0000
0000
0000
1000
,
0000
0001
0000
0100
,
0000
0010
0000
0010
,
0000
0010
0000
0001
,
0000
0000
0000
1000
,
0000
0000
0000
0001
,
0000
0000
0000
1000
,
0000
0000
0000
0010
,
0000
0000
0000
0100
,
0000
0000
0000
0010
,
0000
0000
0000
0100
,
0000
0000
0000
0001
,
0000
0000
0000
1000
,
0000
0000
0000
2000
,
0000
3000
0000
0000
2000
0000
0000
0000
,
0000
0000
0000
0000
0000
3000
0010
0000
,
0000
0000
0000
0000
,
0002
0000
0000
0003
0000
0000
0001
0000
,
0000
0000
0000
0010
,
0000
0000
0000
1000
,
0000
0000
0000
0001
,
0000
0000
0000
0100
,
0000
0010
0000
0000
,
0000
0000
0000
1000
,
0000
0000
0000
0001
,
0000
0000
0000
1000
,
0000
0000
0000
0001
,
0000
0000
0000
0100
,
0000
0000
0000
0010
,
0000
0000
0000
1000
,
0000
0000
0000
0001
,
0000
0000
0000
1000
;
