#TITLE:HEARTBEAT;
#SUBTITLE:;
#ARTIST:NozoNicoEli;
#TITLETRANSLIT:;
#SUBTITLETRANSLIT:;
#ARTISTTRANSLIT:;
#GENRE:;
#CREDIT:CHMX;
#BANNER:banner.png;
#BACKGROUND:BGI.png;
#LYRICSPATH:;
#CDTITLE:;
#MUSIC:HEARTBEAT.mp3;
#OFFSET:0.000;
#SAMPLESTART:47.260;
#SAMPLELENGTH:12.000;
#SELECTABLE:YES;
#BPMS:0.000=237.000;
#STOPS:0.000=0.040
;
#BGCHANGES:0.000=BGA.avi=1.000=0=0=1=StretchNormal====,
99999=-nosongbg-=1.000=0=0=0 // don't automatically add -songbackground-
;
#KEYSOUNDS:;

//---------------dance-single - Blank----------------
#NOTES:
     dance-single:
     Blank:
     Hard:
     8:
     0.643,0.738,0.542,0.337,0.000:
0000
0000
0000
0000
,
0000
0000
0000
0000
,
0000
0000
0000
0000
,
0000
0000
1000
1000
,
0001
0000
0010
0100
0000
0010
0000
1000
,
0001
0010
0100
0001
,
0010
0000
1000
0100
0000
0010
0000
0100
,
1000
0100
1000
0010
,
1000
0000
0100
0001
0000
0010
0000
0100
,
1000
0100
1000
0010
,
0100
0010
0001
0100
0000
0110
0000
1001
,
0000
0010
0100
0000
0010
0000
1000
0000
,
0001
0000
0010
0100
0000
1000
0000
0100
,
0010
0001
0010
0010
,
0001
0000
0010
1000
0000
1000
0000
0100
,
0010
0001
0010
1000
,
0010
0000
0001
0010
0000
0010
0000
1000
,
0010
0100
1000
0010
,
0100
0000
0001
0010
0000
1000
0000
1000
,
0100
0010
0002
1003
,
0200
0301
0002
0103
,
2000
3001
0020
0130
,
0020
0000
1030
0000
0020
1000
0130
1000
,
0010
1000
0010
1000
0100
0000
1000
0000
,
0010
0000
0001
0100
0000
1000
0000
0100
,
0010
0001
0010
1000
,
0001
0000
0010
0100
0000
0000
0010
0000
,
0001
0010
0100
0001
,
1001
0000
0000
0000
,
0000
0000
0010
0100
,
1100
0000
0000
0000
,
0000
0000
0010
0001
,
0011
0000
0000
0000
,
0000
0000
2010
0000
,
3102
0000
0000
0000
0000
0003
0210
0000
0000
0000
0000
0000
,
2310
0000
0000
3000
0001
0000
0010
0000
,
0110
0000
0000
0000
,
0000
0000
0100
0010
,
0110
0000
0000
0000
,
0000
0000
1000
0010
,
0100
0000
0001
0010
0000
1000
0000
0100
,
0010
0100
0002
1000
,
0203
0000
0001
0300
0100
0000
0000
1000
,
0000
0010
0100
0000
0002
0000
0000
0013
,
0000
1000
0002
0000
0010
0000
0000
0103
,
0000
0010
0001
0000
0200
0000
0000
0000
,
0000
0000
0000
0300
1001
0000
1001
0000
,
1001
2000
3002
0203
,
0302
0000
0013
1000
0010
0000
0100
0000
,
0101
0100
0101
0100
,
1010
0000
0100
0000
1010
0000
0010
1000
,
0010
1010
0101
0110
,
0011
0101
0011
0100
,
0001
0000
0101
0000
0010
0000
0101
0020
,
0000
0030
0010
0000
0100
0000
0010
0000
,
1100
1010
0102
0203
,
0301
0000
0100
0001
0100
0000
0010
0000
,
1000
0001
0010
0001
,
0100
0000
0001
0000
0110
0000
0001
1000
,
0010
0001
0100
0000
1000
0000
0100
0000
,
0001
0010
0100
1000
,
1010
0000
0100
0000
1010
0000
0000
1010
,
0000
0000
1010
0000
0001
0100
0010
1000
,
0001
0100
0010
0000
1001
0000
0000
1001
,
0000
0000
1001
0000
0001
1000
0010
0100
,
0001
1000
0010
0000
1001
0000
0000
1001
,
0000
0000
1001
0000
0001
1000
0010
0100
,
0001
1000
0010
0000
1001
0000
0000
1001
,
0000
0000
1001
0000
0020
0000
0031
1000
,
0010
1000
0010
0100
0001
0000
0000
0010
,
0000
1001
0020
0030
,
0000
0000
1000
0010
,
0010
0000
0001
0100
0000
0010
0000
1000
,
0010
0010
0001
0010
,
0100
0000
1000
0010
0000
0100
0000
1000
,
0100
0010
0001
0100
,
0010
0000
0001
0010
0000
0100
0000
0010
,
0001
0001
0010
0001
,
0010
0000
0001
0200
0000
0301
0000
0010
,
0000
1000
0001
0000
2002
0000
0000
0000
,
3003
0000
M000
0000
,
00M0
0000
0000
000M
;

//---------------dance-single - Hard----------------
#NOTES:
     dance-single:
     Hard:
     Medium:
     7:
     0.573,0.590,0.241,0.373,0.000:
0000
0000
0000
0000
,
0000
0000
0000
0000
,
0000
0000
0000
0000
,
0000
0000
1000
1000
,
0001
0000
0010
0100
0000
0100
0000
0100
,
1000
1000
0100
0001
,
0010
0000
1000
0100
0000
0100
0000
0100
,
1000
0100
1000
0010
,
1000
0000
0100
0001
0000
0001
0000
0001
,
0100
0010
1000
0010
,
0100
0000
0001
0100
0000
0010
0000
2002
,
0000
0000
0000
3003
0010
0000
1000
0000
,
0001
0000
0010
0100
0000
1000
0000
0100
,
0010
0001
0010
0010
,
0001
0000
0010
1000
0000
1000
0000
0010
,
0000
0000
0010
1000
,
0010
0000
0001
0010
0000
0010
0000
1000
,
0010
0100
1000
0010
,
0100
0000
0001
0010
0000
1000
0000
1000
,
0200
0000
0300
0000
0000
0000
0000
0000
0002
0000
0000
0000
4003
3000
0000
0000
,
0200
0301
0002
0103
,
2000
3001
0020
0130
,
0020
0000
1030
0000
0020
0000
0000
0030
,
0010
0002
0103
1000
,
0010
0000
0001
0100
0000
1000
0000
0100
,
0010
0001
0010
1000
,
0001
0000
0010
0100
0000
0000
0010
0000
,
0001
0010
0100
0010
,
1100
0000
0000
0000
,
0000
0000
0010
0100
,
1010
0000
0000
0000
,
0000
0000
0010
0001
,
1010
0000
0000
0000
,
0000
0000
2000
0001
,
3002
0000
0000
1000
0000
0003
0200
0000
0000
0001
0000
0000
,
2300
0000
0001
3000
0100
0000
0010
0000
,
1010
0000
0000
0000
,
0000
0000
0100
0010
,
0101
0000
0000
0000
,
0000
0000
0100
0010
,
0100
0000
0001
0010
0000
1000
0000
0100
,
0010
0100
0002
1000
,
0203
0000
0001
0300
0100
0000
0000
1000
,
0000
0010
0100
0000
0002
0000
0000
0013
,
0000
1000
0002
0000
0010
0000
0000
0103
,
0000
0010
0001
0000
0002
0000
0000
0000
,
0000
0003
0001
0001
,
0001
0000
0010
0000
0200
0000
0000
2300
,
0000
0000
3100
0001
0010
0000
0100
1000
,
0000
0100
1000
0100
0002
0000
0003
0200
,
0000
0300
0000
0000
0010
0000
1000
0000
,
1000
1000
0100
0001
,
0001
0001
0010
0100
,
0100
0000
0100
0000
0020
0000
0130
2000
,
0000
3000
1000
0000
0100
0000
0010
0000
,
0100
0010
0010
0010
,
0100
0000
0010
1000
0010
0000
0010
0100
,
0000
0000
0100
0000
0200
0000
0000
0010
,
0300
0000
0010
0100
,
0100
0100
0010
0001
,
0001
0010
0100
1000
,
1000
0000
0010
0000
1001
0000
0000
1001
,
0000
1001
0001
0010
,
0001
0000
0010
0000
1001
0000
0000
1001
,
0000
1001
0001
0010
,
0001
0000
0010
0000
1001
0000
0000
1001
,
0000
1001
0001
0010
,
0001
0000
0010
0000
1001
0000
0000
1001
,
0000
0000
1001
0000
0010
0000
0001
1000
,
0010
0100
0010
0100
0001
0000
0000
0010
,
0000
1001
0020
0030
,
0000
0010
0001
0100
1000
0000
0010
0000
,
0010
0000
0001
0100
0000
0010
0000
1000
,
0010
0010
0001
0010
,
0100
0000
1000
0010
0000
0100
0000
1000
,
0100
0010
0001
0100
,
0010
0000
0001
0010
0000
0100
0000
0010
,
0001
0001
0010
0001
,
0010
0000
0001
0200
0000
0301
0000
0010
,
0000
1000
0001
0000
2002
0000
0000
0000
,
3003
0000
M000
0000
,
00M0
0000
0000
000M
;

//---------------dance-single - Medium----------------
#NOTES:
     dance-single:
     Medium:
     Easy:
     5:
     0.413,0.590,0.024,0.289,0.000:
0000
0000
0000
0000
,
0000
0000
0000
0000
,
0000
0000
0000
0000
,
0000
0000
1000
1000
,
0001
0010
1000
0010
,
1000
0000
0100
0100
,
0010
0100
0010
1000
,
1000
0000
1000
0010
,
1000
0001
0100
0010
,
0100
0000
1000
0010
,
0100
0000
0000
0100
0000
0000
0000
0220
,
0000
0000
0000
0330
0010
0000
1000
0000
,
0001
0000
1000
1000
,
0001
0000
0010
0010
,
1000
0000
0010
0001
,
0001
0000
0010
1000
,
1000
0000
0001
0010
,
0010
0000
0100
0010
,
0100
0000
0001
1000
,
0200
0300
0000
0000
0002
0000
1003
0000
,
0200
0301
0002
0103
,
2000
3001
0020
0130
,
0020
1030
0020
2030
,
3010
0002
0103
1000
,
0010
0000
0001
1000
,
0010
0000
0010
1000
,
0001
0010
0100
0010
,
0001
0010
0100
0010
,
0100
0000
0000
0000
,
0000
0000
0010
0001
,
0010
0000
0000
0000
,
0000
0000
0010
1000
,
0010
0000
0000
0000
,
0000
0000
2000
0000
,
3002
0000
0000
0000
0000
0003
0200
0000
0000
0000
0000
0000
,
0300
0000
0100
0010
,
0010
0000
0000
0000
,
0000
0000
0100
0010
,
0100
0000
0000
0000
,
0000
0000
0100
0010
,
0100
0001
1000
0000
,
0010
0100
0002
0000
,
0203
0000
0000
0300
0200
0000
0000
0300
,
0000
0000
0000
0000
0002
0000
0000
0003
,
0000
0000
0000
0000
0002
0000
0000
0003
,
0000
1000
0002
0000
,
0000
0003
0001
0001
,
0001
0000
0100
0100
,
0100
0000
0010
0010
,
0010
0000
0001
0001
,
0001
0000
0010
0010
,
0010
0000
0100
0100
,
0100
0000
1000
1000
,
1000
0000
0010
0010
,
0010
0000
0100
0100
,
0100
0000
0010
0010
,
0010
0000
1000
1000
,
1000
0000
0010
0010
,
0010
0000
0100
0100
,
0100
0000
0001
0001
,
0001
0000
1000
1000
,
1000
0000
0000
0000
1000
0000
0000
1000
,
0000
1000
0001
0010
,
0001
0000
0010
0000
1000
0000
0000
1000
,
0000
1000
0001
0010
,
0001
0000
0010
0000
1000
0000
0000
1000
,
0000
1000
0001
0010
,
0001
0000
0010
0000
1000
0000
0000
1000
,
0000
1000
0010
0001
,
0010
0000
1000
0000
0001
0000
0000
0010
,
0000
1000
0020
0030
,
0000
0000
1000
0010
,
0010
0000
1000
0001
,
0010
0000
0001
0010
,
0100
0000
0001
0100
,
0001
0000
0001
0100
,
0010
0000
0001
0010
,
0001
0000
0010
0001
,
0010
0000
0100
0100
,
0010
0000
2002
0000
,
3003
0000
M000
0000
,
00M0
0000
0000
000M
;

//---------------dance-single - Blank----------------
#NOTES:
     dance-single:
     Blank:
     Beginner:
     3:
     0.272,0.387,0.060,0.205,0.000:
0000
0000
0000
0000
,
0000
0000
0000
0000
,
0000
0000
0000
0000
,
0000
0000
1000
0000
,
0001
0000
0100
0000
,
0000
0000
1000
0000
,
0010
0000
0100
0000
,
0000
0000
0010
0000
,
0010
0000
1000
0000
,
1000
0000
0001
0000
,
0001
0000
0100
0000
,
0100
0000
0010
0000
,
0010
0000
1000
0000
,
1000
0000
0001
0000
,
0001
0000
0100
0000
,
0100
0000
0010
0000
,
0010
0000
1000
0000
,
1000
0000
0010
0000
,
0010
0000
0001
0000
,
0001
0000
2000
0000
,
3002
0000
0203
0000
,
0302
0000
2003
0000
,
3002
0000
0203
0000
,
0300
0000
0001
0000
,
1000
0000
1000
0000
,
0001
0000
0001
0000
,
0010
0000
0100
0000
,
0000
0000
0010
0000
,
0010
0000
0000
0000
,
0000
0000
1000
0000
,
1000
0000
0000
0000
,
0000
0000
0001
0000
,
0001
0000
0000
0000
,
0000
0000
0200
0000
,
0320
0000
2030
0000
,
3002
0000
0103
0000
,
0100
0000
0000
0000
,
0000
0000
1000
0000
,
1000
0000
0000
0000
,
0000
0000
0001
0000
,
0001
0000
0000
0000
,
0000
0000
2000
0000
,
3002
0000
0203
0000
,
0300
0000
2000
3000
,
0000
0000
2000
3000
,
0000
0000
1000
0000
,
0001
0000
1000
1000
,
1000
0000
0001
0001
,
0001
0000
1000
1000
,
1000
0000
0010
0010
,
0010
0000
0100
0100
,
0100
0000
0001
0001
,
0001
0000
1000
1000
,
1000
0000
0010
0010
,
0010
0000
0100
0100
,
0100
0000
0001
0001
,
0001
0000
1000
1000
,
1000
0000
0010
0010
,
0010
0000
0100
0100
,
0100
0000
0001
0001
,
0001
0000
1000
1000
,
1000
0000
0010
0000
,
0000
0000
0011
0000
,
0000
0000
0010
0000
,
0000
0000
0011
0000
,
0000
0000
0010
0000
,
0000
0000
0011
0000
,
0000
0000
0001
0000
,
0000
0000
0011
0000
,
0000
0000
0001
0000
,
0000
0000
0011
0000
,
0000
0000
1000
0000
,
0001
0000
0001
0000
,
0000
0000
1000
0000
,
0001
0000
0001
0000
,
0000
0000
1000
0000
,
0010
0000
0010
0000
,
0000
0000
0001
0000
,
0001
0000
1000
0000
,
1000
0000
0200
0000
,
0000
0000
0000
0300
0000
0000
0000
0000
;

//---------------dance-single - IF1----------------
#NOTES:
     dance-single:
     IF1:
     Challenge:
     12:
     0.875,0.836,0.819,0.590,0.000:
0000
0000
0000
0000
,
0000
0000
0000
0000
,
0000
0000
0000
0000
,
0000
0001
0100
0010
1000
0000
1000
0100
,
0001
0000
0010
0100
0000
0010
0000
1000
,
0001
0000
0010
0000
0100
0000
0001
0100
,
0010
0000
1000
0100
0000
0010
0000
0100
,
1000
0010
0100
0010
1000
0000
0010
0100
,
1000
0000
0100
0001
0000
0010
0000
0100
,
1000
0000
0100
0000
1000
0001
0010
0001
,
0100
0010
0001
0100
0000
0110
0000
1001
,
0000
0010
0100
0000
0020
0000
1030
0100
,
0002
0000
0013
0100
0000
1000
0000
0100
,
0010
0000
0001
0000
0010
0000
0010
0100
,
0001
0000
0010
1000
0000
1000
0000
0100
,
0010
0100
0001
0100
0010
0000
1000
0100
,
0010
0000
0001
0010
0000
0010
0000
1000
,
0010
0000
0100
0000
1000
0000
0010
0001
,
0100
0000
0001
0010
0000
1000
0000
1000
,
0100
0000
0000
0000
0000
0000
0000
0000
0000
0000
0000
0000
0010
0000
0000
0000
0000
0000
0000
0000
0000
0000
0000
0000
0002
0000
0000
0000
0000
0000
0000
0000
0003
0000
0000
0000
1004
0000
0000
0003
0000
0000
0000
0000
0000
0000
0000
0000
,
0200
0000
0000
0000
0000
0000
0000
0000
0300
0000
0000
0000
0401
0000
0000
0300
0000
0000
0000
0000
0000
0000
0000
0000
0002
0000
0000
0000
0000
0000
0000
0000
0003
0000
0000
0000
0104
0000
0000
0003
0000
0000
0000
0000
0000
0000
0000
0000
,
2000
0000
0000
0000
0000
0000
0000
0000
3000
0000
0000
0000
4001
0000
0000
3000
0000
0000
0000
0000
0000
0000
0000
0000
0020
0000
0000
0000
0000
0000
0000
0000
0000
0030
0000
0000
0140
0000
0000
0030
0000
0000
0000
0000
0000
0000
0000
0000
,
0020
0000
0000
0030
1040
0030
0000
0000
0020
0000
1000
0000
0130
0000
1000
0000
,
0010
0001
0010
0100
1000
0000
1000
0000
,
0010
0000
0001
0100
0000
1000
0000
0100
,
0010
0001
0010
1000
,
0001
0000
0010
0110
0000
0000
0010
0001
,
0000
0100
0010
1000
0101
0000
1010
0000
,
2002
0000
3003
0000
0000
0000
0010
1000
,
0000
0010
0100
0010
0011
0000
0110
0000
,
2200
0000
3300
0000
0000
0000
0010
1000
,
0000
0100
0001
0100
0011
0000
0110
0000
,
0022
0000
0033
0000
0000
0000
0010
1000
,
0000
0100
0001
0100
2010
0000
0010
0000
,
3102
0000
0000
0100
0000
0003
0210
0000
0000
0001
0000
0000
,
2310
0000
0010
3000
0110
0000
1100
0000
,
0220
0000
0330
0000
0000
0000
0100
1000
,
0000
0100
0010
0001
0110
0000
0011
0000
,
0220
0000
0330
0000
0000
0000
0100
0020
,
0030
0010
0100
0010
1100
0000
0110
0000
,
0202
0303
0001
0010
0000
1000
0000
0100
,
0010
0100
0002
1000
,
0203
0000
0001
0300
0100
0000
0000
1000
,
0000
0010
0100
0000
0002
0000
0000
0013
,
0000
1000
0002
0000
0010
0000
0000
0103
,
0000
0010
0001
0001
0010
0010
0100
0100
,
1000
1000
0010
0010
0101
0000
0010
0000
,
0100
1001
0002
0023
,
0230
0000
1300
1000
0100
0100
0010
0010
,
0001
0001
0100
0100
0002
0000
0023
0000
,
0230
0000
2300
0000
3010
0010
0001
0001
,
0010
0010
0100
0100
1000
0001
0100
1000
,
0010
0100
0001
0100
0010
0000
0110
0000
,
0010
0000
1010
0000
0100
0010
1000
1000
,
0010
0010
0100
0100
2002
0000
3103
0000
,
1001
0000
1000
0000
0010
0010
0001
0001
,
0100
0010
0100
0100
0010
0000
0100
0000
,
1000
0000
0100
0000
0010
0010
1000
1000
,
0010
0010
0100
0100
0020
0000
0032
0000
,
0023
0230
1301
0200
,
0320
0000
0032
0000
0013
0100
1000
0001
,
0100
0001
0010
1000
0101
0000
0000
0110
,
0000
0000
1001
0000
1001
1000
1010
1000
,
1001
1000
1010
0000
1001
0000
0000
1001
,
0000
0000
1001
0000
1001
0001
0101
0001
,
1001
0001
0101
0000
0110
0000
0000
1001
,
0000
0000
0110
0000
1001
1000
1010
1000
,
1001
1000
1010
0000
1001
0000
0000
0110
,
0000
0000
1001
0000
0110
0100
0110
0100
,
0110
0100
0010
0100
0001
0000
0000
0110
,
0000
0000
1001
0000
0010
0100
0100
1000
,
1000
0100
0100
0010
1000
0000
0010
0100
,
0010
0000
0001
0100
0000
0010
0000
1000
,
0010
0010
0001
0010
,
0100
0000
1000
0010
0000
0100
0000
1000
,
0100
1000
0010
0100
0001
0000
0100
0000
,
0010
0000
0001
0010
0000
0100
0000
0010
,
0001
0000
0001
0000
0010
0000
0001
0100
,
0010
0000
0001
0200
0000
0301
0000
0010
,
0000
1000
0001
0000
2002
0000
3003
0000
,
0M00
0000
M000
0000
,
00M0
0000
0000
000M
;
