#TITLE:HEART to HEART!!;
#SUBTITLE:;
#ARTIST:u's;
#TITLETRANSLIT:;
#SUBTITLETRANSLIT:;
#ARTISTTRANSLIT:;
#GENRE:;
#CREDIT:CHMX;
#BANNER:banner.png;
#BACKGROUND:BGI.png;
#LYRICSPATH:;
#CDTITLE:;
#MUSIC:HEART to HEART!!.mp3;
#OFFSET:0.000;
#SAMPLESTART:64.000;
#SAMPLELENGTH:12.000;
#SELECTABLE:YES;
#BPMS:0.000=194.000;
#STOPS:0.000=0.040
;
#BGCHANGES:0.000=BGA Heart to heart.avi=1.000=0=0=1=StretchNormal====,
99999=-nosongbg-=1.000=0=0=0 // don't automatically add -songbackground-
;
#KEYSOUNDS:;

//---------------dance-single - Blank----------------
#NOTES:
     dance-single:
     Blank:
     Hard:
     9:
     0.781,1.000,0.135,0.827,0.042:
0000
0000
0000
0000
,
0000
0000
0000
0000
,
0000
0000
0000
0000
1000
1000
0000
0000
,
0000
0000
0000
0000
,
1000
0001
0010
0100
,
0010
0100
0000
1100
0000
0000
1000
0000
,
0010
1000
0010
1000
,
0100
0010
0000
0022
0000
0033
0000
0000
,
0001
0010
0100
0010
,
0100
1000
0000
1100
0000
0000
1000
0000
,
0100
0000
0010
0000
0001
0000
0010
0100
,
0000
0000
1000
0000
0000
0000
0110
0000
0000
0000
0000
0000
0000
0000
0000
0001
,
1000
0001
1000
0001
1000
0001
1000
0001
2000
0000
3020
0000
2030
0000
3020
0000
,
0130
0010
0001
1000
0100
0010
0100
0001
,
0010
0001
0010
0100
0001
0100
0001
0010
,
1000
0000
0100
0000
0100
0000
0001
0000
0100
0000
0020
0030
0020
0030
0200
0300
,
0200
0300
2000
3000
2000
3000
0020
0000
2030
0000
3020
0000
0130
0000
1000
0000
,
0010
0100
0001
0100
0010
0100
0001
1000
,
0010
0100
0001
0100
0020
0230
0302
0203
,
0310
0000
0100
0000
0001
0000
0020
0030
0020
0030
0200
0300
0200
0300
2000
3000
,
2000
3000
0020
0000
0230
0300
1000
0000
0000
0000
0000
0000
0100
0000
0000
0000
,
0010
0100
0000
0001
0000
0000
0100
0000
,
0001
0100
0020
0030
0010
0000
0010
1000
,
0000
0100
0000
0020
0000
0130
0001
1000
,
0010
0100
0010
0001
0100
0000
0010
0000
,
1000
0010
0000
0020
0030
0000
0200
0300
,
0020
0030
0002
0003
0010
0000
0100
0001
,
0000
0100
0000
0020
0030
0100
0001
0100
,
1000
0010
0100
0001
0000
0000
0001
0000
,
0010
1000
0000
0100
0000
0000
0002
0003
,
0020
0030
0200
0300
0010
0000
0100
0010
,
0000
0001
0000
0200
0000
0000
0320
0030
,
0200
0300
0002
0003
0020
0030
0100
1000
,
0000
0100
0000
0020
0000
0030
0000
0000
,
0010
0000
1000
0000
0001
0000
0100
0001
,
0000
0010
0000
0200
0000
0010
0310
1000
,
0010
0100
0010
0001
2002
3003
0000
0001
,
0000
0000
1000
0000
0001
0000
0000
0010
,
0000
0000
0100
0000
0010
0000
0000
0010
,
0000
0000
0001
0000
1000
0000
0000
0010
,
0000
0000
0010
0100
0001
0000
0000
0010
,
0000
0000
1000
0000
0010
0000
0000
0100
,
0000
0000
1000
0000
0010
0000
0000
0100
,
0000
0001
1000
0100
,
0010
0010
0001
0100
,
0001
0001
0100
0000
0100
0000
1000
0000
,
1000
1000
0010
0000
0010
0000
0100
0000
,
0001
0100
0010
0000
0001
0000
1000
0000
,
0010
1000
0010
0000
0002
0000
0103
0000
,
0010
0010
1000
0000
0200
0000
0310
0000
,
0001
0001
1000
0000
0010
0000
1001
0000
,
0101
0000
0011
0000
0110
0110
0000
0020
,
0000
0030
0000
0000
2000
3200
0310
1000
,
0001
0010
0100
0010
0100
0010
0001
0100
,
0010
1000
0010
0001
0010
0100
0001
0010
,
0100
1000
0100
0010
0100
0010
1000
0100
,
1000
0100
0010
0100
0001
0010
0001
0100
,
0010
1000
0100
0100
0010
0001
0100
1000
,
0010
1000
0001
0100
0001
0010
0001
0100
,
0010
0000
1000
0000
0100
0000
0010
0000
0100
0000
0010
0000
0100
0000
0001
0010
,
0100
0000
1000
0010
1000
0010
1000
0000
0100
0000
0010
0000
0001
0000
0100
0000
,
0001
1000
0010
1000
0100
0100
0010
0010
,
1000
0100
1000
0010
0100
0001
0010
0001
,
0100
0001
0010
0100
0001
0100
0010
1000
,
0100
1000
0010
0100
0001
0010
0001
0010
,
0100
0010
0001
0100
0010
1000
0100
1000
,
0010
0100
0001
0010
0001
0100
0010
1000
,
0001
0100
0010
1000
0010
0100
0100
1000
,
0010
0100
0001
0100
1000
0010
1000
0100
,
0001
0100
0001
0100
0001
1000
0010
1000
,
0001
0100
0001
0100
0001
0000
0010
0000
,
1000
0000
0001
0100
0000
0001
0100
0001
,
0100
0000
2002
3003
0100
0010
0001
1000
,
0100
0010
0100
0001
0010
0001
0010
0100
,
0001
0100
0001
0010
1000
0100
0100
0001
,
0100
0000
0020
0030
0020
0030
0200
0300
0200
0300
2000
3000
2000
3000
0020
0000
,
2030
3020
0130
1000
0010
0100
0001
0100
,
0010
0100
0001
1000
0010
0100
0001
0100
,
0020
0230
0302
0203
0310
0100
0001
0010
,
0200
0000
0320
0000
0031
0000
0200
0000
0000
0000
0320
0030
0200
0300
2000
0000
,
3020
0230
0320
1030
0010
0001
1000
0100
,
0010
0100
0001
0010
0001
0010
0100
0001
,
0100
0001
0010
1000
0100
0100
0002
0103
,
0020
0030
0020
0030
0200
0300
0200
0300
2000
3000
2000
3000
0020
0000
2030
0000
,
3020
0130
1000
0010
0100
0001
0100
0010
,
0100
0001
1000
0010
0100
0001
0100
0020
,
0230
0302
0203
0310
0100
0001
0010
0200
,
0320
2030
3200
0320
0000
0130
0100
1001
,
0100
1001
0100
1001
0100
0100
0000
0000
,
0000
0000
0000
0000
0001
0000
0001
0000
0000
0000
0001
1000
0001
0000
0000
0000
,
0000
2002
0000
0000
0000
3003
2002
0000
0000
0000
0000
0000
0000
0000
0000
0000
,
0000
0000
0000
0000
,
0000
0000
0000
0000
,
0000
0000
0000
0000
,
0000
0000
0000
0000
,
0000
3003
0000
0000
;

//---------------dance-single - Hard----------------
#NOTES:
     dance-single:
     Hard:
     Challenge:
     12:
     0.892,1.000,0.321,0.996,0.110:
0000
0000
0000
0000
,
0000
0000
0000
0000
,
0000
0000
0000
0000
1000
1000
0000
0000
,
0000
0000
0000
0000
,
1000
0001
0010
0100
,
0010
0100
0000
2200
0000
3300
1000
0000
,
0010
1000
0220
1330
,
0100
0010
0000
0011
0010
0012
0020
0033
,
0001
0000
0010
0000
0220
0330
0010
0000
,
0100
1000
0000
2200
0000
3300
1000
0000
,
0100
0000
0010
0000
0022
0033
0010
0100
,
0000
1000
0000
0110
0000
0000
0000
0000
,
1000
0001
1000
0010
1000
0001
1000
0100
2000
0000
3020
0000
2030
0000
3020
0000
,
0130
0010
0001
1000
0100
0010
0100
0001
,
0010
0001
0010
0100
0001
0100
0001
0010
,
1000
0000
0100
0000
0100
0000
0001
0000
0100
0000
0020
0030
0020
0030
0200
0300
,
0200
0300
2000
3000
2000
3000
0020
0000
2030
0000
3020
0000
0130
0000
1000
0000
,
0010
0100
0001
0100
0010
0100
0001
1000
,
0010
0100
0001
0100
0020
0230
0302
0203
,
0310
0000
0100
0000
0001
0000
0020
0030
0020
0030
0200
0300
0200
0300
2000
3000
,
2000
3000
0020
0000
0230
0300
1000
0000
0000
0000
0000
0000
0100
0000
0000
0000
,
0010
0100
0000
0001
0000
0000
0100
0000
,
0001
0100
0020
0030
0010
0000
0010
1000
,
0000
0100
0000
0020
0000
0130
0001
1000
,
0010
0100
0010
0001
0100
0000
0010
0000
,
1000
0010
0000
0020
0030
0000
0200
0300
,
0020
0030
0002
0003
0010
0000
0100
0001
,
0000
0100
0000
0020
0030
0100
0001
0100
,
1000
0010
0100
0001
0120
0000
1030
0000
,
0010
1000
0000
0200
0000
0300
0002
0003
,
0020
0030
0200
0300
0010
0000
0100
0010
,
0000
0001
0000
0200
0000
0000
0320
0030
,
0200
0300
0002
0003
0020
0030
0100
1000
,
0000
0100
0000
0020
0000
0030
0000
0000
,
0010
0000
1000
0000
0001
0000
0100
0001
,
0000
0010
0000
0200
0000
0010
1310
0010
,
1010
0010
0110
0001
2002
3003
0000
0001
,
0000
0000
1000
0000
0101
0000
0000
0010
,
0000
0000
0100
0000
0110
0000
0000
0010
,
0000
0000
0001
0000
1100
0000
0000
0010
,
0000
0000
0010
0100
0220
0000
0330
0010
,
0000
0000
1000
0000
0110
0000
0000
0100
,
0000
0000
1000
0000
0011
0000
0000
0100
,
0000
0000
0001
0000
1000
1000
0100
0100
,
0010
0000
0010
0000
0001
0100
0010
0100
0001
0000
0001
0000
0100
0000
0100
0000
,
0001
0001
0100
0010
0100
0010
1000
0100
,
1000
1000
0010
0100
0010
0001
0100
0010
,
0001
0100
0010
0100
0001
0010
1000
0100
,
0010
1000
0010
0100
0012
0100
1003
0010
,
1000
0100
0010
0001
0200
0010
0301
0100
,
0001
0010
1000
0100
0010
0010
1001
0010
,
0101
0000
0010
0000
0011
0000
0010
0000
0110
0000
0110
0000
0000
0000
0020
0030
,
0200
0320
0230
2300
3200
0320
0230
0320
2030
0000
3200
0000
0310
0000
1000
0000
,
0001
0010
0100
0010
0100
0010
0001
0100
,
0010
1000
0010
0001
0010
0100
0001
0010
,
0100
1000
0100
0010
0100
0010
1000
0100
,
1000
0100
0010
0100
0001
0010
0001
0100
,
0010
1000
0100
0100
0010
0001
0100
1000
,
0010
1000
0001
0100
0001
0010
0001
0100
,
0010
0000
1000
0000
0100
0000
0010
0000
0100
0000
0010
0000
0100
0000
0001
0010
,
0100
0000
0100
0010
1000
0010
0100
0000
0100
0000
0010
0000
0001
0000
0100
0000
,
0001
1000
0010
1000
0100
0100
0010
0010
,
1000
0100
1000
0010
0100
0001
0010
0001
,
0100
0001
0010
0100
0001
0100
0010
1000
,
0100
1000
0010
0100
0001
0010
0001
0010
,
0100
0000
0010
0000
0001
0000
0100
1000
0010
0000
1000
0001
0100
0000
1000
0100
,
0010
0000
0100
0010
0001
0000
0010
0100
0001
0000
0100
0000
0110
0000
1000
0000
,
1001
0100
0010
1000
0110
0100
0100
1000
,
0010
0100
0001
0100
1100
0010
1000
0100
,
0101
0100
0001
0110
0001
1000
0010
1000
,
0001
0100
0001
0010
0011
0000
0010
0000
,
1000
0000
0001
0100
0000
0001
0100
0001
,
0100
0000
2002
3003
0100
0010
0001
1000
,
0100
0010
0100
0001
0010
0001
0010
0100
,
0001
0100
0001
0010
1000
0100
0100
0001
,
0100
0000
0020
0030
0020
0030
0200
0300
0200
0300
2000
3000
2000
3000
0020
0000
,
2030
3020
0130
1000
0010
0100
0001
0100
,
0010
0100
0001
1000
0010
0100
0001
0100
,
0020
0230
0302
0203
0310
0100
0001
0010
,
0100
0000
0010
0000
0001
0000
0200
0000
0000
0000
0320
0030
0200
0300
2000
0000
,
3020
0000
0230
0000
0320
0000
1030
0000
0010
0000
0001
0100
1000
0000
0100
0001
,
0010
0000
0100
0010
0001
0000
0010
0100
0001
0000
0100
0010
0100
0000
0100
1000
,
0100
0001
0010
1000
0100
0100
0002
0100
,
0023
0030
0020
0030
0200
0300
0200
0300
2000
3000
2000
3000
0020
0000
2030
0000
,
3020
0130
1000
0010
0100
0001
0100
0010
,
0100
0001
1000
0010
0100
0001
0100
0020
,
0230
0302
0203
0310
0100
0001
0010
0200
,
0320
2030
3200
0320
0000
0130
0100
1001
,
0100
1001
0100
1001
0100
0100
0000
0000
,
0000
0000
0000
0000
0001
0000
0001
0000
0000
0000
1000
0001
1000
0000
0000
0000
,
0000
2002
0000
0000
3003
0000
2002
0000
0000
0000
0000
0000
0000
0000
0000
0000
,
0000
0000
0000
0000
,
0000
0000
0000
0000
,
0000
0000
0000
0000
,
0000
0000
0000
0000
,
0000
0000
0000
3003
;

//---------------dance-single - Hard----------------
#NOTES:
     dance-single:
     Hard:
     Medium:
     7:
     0.577,0.768,0.025,0.439,0.008:
0000
0000
0000
0000
,
0000
0000
0000
0000
,
0000
0000
0000
0000
1000
1000
0000
0000
,
0000
0000
0000
0000
,
1000
0001
0010
0100
,
0010
0100
0000
0100
0000
0000
0000
0000
,
0010
1000
0010
1000
,
0100
0010
0000
0020
0000
0030
0000
0000
,
0001
0010
0100
0010
,
0100
1000
0000
2000
0000
3000
0000
0000
,
0100
0000
0010
0000
0001
0000
0010
0100
,
0000
1000
0000
0100
0000
0000
0000
0000
,
2000
0000
0000
3000
0001
1000
0010
0100
,
0000
0010
0000
0100
0000
0001
1000
0000
,
0020
0000
0000
0030
0001
0010
0100
0001
,
0000
0010
0000
0200
0000
0310
0100
1000
,
0010
0100
0010
1000
0100
1000
0010
0001
,
0000
0010
0000
1000
0000
0100
0010
0000
,
0200
0000
0300
0000
0010
1000
0001
0010
,
0000
0100
0000
1000
0000
0010
0100
0001
,
0010
1000
0010
1000
0000
0000
0100
0000
,
0010
0100
0000
0001
0000
0000
0100
0000
,
0001
0100
0020
0030
0010
0000
0010
1000
,
0000
0100
0000
0020
0000
0030
0000
0000
,
0000
0000
0000
0010
,
1000
0010
0000
0020
0030
0000
0200
0300
,
0020
0030
0002
0003
0010
0000
0100
0001
,
0000
0100
0000
0020
0000
0000
0000
0030
,
0000
0000
0000
0100
,
0010
1000
0000
0100
0000
0000
0002
0003
,
0020
0030
0200
0300
0010
0000
0100
0010
,
0000
0001
0000
0200
0000
0000
0300
0000
,
0200
0300
0002
0003
0020
0030
0100
1000
,
0000
0100
0000
0020
0000
0030
0000
0000
,
0010
0000
1000
0000
0001
0000
0100
0001
,
0000
0010
0000
0200
0000
0010
0310
1000
,
0010
0100
0010
0001
0020
0030
0000
0001
,
0000
0000
1000
0000
0001
0000
0000
0010
,
0000
0000
0100
0000
0010
0000
0000
0010
,
0000
0000
0001
0000
1000
0000
0000
0010
,
0000
0000
0010
0100
0001
0000
0000
0010
,
0000
0000
1000
0000
0010
0000
0000
0100
,
0000
0000
1000
0000
0010
0000
0000
0100
,
0000
0001
1000
0100
,
0010
0010
0001
0100
,
0001
0001
0100
0000
0100
0000
1000
0000
,
1000
1000
0010
0000
0010
0000
0010
0000
,
0001
0001
0010
0000
0100
0000
1000
0000
,
0100
0100
0010
0000
0002
0000
0103
0000
,
0010
0010
1000
0000
0200
0000
0310
0000
,
0001
0001
1000
0000
0010
0000
1000
0000
,
0100
0000
0010
0000
0010
0010
0000
0020
,
0000
0030
0000
0000
2000
3200
0310
1000
,
0001
0010
0100
0010
0100
0000
0001
0000
,
0010
0000
0010
0001
0010
0100
0001
0010
,
0100
1000
0100
0010
0100
0000
1000
0000
,
1000
0000
0010
0100
0001
0010
0001
0100
,
0010
1000
0100
0100
0010
0000
0100
0000
,
0010
0000
0001
0100
0001
0010
0001
0100
,
0010
1000
0100
0010
0100
0000
0010
0000
,
0100
0000
1000
0010
0100
0010
0001
0100
,
0001
1000
0010
1000
0100
0000
0010
0000
,
1000
0000
1000
0010
0100
0001
0010
0001
,
0100
0001
0010
0100
0001
0000
0010
0000
,
0100
0000
0010
0100
0001
0010
0001
0010
,
0100
0010
0001
0100
0010
0000
0100
0000
,
0010
0000
0001
0010
0001
0100
0010
1000
,
0001
0100
0010
2000
0000
3000
0100
1000
,
0010
0100
0001
0100
1000
0010
1000
0100
,
0001
0100
0001
0200
0000
0300
0010
1000
,
0001
0100
0001
0100
0001
0000
0010
0000
,
1000
0000
0001
0100
0000
0001
0100
0001
,
0100
0000
2002
3003
0001
0010
1000
0001
,
0000
0010
0000
0001
0000
0010
1000
0000
,
0200
0000
0300
0000
0001
1000
0010
0100
,
0000
0001
0000
0010
0000
0001
0010
0100
,
0010
1000
0010
1000
0100
0001
0010
0100
,
0000
0010
0000
0001
0000
1000
0100
0000
,
0020
0000
0030
0000
0010
0001
0010
0100
,
0010
0001
0100
0020
0000
0000
0030
0000
,
0020
0230
0320
1030
0010
0001
1000
0100
,
0000
0001
0000
0010
0000
0001
0100
0000
,
0020
0000
0030
0000
0100
0010
0001
0020
,
0030
0000
0200
0000
0000
0300
2000
0000
3000
0000
0100
0000
0010
0000
1000
0000
,
0010
0100
1000
0010
0100
0001
0100
0010
,
0000
0001
0000
0010
0000
1000
0100
0000
,
2000
0000
3000
0010
0100
0001
0010
0200
,
0320
2030
3200
0320
0000
0130
0100
1000
,
0100
1000
0100
1000
0100
0100
0000
0000
,
0000
0000
0000
0000
0001
0000
0001
0000
0000
0000
0001
1000
0001
0000
0000
0000
,
0000
2002
0000
0000
3003
0000
2002
0000
0000
0000
0000
0000
0000
0000
0000
0000
,
0000
0000
0000
0000
,
0000
0000
0000
0000
,
0000
0000
0000
0000
,
0000
0000
0000
0000
,
0000
0000
0000
3003
;

//---------------dance-single - Medium----------------
#NOTES:
     dance-single:
     Medium:
     Easy:
     5:
     0.389,0.525,0.000,0.346,0.004:
0000
0000
0000
0000
,
0000
0000
0000
0000
,
0000
0000
1000
0000
,
0000
0000
0000
0000
,
0000
0000
0020
0030
,
0000
0000
0000
0200
0000
0300
0000
0000
,
0000
0000
0020
0030
,
0000
0000
0000
0200
0000
0300
0000
0000
,
0000
0000
0200
0300
,
0000
0000
0000
2000
0000
3000
0000
0000
,
0000
0000
0002
0003
,
0000
0000
0000
0010
0000
0000
0000
0000
,
2000
0000
0000
3000
1000
0010
0000
0100
,
0000
0001
0000
0100
0000
0010
0000
1000
,
0000
0001
0000
0100
0010
0001
0000
0010
,
0000
0100
0000
0010
0000
0100
0000
1000
,
0000
0010
0000
0100
0010
1000
0000
0100
,
0000
0010
0000
0100
0000
0010
0000
0100
,
0000
0010
0000
1000
0100
0010
0000
0100
,
0000
0010
0000
0100
0000
0010
0000
0100
,
0000
1000
0100
0000
1000
0000
0010
0000
,
0001
0010
1000
0010
,
0100
0001
0010
1000
,
0010
0000
2000
0000
0000
3000
0000
0000
,
0010
0001
0010
0001
,
0010
1000
0010
1000
,
0001
0010
0100
0010
,
0001
0000
0010
0000
0000
0010
0000
0000
,
0001
0010
1000
0010
,
0001
0010
0100
1000
,
1000
0100
0001
0010
,
0100
0020
0030
0000
,
0010
0001
0010
0000
,
1000
0010
1000
0000
,
0001
0100
0001
0000
,
0010
0100
0020
0000
,
0000
0030
0000
0000
0020
0030
0000
0000
,
0000
0000
1000
0000
,
0000
0000
0001
0000
,
0000
0000
1000
0000
,
0000
0000
0001
0000
,
0000
0000
1000
0000
,
0000
0000
0010
0000
,
0000
0000
1000
0100
,
0010
0010
0001
0100
,
0001
0100
0100
1000
,
1000
0010
0100
0010
,
0001
0010
0100
1000
,
0100
0010
0002
0103
,
0010
1000
0200
0310
,
0001
1000
0010
1000
,
0100
0000
0010
0000
0010
0000
0000
0020
,
0000
0030
0000
0000
2000
3100
0000
0010
,
0000
0001
0000
0010
0000
0100
0000
0010
,
0000
1000
0000
0001
0000
0010
0000
0100
,
0000
0010
0000
1000
0000
0010
0000
0100
,
0000
0001
0000
0010
0000
0100
0000
0010
,
0000
1000
0000
0010
0000
0001
0000
0010
,
0000
0100
0000
0010
0000
1000
0000
0001
,
0000
0010
0000
0100
0000
0010
0000
1000
,
0000
0010
0001
0010
,
1000
0100
1000
0100
,
0010
1000
0010
1000
,
0010
0100
0010
0100
,
0001
0100
0001
0100
,
1000
0100
0010
0100
,
1000
0010
1000
0010
,
0001
0000
0000
0020
0000
0030
0000
0000
,
0010
0100
1000
1000
,
0001
0001
0010
0010
,
0002
0003
2000
3000
0001
0000
0000
0000
,
1000
0000
0000
0001
0000
1000
0000
0001
,
0000
0000
0002
0003
0100
0000
0001
0000
,
0100
0100
0010
0010
,
0001
0001
1000
0100
,
0100
0000
0000
0000
0020
0030
0000
0000
0200
0300
0000
0000
2000
3000
0000
0000
,
2000
3000
0100
0000
0010
0000
0001
0000
,
0010
0001
0010
0001
,
0020
0030
0002
0003
0010
0000
0001
0000
,
1000
0020
0000
0030
,
0020
0030
0200
0300
0010
0000
1000
0000
,
0010
0001
0001
0100
,
0100
0010
0100
0002
,
0023
0030
0000
0000
0200
0300
0000
0000
2000
3000
0000
0000
0020
0000
0030
0000
,
0020
0030
1000
0000
0100
0000
0100
0000
,
0100
1000
0100
0100
,
0200
0300
2000
3000
0100
0000
0010
0000
,
0020
0030
0200
0300
0000
0000
0100
0000
,
0010
1000
0010
0000
,
0000
0000
0001
0000
0000
1000
0000
0000
,
0000
2000
0000
0000
3000
0000
2000
0000
0000
0000
0000
0000
0000
0000
0000
0000
,
0000
0000
0000
0000
,
0000
0000
0000
0000
,
0000
0000
0000
0000
,
0000
0000
0000
0000
,
0000
0000
0000
3000
;

//---------------dance-single - Blank----------------
#NOTES:
     dance-single:
     Blank:
     Beginner:
     3:
     0.212,0.241,0.008,0.110,0.000:
0000
0000
0000
0000
,
0000
0000
0000
0000
,
0000
0000
1000
0000
,
0000
0000
0000
0000
,
0000
0000
0001
0000
,
0000
1000
0000
0000
,
0000
0000
0001
0000
,
0000
1000
0000
0000
,
0000
0000
0001
0000
,
0000
1000
0000
0000
,
0000
0000
0001
0000
,
0000
1000
0000
0000
,
0000
0000
0001
0000
,
1000
0000
0010
0000
,
0100
0000
0010
0000
,
1000
0000
0001
0000
,
0100
0000
0010
0000
,
0100
0000
0001
0000
,
1000
0000
0010
0000
,
0100
0000
0010
0000
,
0100
0000
0010
0000
,
0010
0000
0001
0000
,
0001
0000
1000
0000
,
1000
0000
0010
0000
,
0000
0000
0001
0000
,
0001
0000
0010
0000
,
0010
0000
0100
0000
,
0100
0000
0010
0000
,
0010
0000
0002
0003
,
0010
0000
0010
0000
,
0001
0000
0001
0000
,
0010
0000
0010
0000
,
0100
0000
0100
0000
,
1000
0000
1000
0000
,
0010
0000
0010
0000
,
0001
0000
0001
0000
,
0010
0000
0020
0000
,
0030
0000
0200
0000
,
0300
0000
0002
0000
,
0000
0003
2000
0000
,
0000
0000
3020
0000
,
0000
0000
2030
0000
,
0000
3000
0002
0000
,
0000
0003
2000
0000
,
0000
3000
0000
0001
,
0000
1000
0000
0010
,
0000
0100
0000
0010
,
0000
1000
0000
0010
,
0000
0100
0000
0010
,
0000
0001
0000
1000
,
0000
0010
0010
0010
,
0010
0010
0010
0000
,
0000
0000
1000
0000
,
0001
0000
1000
0000
,
0010
0000
0100
0000
,
0010
0000
0100
0000
,
0010
0000
0010
0000
,
0001
0000
0001
0000
,
1000
0000
1000
0000
,
0001
0000
1000
0000
,
0001
0010
0001
0000
,
0001
0000
1000
0000
,
0010
0000
0100
0000
,
0010
0000
1000
0000
,
0010
0000
0100
0001
,
0100
0000
0010
1000
,
0010
0000
0100
0001
,
0100
0000
0010
0010
,
0010
0000
0100
0100
,
0100
0000
0010
0010
,
0010
0000
0001
0000
,
1000
0000
0001
0000
,
0000
1001
0000
1000
,
0000
0001
0000
0100
,
0000
0010
0000
1000
,
0000
0010
0000
1000
,
0000
0001
0000
1000
,
0000
0010
0000
0100
,
0000
0010
0000
0010
,
0000
0200
0000
0000
,
0000
0000
0310
0000
,
1000
0000
0001
0000
,
0100
0000
0010
0000
,
0100
0000
0010
0000
,
0001
0000
0100
0000
,
0010
0000
1000
0000
,
0010
0000
0100
0000
,
0010
0000
0002
0000
,
0000
0003
0010
0000
,
0000
1000
0000
0001
,
0000
0020
0030
0020
0000
0000
0000
0000
,
0000
0000
0000
0000
,
0000
0000
0000
0000
,
0000
0000
0000
0000
,
0000
0000
0000
0000
,
0000
0030
0000
0000
;
