#TITLE:Future Style;
#SUBTITLE:;
#ARTIST:HonoKotoUmi;
#TITLETRANSLIT:;
#SUBTITLETRANSLIT:;
#ARTISTTRANSLIT:;
#GENRE:;
#CREDIT:CHMX;
#BANNER:banner.png;
#BACKGROUND:BGI.png;
#LYRICSPATH:;
#CDTITLE:;
#MUSIC:Future Style.mp3;
#OFFSET:0.000;
#SAMPLESTART:48.820;
#SAMPLELENGTH:12.000;
#SELECTABLE:YES;
#BPMS:0.000=175.000;
#STOPS:0.000=0.410
;
#BGCHANGES:0.000=BGA.avi=1.000=0=0=1=StretchNormal====,
99999=-nosongbg-=1.000=0=0=0 // don't automatically add -songbackground-
;
#KEYSOUNDS:;

//---------------dance-single - Blank----------------
#NOTES:
     dance-single:
     Blank:
     Hard:
     8:
     0.745,0.835,0.599,0.152,0.098:
0000
0000
0000
0000
,
0000
0000
0000
0000
,
2000
0000
3020
0030
0110
0000
1001
0000
,
0220
0330
0010
2000
3000
0100
0020
0030
,
0200
0000
0000
0000
0310
0000
0010
1000
0010
0000
0100
0000
1000
0000
0010
0000
,
0100
0001
1000
0010
0010
0001
1000
0010
,
0100
0001
0010
1000
0110
0000
0110
0001
,
0020
0000
0130
1000
0100
0010
0100
1000
,
0100
1000
0020
0100
0030
0011
0001
0000
,
0000
0110
0100
0000
0010
0000
0100
0000
,
0001
0000
0010
0000
2000
0000
0100
3000
,
0100
0001
0010
0100
0011
0000
0110
0000
,
1010
0000
1100
0000
1000
0100
1000
0010
,
0100
0010
0010
1000
0110
0000
0101
0000
,
0110
0000
1010
0000
0001
0010
0100
1000
,
0100
0010
0100
1000
0100
0010
0100
0010
,
0100
0001
0010
0100
0010
0001
0001
0010
,
0100
0001
0010
0001
0100
0010
0001
1000
,
0110
0000
0101
0000
0110
0000
1000
0100
,
1000
1000
0010
0100
0001
0010
0100
0001
,
0010
0010
0100
0010
1000
0001
0010
0100
,
1000
0100
0010
1000
0100
1000
0010
0100
,
0110
0000
0011
0000
0110
0000
0010
0100
,
0001
0010
0100
0010
0010
1000
0100
1000
,
0100
0000
0100
0000
1000
0000
0010
0100
0010
0000
0010
1000
0010
0000
0010
0100
,
0010
0000
0010
1000
0010
0000
0010
0100
0010
0000
0010
1000
0010
0000
0010
0100
,
0010
0000
0010
1000
0010
0000
0010
0100
0010
0000
0000
0000
0000
0000
0110
0000
,
0000
0000
0000
0000
4000
3000
0000
0000
0001
0000
0000
0000
0000
0000
0110
0000
,
0000
0000
0001
0000
1000
0000
0000
0110
,
0000
0000
0001
0000
1000
0000
0000
0110
,
0000
1000
0010
0100
0010
0000
0000
0110
,
0000
0000
0000
0000
4000
3000
0000
0000
0001
0000
0000
0000
0000
0000
0110
0000
,
0000
0000
1000
0000
0001
0010
0100
0010
,
0001
0100
0001
0100
0010
1000
0001
1000
,
0010
1000
0100
1000
0100
0010
0200
0000
,
0310
0000
0100
0000
0020
0000
0000
0000
0130
0000
0010
0000
0200
0000
0000
0300
,
0110
0010
0101
1010
,
1001
0000
0001
0100
0000
1000
0010
0000
,
0001
0000
0000
0000
1000
0010
1000
0010
1000
0000
0001
0000
0010
0000
0100
0000
,
0010
0001
0010
0100
0100
0001
0010
0100
,
0001
1000
0010
0100
1001
0000
0011
0000
,
1001
0000
0010
1000
0000
0100
0010
0000
,
0001
0000
0000
0000
1000
0001
1000
0001
1000
0000
0010
0000
0100
0000
0001
0000
,
0010
1000
0010
1000
0010
0100
0001
0100
,
0001
0010
0001
0010
0001
0100
0001
0010
,
0001
0100
0010
1000
0001
0010
1000
0010
,
1000
0010
0100
0100
0000
0001
1000
0000
,
0000
1000
0001
0000
0001
0000
0110
0000
,
1010
0110
1001
0110
,
1001
0000
0010
0100
0000
0010
0001
0000
,
0110
0000
0000
0000
0100
0001
1000
0001
0100
0000
1000
0000
0010
0000
0100
0000
,
0001
0100
0010
0001
0100
0010
0100
0001
,
0100
0010
0100
0010
1001
0000
0110
0000
,
1001
0000
0010
0100
0000
1000
0001
0000
,
0010
0000
0000
0000
0100
0001
0100
0001
0100
0000
0001
0000
0010
0000
0001
0000
,
0100
0001
0010
0001
0100
0010
0100
0010
,
1000
0100
1000
0010
0100
0010
1000
0001
,
0100
0001
0100
0001
0010
0001
0010
0001
,
0100
0010
0100
0001
1000
0010
1000
0100
,
1000
0100
0100
1000
0010
0001
0100
0010
,
1000
0001
0100
0010
0101
0000
0110
0000
,
1010
0110
0101
0110
,
1010
0000
0110
0000
0101
0010
0100
0000
,
0100
0010
0101
0000
0010
0100
1010
0100
,
0010
0010
0100
0001
0020
0000
0000
0000
,
0000
0000
0000
0000
,
0000
0000
0000
0030
;

//---------------dance-single - Hard----------------
#NOTES:
     dance-single:
     Hard:
     Challenge:
     11:
     0.839,1.000,0.762,0.185,0.147:
0000
0000
0000
0000
,
0000
0000
0000
0000
,
2000
0000
3020
0030
0110
0000
1001
0000
,
0220
0330
0010
2000
3000
0100
0020
0030
,
0200
0000
0000
0000
0310
1000
0010
0100
0010
0000
0001
0000
1000
0000
0010
0000
,
0100
0001
1000
0010
0010
0001
1000
0010
,
0100
0001
0010
1000
0110
0000
0110
0001
,
0010
0000
0100
0000
1100
1000
0010
0100
,
0010
0001
0020
0100
0030
0101
0120
0030
,
0000
1010
1200
0300
0010
1000
0100
0001
,
0001
0010
0010
1000
2000
0000
0010
3000
,
0100
0001
0010
0100
0011
0010
0110
0100
,
0110
0010
1010
0100
1000
0100
1000
0010
,
0100
0010
0100
0010
0110
0100
0101
0001
,
0101
0100
0110
0100
0001
0010
0100
1000
,
0100
0010
0100
1000
0100
0010
0100
0010
,
0100
0001
0010
0100
0010
0001
0001
0010
,
0100
0001
0010
0001
0100
0010
0001
0010
,
0110
0100
0110
0010
1010
1000
0010
0100
,
1000
1000
0010
0100
0001
0010
0100
0001
,
0010
0010
0100
0010
1000
0001
0010
0100
,
1000
0100
0010
1000
0100
1000
0010
0100
,
0110
0010
0011
0010
1010
1000
1010
0100
,
0001
0010
0100
0010
0010
1000
0100
1000
,
0100
0000
0100
0000
1000
0000
0010
0100
0010
0001
0010
0100
1000
0100
0010
0100
,
0010
0100
0010
0100
0010
0001
0010
0100
1000
0100
0010
1000
0010
0100
0010
0100
,
0010
0100
0010
0100
1000
0100
0010
0100
0001
0000
0000
0000
0000
0000
0110
0000
,
0000
0000
0100
0000
4000
3000
0100
0000
0001
0000
0000
0000
0000
0000
0110
0000
,
0000
0010
0001
0100
1000
0000
0000
0110
,
0000
0010
0001
0100
1000
0000
0000
0110
,
0000
1000
0110
0010
0110
0000
0000
0110
,
0000
0000
0100
0000
4000
3000
0010
0000
0001
0000
0000
0000
0000
0000
0110
0000
,
0000
0100
1000
0100
0001
0010
0100
0010
,
0001
0100
0001
0100
0010
1000
0001
1000
,
0010
0000
1000
0000
0100
0000
1000
0000
0110
0000
0010
0000
0210
0000
0000
0300
,
0110
0000
0100
0000
0120
0000
0000
0030
0110
0000
0010
0000
0210
0000
0000
0300
,
0110
0010
0101
1010
,
1001
0000
0001
0100
0000
1000
0010
0000
,
0001
0000
0000
0000
0010
1000
0010
0100
0010
0000
0001
0000
0010
0000
0100
0000
,
0010
0001
0010
0100
0100
0001
0010
0100
,
0001
1000
0010
0100
1001
0000
0011
0000
,
1001
0000
0010
1000
0000
0010
0001
0000
,
0100
0000
0000
0000
1000
0100
0010
0100
1000
0000
0010
0000
0100
0000
0001
0000
,
0010
1000
0010
1000
0010
0100
0001
0100
,
0001
0010
0001
0010
0001
0100
0001
0010
,
0001
0000
0000
0100
0000
0000
0010
0000
0000
1000
0000
0000
0200
0000
0000
0000
0300
0000
1000
0000
0000
0010
0000
0000
,
1000
0010
0100
0100
0000
1001
1000
0000
,
0000
1001
0001
0000
1001
0001
1001
0000
,
1010
0110
1001
0110
,
1001
0000
0010
0100
0000
0010
0001
0000
,
0110
0000
0000
0000
0100
0001
1000
0010
0100
0000
1000
0000
0010
0000
0100
0000
,
0001
0100
0010
0001
0100
0010
0100
0001
,
0100
0010
0100
0010
1001
0000
0110
0000
,
1001
0000
0010
0100
0000
1000
0001
0000
,
0010
0000
0000
0000
0100
1000
0100
0001
0100
0000
0001
0000
0010
0000
0001
0000
,
0100
0001
0010
0001
0100
0010
0100
0010
,
1000
0100
1000
0010
0100
0010
1000
0001
,
0100
0001
0100
0001
0020
0030
0010
0001
,
0100
0010
0100
0001
1000
0010
1000
0100
,
1000
0100
0100
1000
0010
0001
0100
0010
,
1000
0001
0100
0010
0101
0100
0110
0010
,
1010
1000
1010
0010
0110
0100
0101
0001
,
1001
1000
1010
0010
0110
0010
0100
0000
,
0100
0010
0101
0000
0010
0100
1010
0100
,
0010
0010
0100
0001
0020
0000
0000
0000
,
0000
0000
0000
0000
,
0000
0000
0000
0030
;

//---------------dance-single - Hard----------------
#NOTES:
     dance-single:
     Hard:
     Medium:
     7:
     0.567,0.617,0.218,0.261,0.044:
0000
0000
0000
0000
,
0000
0000
0000
0000
,
2000
0000
3020
0030
0110
0000
0100
0000
,
0220
0330
0010
2000
3000
0100
0020
0030
,
0200
0000
0310
0000
0010
0100
1000
0010
,
0100
0001
1000
0010
0010
0001
1000
0010
,
0100
0001
0010
1000
0100
0000
0010
0001
,
0020
0000
0230
0300
2000
0000
0000
0000
,
3100
0000
0020
0000
0030
0001
0001
0000
,
0000
0100
0100
0000
0010
0000
0100
0000
,
0001
0000
0010
0000
2000
0000
0100
3000
,
0001
0010
0100
0000
0010
0000
1000
0000
,
0100
0001
0100
0001
,
0001
0100
0010
0000
0100
0000
0100
0000
,
0010
0000
0001
0000
1000
0000
0010
1000
,
0001
0010
1000
0010
0100
0000
0001
0000
,
0010
1000
0002
0000
,
0003
0000
0010
0100
0000
0000
0010
0000
,
0001
0010
1000
0100
,
0001
0000
0010
0200
0000
0300
0001
0000
,
0010
0000
1000
0020
0000
0030
0001
0200
,
0000
0300
1000
0200
0000
0000
0300
0000
,
0010
0000
0100
0000
0001
0000
0010
1000
,
0000
0000
0100
0010
0001
0000
0010
0000
,
0100
0000
0000
0000
0020
0000
0000
0030
0010
0100
0010
0100
0040
0400
0000
0000
,
0000
0000
0030
0000
0310
0100
0010
0100
0040
0400
0000
0000
0000
0000
0000
0000
,
0000
0000
0030
0300
0010
0100
0010
0100
0010
0000
0000
0000
0000
0000
0110
0000
,
0000
0000
0000
0000
4000
3000
0000
0000
0001
0000
0000
0000
0000
0000
0110
0000
,
0000
0000
0001
0000
1000
0000
0000
0110
,
0000
0000
0001
0000
1000
0000
0000
0110
,
0000
0000
1000
0000
0010
0000
0000
0110
,
0000
0000
0000
0000
4000
3000
0000
0000
0001
0000
0000
0000
0000
0000
0110
0000
,
0000
0000
1000
0000
0001
0010
0100
0010
,
0001
0100
0001
0100
0010
1000
0001
1000
,
0010
1000
0100
1000
0100
0010
0200
0000
,
0310
0000
0100
0000
0020
0000
0000
0000
0130
0000
0010
0000
0200
0000
0000
0300
,
0100
0010
1001
1001
,
1001
0000
0001
0100
0000
1000
0010
0000
,
0001
0000
0010
0000
0100
0001
0010
0100
,
0010
0001
0010
0100
0100
0001
0010
0100
,
0001
0010
1001
1001
,
1001
0000
0010
1000
0000
0100
0010
0000
,
0001
0000
0100
0000
1000
0010
0100
0001
,
0010
1000
0010
1000
0010
0100
0001
0100
,
0001
0010
0001
0010
0001
0100
0001
0010
,
0001
0100
0010
1000
0001
0010
1000
0010
,
1000
0010
0100
0100
0000
0001
1000
0000
,
0000
1000
0001
0000
0001
0000
0100
0000
,
1000
0010
1001
1001
,
1001
0000
0010
0100
0000
0010
0001
0000
,
0010
0000
0100
0000
0100
1000
0010
0100
,
0001
0100
0010
0001
0100
0010
0100
0001
,
0100
0010
0100
0000
1001
0000
1001
0000
,
1001
0000
0010
0100
0000
1000
0001
0000
,
0010
0000
0001
0000
0100
0001
0010
0001
,
0100
0001
0010
0001
0100
0010
0100
0010
,
1000
0100
1000
0000
0100
0000
0001
0100
,
0010
0001
0010
0000
,
1000
0000
0100
0000
0001
0000
0010
0200
,
0000
0300
1000
0020
0000
0000
0030
0000
,
0001
0010
1000
0010
,
0100
1000
0100
0010
,
0001
0000
0010
0000
0100
0010
0100
0000
,
0100
0010
0100
0000
0010
0100
0010
0100
,
0010
0010
0100
0001
0020
0000
0000
0000
,
0000
0000
0000
0000
,
0000
0000
0000
0030
;

//---------------dance-single - Medium----------------
#NOTES:
     dance-single:
     Medium:
     Easy:
     6:
     0.442,0.981,0.044,0.326,0.000:
0000
0000
0000
0000
,
0000
0000
0000
0000
,
2000
3000
0010
0100
,
0020
0030
0000
0010
0000
0000
0000
0000
,
0200
0310
0010
1000
,
0100
1000
0010
1000
,
0100
0000
0010
0000
0100
0000
0010
0001
,
0020
0000
0230
0300
2000
0000
0000
0000
,
3100
0000
0020
0000
0030
0001
0000
0000
,
0000
0100
0000
0000
0010
0000
0100
0000
,
0001
0010
2000
3100
,
0100
0010
0010
0100
,
1000
0100
1000
1000
,
0100
0010
0010
0001
,
0010
1000
0001
0100
,
0010
0100
1000
0010
,
0100
0010
1000
0001
,
0100
0010
0100
0001
,
0010
0001
0100
1000
,
1000
0010
0001
0100
,
0010
0100
1000
0010
,
1000
0010
0100
0010
,
0100
0000
0001
0000
0100
0000
0010
0100
,
0001
0000
0100
0000
0010
1000
0100
0000
,
0100
0100
1000
0000
0020
0230
0320
0230
,
0320
0230
0320
0230
0320
0230
0320
0230
,
0320
0230
0320
0230
0320
0030
0000
0000
,
0000
0000
0001
0000
0001
0000
0000
0001
,
0000
0000
1000
0000
1000
0000
0000
1000
,
0000
0000
0001
0000
0001
0000
0000
0001
,
0000
0000
1000
0000
1000
0000
0000
1000
,
0000
0000
0001
0000
0001
0000
0000
0001
,
0000
1000
0001
0100
,
0001
0001
0010
0001
,
0010
0100
0100
0200
,
0310
0000
0000
0000
0020
0000
0000
0000
0130
0000
0000
0000
0200
0000
0000
0300
,
0100
0010
0001
1000
,
0001
0000
0001
0000
0000
1000
0000
0000
,
0001
0010
0100
0010
,
0010
0010
0100
0010
,
0001
0010
0001
1000
,
0001
0010
0000
0010
,
0001
0100
1000
0100
,
0010
0100
0010
0001
,
0100
0001
0010
0001
,
0001
0100
0010
0000
0001
0010
0001
0000
,
0100
0010
0100
0000
0001
0000
1000
0000
,
0000
1000
0000
0000
0001
0000
0100
0000
,
1000
0010
0001
1000
,
0001
0000
0010
0000
0000
0010
0000
0000
,
0010
0100
0100
0010
,
0001
0010
0100
0100
,
0001
0100
0001
1000
,
0001
0000
0010
0000
0000
1000
0000
0000
,
0010
0000
0001
0000
0100
0010
0100
0000
,
0100
0010
0100
0000
0100
0010
0100
0000
,
1000
0100
1000
0000
0100
0000
1000
0000
,
0100
0100
0010
0010
,
0100
0100
1000
0010
,
1000
0100
0010
0100
,
1000
0100
0001
0011
,
0001
0011
0001
0011
,
0001
0000
0011
0000
0000
0100
0000
0000
,
0000
0010
0000
0000
0020
0000
0130
0000
,
0010
0100
0020
0000
,
0000
0000
0000
0000
,
0000
0000
0000
0030
;

//---------------dance-single - Blank----------------
#NOTES:
     dance-single:
     Blank:
     Beginner:
     4:
     0.236,0.254,0.000,0.033,0.000:
0000
0000
0000
0000
,
0000
0000
0000
0000
,
2000
0000
3010
0000
,
0000
0000
0000
0002
0000
0000
0000
0000
,
0103
0000
0010
1000
,
0000
0001
0000
0100
,
0000
0010
0001
0010
,
0000
0100
0000
1000
,
0000
0010
0000
0001
,
0000
1000
0000
0001
,
0000
0100
0000
0010
,
0000
1000
0000
0001
,
0010
0001
0000
1000
,
0000
0010
0000
0100
,
0100
0100
0000
0001
,
0000
0001
0000
1000
,
1000
1000
0000
0001
,
0000
0100
0000
0010
,
0010
0010
0000
0010
,
0000
1000
0000
0010
,
0010
0010
0000
1000
,
0000
0001
0000
0000
,
1000
1000
1000
0010
,
0000
0100
0000
0010
,
0000
0100
1000
0000
,
0000
0010
0001
0000
,
0010
0100
0010
0000
,
0000
0000
1000
0000
,
0000
0000
0001
0000
,
0000
0000
0100
0000
,
0000
0000
1000
0000
,
0000
0000
0100
0000
,
0000
0000
0000
1000
,
0000
0001
0000
0100
,
0000
0010
0000
0001
,
0000
1000
0000
0010
,
0000
0001
1000
0001
,
1000
0000
0000
0000
,
0001
0000
1000
1000
,
0001
0001
1000
1000
,
0001
0001
1000
0001
,
1000
0000
0001
0000
,
1000
0000
0001
0001
,
1000
1000
0010
0010
,
0100
0100
0010
0000
,
0001
0000
1000
0000
,
0010
0000
1000
0000
,
0001
0000
0001
0000
,
1000
0010
0001
1000
,
0001
0000
0000
0000
,
0001
0000
0000
0001
,
0000
1000
0000
0010
,
0000
1000
0010
1000
,
0010
0000
0000
1000
,
0001
0000
0001
0001
,
1000
1000
0010
0010
,
0100
0100
0010
0001
,
0000
0010
0000
1000
,
0000
0010
0000
0001
,
0000
0100
0000
0010
,
0000
0010
0001
0001
,
0001
0001
0001
0001
,
0001
0001
0000
0001
,
0000
1000
0000
0010
,
1000
0010
0200
0000
,
0000
0000
0000
0000
,
0000
0000
0000
0300
;
