#TITLE:Futari Happiness;
#SUBTITLE:;
#ARTIST:Lily White;
#TITLETRANSLIT:;
#SUBTITLETRANSLIT:;
#ARTISTTRANSLIT:;
#GENRE:;
#CREDIT:CHMX;
#BANNER:banner.png;
#BACKGROUND:BGI.png;
#LYRICSPATH:;
#CDTITLE:;
#MUSIC:Futari Happiness.mp3;
#OFFSET:0.000;
#SAMPLESTART:81.380;
#SAMPLELENGTH:12.000;
#SELECTABLE:YES;
#BPMS:0.000=78.000;
#STOPS:;
#BGCHANGES:0.000=BGA.avi=1.000=0=0=0=StretchNoLoop====,
99999=-nosongbg-=1.000=0=0=0 // don't automatically add -songbackground-
;
#KEYSOUNDS:;

//---------------dance-single - Blank----------------
#NOTES:
     dance-single:
     Blank:
     Hard:
     7:
     0.326,0.326,0.058,0.430,0.479:
0000
0000
0000
0000
,
0000
0000
0000
0000
,
1000
0000
0100
0001
0000
0010
1000
0000
0100
0001
0000
0020
,
0000
0000
0030
1000
0000
0100
0001
0010
0100
2000
0000
0000
,
3100
0000
0010
0001
0000
0010
1000
0000
0100
0001
0000
0020
,
0000
1000
1000
0000
0100
0100
0030
0010
0010
0000
0001
0001
,
0001
0000
0010
1000
0000
0100
0001
0000
0010
0100
0000
0020
,
0000
0000
0030
0010
0000
0001
0010
0100
0010
0002
0000
0000
,
0013
0000
1000
0010
0000
0001
0010
0000
0100
0010
0000
0200
,
0000
0000
0000
0000
0000
0010
0310
0000
0001
0100
0001
0010
,
0100
0000
1000
0010
0000
0001
0200
0000
0300
0010
1000
0010
,
0100
0010
0200
0000
0000
0000
0000
0300
0000
0100
0000
0000
,
1000
0000
0001
0100
0000
1000
0001
0000
0000
0010
0100
0001
,
1000
0010
0200
0000
0000
0000
0000
0000
0300
0000
0000
0000
,
1000
0000
0001
0100
0000
1000
0010
0000
0100
0001
0000
0020
,
0000
0000
0030
0000
,
0010
0000
0001
0010
0000
0100
0010
0000
0001
0100
0000
0010
,
2000
0000
3000
0000
,
1000
0100
0010
0100
0000
0100
0020
0000
0030
0000
0000
0001
,
1000
0010
0100
0001
0000
0010
0200
0300
0000
0000
0000
0000
,
0020
0030
0010
0200
0300
0100
0020
0030
0010
1000
0000
0100
,
0002
0000
0000
0000
0000
0003
0000
0000
0000
0000
0000
0000
,
0001
1000
0001
0100
0000
0100
0002
0000
0000
0000
0003
0010
,
0200
0300
2000
0000
3100
0010
2000
0000
0000
0000
0000
0000
,
0000
3000
0000
0000
0001
1000
0001
1000
0020
0030
0010
1000
,
0001
0100
0020
0030
0010
1000
0200
0300
0100
0020
0030
0010
,
2002
0000
3003
0000
0000
0000
0001
1000
0010
0100
0000
0100
,
0002
0000
0003
1000
0010
0100
0001
0010
0100
2000
3000
0100
,
0020
0030
0000
0100
0000
1000
0002
0000
0000
1000
0000
0000
,
0100
0000
0000
0003
0001
1000
0100
0010
0010
0100
0010
0010
,
0001
0010
0010
0100
0000
0000
1000
0010
0100
0001
0000
0010
,
1000
0000
1000
0100
0000
0000
0010
0001
0010
0100
0010
0010
,
2000
3000
1000
0200
0300
0200
0020
0000
0000
0000
0000
0330
,
0000
0000
0010
1000
0000
0001
0200
0000
0000
0000
0300
0000
,
0020
0000
0030
0200
0000
0310
1000
0010
0200
0000
0000
0000
,
0000
0000
0000
0000
0000
0300
0000
0000
0000
0000
0000
0000
,
0000
0000
0000
0000
,
2020
0000
3030
0220
0000
0330
0202
0000
0303
0002
0000
0003
,
2020
0000
3030
0220
0000
0330
2002
0000
0000
0000
0000
0000
,
0000
0000
3003
0000
;

//---------------dance-single - Hard----------------
#NOTES:
     dance-single:
     Hard:
     Challenge:
     9:
     0.433,0.571,0.240,0.488,0.616:
0000
0000
0000
0000
,
0000
0000
0000
0000
,
1000
0000
0100
0001
0000
0010
1000
0000
0100
0001
0000
0020
,
0000
0000
0030
0010
0000
0100
0101
0110
1010
2200
0000
3300
,
0100
0000
0010
0001
0000
0010
1000
0000
0100
0001
0000
0020
,
0000
1000
1000
0000
0100
0100
0030
0010
0010
0000
0001
0001
,
0011
0000
0010
1000
0000
0100
0001
0000
0010
0100
0000
0020
,
0100
0030
0110
0110
0000
0011
0110
1100
0110
0022
0000
0033
,
1001
0000
1000
0010
0000
0001
0010
0000
0100
0010
0000
0200
,
0000
0000
0000
0010
0000
0010
0310
0000
0001
0100
0001
0010
,
0100
0000
1000
0010
0000
0001
0200
0000
0300
0010
1000
0010
,
0100
0010
0200
0000
0000
0000
0010
0300
0000
0100
0000
0000
,
1000
0000
0001
0100
0000
1000
0001
0000
0000
0010
0100
0001
,
1000
0010
0200
0000
0000
0000
0010
0000
0300
0100
0000
0000
,
1000
0000
0001
0100
0000
1000
0010
0000
0100
0001
0000
0020
,
0100
0000
0000
0100
0000
0130
0100
0010
0100
0010
0000
0001
,
0010
0000
0001
0100
0000
0100
0010
0000
0001
0100
0000
0010
,
2000
0000
0000
0100
0000
0000
3100
0010
0100
0010
0000
0000
,
1001
0100
0010
0100
0000
0100
0020
0000
0030
0010
0000
0001
,
1000
0010
0100
0001
0000
0010
0200
0000
0300
0100
0000
0000
,
0020
0030
0010
2000
3000
1000
0020
0030
0010
0200
0300
0100
,
0002
0000
0000
0010
0000
0010
0013
0000
0000
0010
0100
0010
,
0001
1000
0001
0100
0000
0100
0002
0000
0000
0000
0003
0010
,
0200
0300
2000
0000
3100
0010
2000
0000
0000
0000
0000
0000
,
0000
0000
3000
0000
0000
0000
0001
0010
0100
0010
1000
0000
0001
0000
1000
0000
0020
0000
0030
0000
0010
0000
1000
0000
,
0001
0000
0100
0000
0020
0000
0030
0000
0010
0000
1000
0000
1200
0000
0300
0000
0100
0000
0110
0000
0010
0100
0010
0000
,
2002
0000
3003
1001
0010
0100
1010
1000
0010
0100
0000
0100
,
0002
0000
0003
1000
0010
0100
0001
0010
0100
2000
3000
0100
,
0020
0030
0000
0100
0000
1000
0002
0000
0000
1000
0000
0000
,
0100
0000
0003
0001
0010
1000
0101
0010
0010
0101
0010
0010
,
0101
0000
0010
0100
0010
0000
0101
0000
0010
0000
0100
0000
1000
0000
0010
0000
0100
0000
0001
0000
0000
0000
0010
0000
,
1000
0000
0000
0000
1000
0000
0200
0000
0000
0300
0000
0000
0010
0000
0001
0000
0010
0000
0100
0000
0010
0000
0010
0000
,
2000
3000
1000
0200
0300
0200
0020
0000
0000
0000
0000
0330
,
0000
0000
0010
1000
0000
0001
0200
0000
0000
0000
0300
0000
,
0020
0000
0030
0200
0000
0310
1000
0010
0200
0000
0000
0000
,
0000
0000
0000
0000
0000
0300
0100
0001
0010
0100
0001
0010
,
1000
0000
0000
0000
0001
0000
0000
0000
0010
0000
0000
1000
0100
0000
0000
0000
0001
0000
0000
0000
0010
0000
0000
0000
1000
0000
0000
0000
0010
0000
0000
0000
0001
0000
0000
0000
0100
0000
0000
0000
0010
0000
0000
0000
0001
0000
0000
0000
,
2020
0030
0200
3300
2000
3000
0202
0003
0020
0330
0200
0300
2020
0000
0000
0000
3030
0000
0020
0000
0000
0000
0030
0000
,
0220
0000
0330
0202
0000
0303
2002
0000
0000
0000
0000
0000
,
0000
0000
3003
0000
;

//---------------dance-single - Hard----------------
#NOTES:
     dance-single:
     Hard:
     Medium:
     5:
     0.281,0.343,0.033,0.388,0.409:
0000
0000
0000
0000
,
0000
0000
0000
0000
,
1000
0000
0100
0001
0000
0010
1000
0000
0100
0001
0000
0020
,
0000
0000
0000
0000
0000
0000
0000
0000
0030
0000
0000
0000
,
0100
0000
0010
0001
0000
0010
1000
0000
0100
0001
0020
0000
,
0000
0000
0000
0000
0000
0000
0000
0030
0000
0000
0000
0000
,
0001
0000
0010
1000
0000
0100
0001
0000
0010
0100
0000
0020
,
0000
0000
0000
0000
0000
0000
0000
0030
0000
0000
0000
0000
,
0010
0000
1000
0010
0000
0001
0010
0000
0100
0010
0000
0200
,
0000
0000
0300
0000
,
0100
0000
1000
0010
0000
0001
0200
0000
0300
0010
1000
0010
,
0100
0010
0200
0000
0000
0000
0000
0300
0000
0000
0000
0000
,
1000
0000
0001
0100
0000
1000
0001
0000
0000
0010
0100
0001
,
1000
0010
0200
0000
0000
0000
0000
0000
0300
0000
0000
0000
,
1000
0000
0001
0100
0000
1000
0010
0000
0100
0001
0000
0020
,
0000
0000
0030
0000
,
0010
0000
0001
0010
0000
0100
0010
0000
0001
0100
0000
0010
,
2000
0000
3000
0000
,
1000
0100
0010
0100
0000
0100
0020
0000
0030
0000
0000
0001
,
1000
0010
0100
0001
0000
0010
0200
0300
0000
0000
0000
0000
,
0020
0030
0010
0200
0300
0100
0020
0030
0010
1000
0000
0100
,
0002
0000
0000
0000
0000
0003
0000
0000
0000
0000
0000
0000
,
0001
1000
0001
0100
0000
0100
0002
0000
0000
0000
0003
0010
,
0200
0300
2000
0000
3100
0010
2000
0000
0000
0000
0000
0000
,
0000
3000
0000
0000
0001
1000
0001
1000
0020
0030
0010
1000
,
0001
0100
0020
0030
0010
1000
0200
0300
0100
0020
0030
0002
,
0000
0000
0000
0003
0000
0000
0001
1000
0010
0100
0000
0100
,
0002
0000
0003
1000
0010
0100
0001
0010
0100
2000
3000
0100
,
0020
0030
0000
0100
0000
1000
0002
0000
0000
0003
0000
0001
,
0020
0000
0030
0000
0001
1000
0100
0010
0010
0100
0010
0010
,
0001
0010
0010
0100
0000
0000
1000
0010
0100
0001
0000
0010
,
1000
0000
1000
0100
0000
0000
0010
0001
0010
0100
0010
0010
,
2000
3000
1000
0200
0300
0200
0000
0000
0000
0000
0000
0300
,
0000
0000
0010
1000
0000
0200
0000
0000
0000
0000
0000
0300
,
0020
0000
0030
0200
0000
0310
1000
0010
0200
0000
0000
0000
,
0000
0000
0000
0000
0000
0300
0000
0000
0000
0000
0000
0000
,
0000
0000
0000
0000
,
2020
0000
3030
0200
0000
0300
0202
0000
0303
0002
0000
0003
,
2020
0000
3030
0200
0000
0300
2002
0000
0000
0000
0000
0000
,
0000
0000
3003
0000
;

//---------------dance-single - Medium----------------
#NOTES:
     dance-single:
     Medium:
     Easy:
     3:
     0.195,0.245,0.008,0.364,0.116:
0000
0000
0000
0000
,
0000
0000
0000
0000
,
1000
0000
0000
0001
0000
0000
1000
0000
0100
0001
0000
0020
,
0000
0000
0000
0000
0000
0000
0000
0000
0030
0000
0000
0000
,
0100
0000
0000
0001
0000
0000
1000
0000
0100
0001
0020
0000
,
0000
0000
0000
0000
0000
0000
0000
0030
0000
0000
0000
0000
,
0001
0000
0000
1000
0000
0000
0001
0000
0010
0100
0000
0020
,
0000
0000
0000
0000
0000
0000
0000
0030
0000
0000
0000
0000
,
0010
0000
0000
1000
0000
0000
0010
0000
0100
0010
0000
0200
,
0000
0000
0300
0000
,
0100
0000
0000
0010
0000
0000
0200
0000
0300
0010
0000
0000
,
1000
0010
0200
0000
0000
0000
0000
0300
0000
0000
0000
0000
,
1000
0100
0001
0010
,
1000
0010
0200
0000
0000
0000
0000
0000
0300
0000
0000
0000
,
1000
0000
0000
0100
0000
0000
0010
0000
0000
0001
0000
0020
,
0000
0000
0030
0000
,
0010
0100
0010
0100
,
2000
0000
3000
0000
,
1000
0000
0000
0100
0000
0000
0020
0000
0030
0000
0000
0000
,
1000
0000
0000
0001
0000
0000
0200
0300
0000
0000
0000
0000
,
0020
0030
0000
0200
0300
0000
0020
0030
0000
1000
0000
0000
,
0002
0000
0000
0000
0000
0003
0000
0000
0000
0000
0000
0000
,
0001
0000
0000
0100
0000
0000
0002
0000
0000
0000
0003
0000
,
0200
0300
0000
0010
0000
0000
2000
0000
0000
0000
0000
0000
,
0000
3000
0000
0000
0000
0000
0001
0000
0000
0200
0300
0000
,
0002
0003
0000
2000
3000
0000
0200
0300
0000
0020
0030
0000
,
0002
0003
0001
0100
,
0002
0000
0003
1000
0000
0000
0001
0000
0000
2000
3000
0000
,
0020
0030
0000
0100
0000
0000
0002
0000
0000
0003
0000
0001
,
0020
0000
0030
0000
0001
0000
0100
0010
0010
0100
0010
0010
,
0001
0010
0010
0100
0000
0000
1000
0000
0000
0001
0000
0000
,
1000
0100
0010
0100
,
2000
3000
1000
0200
0300
0200
0000
0000
0000
0000
0000
0300
,
0000
0000
0010
1000
0000
0200
0000
0000
0000
0000
0000
0300
,
0020
0000
0030
0200
0000
0310
1000
0010
0200
0000
0000
0000
,
0000
0000
0000
0000
0000
0300
0000
0000
0000
0000
0000
0000
,
0000
0000
0000
0000
,
2000
0000
0000
0000
0000
0000
0000
0000
3000
0000
0000
0000
0200
0000
0000
0000
0000
0000
0000
0000
0300
0000
0000
0000
0002
0000
0000
0000
0000
0000
0000
0000
0003
0000
0000
0000
0200
0000
0000
0000
0000
0000
0000
0000
0000
0300
0000
0000
,
2000
0000
3000
0200
0000
0300
2002
0000
0000
0000
0000
0000
,
0000
0000
3003
0000
;

//---------------dance-single - Easy----------------
#NOTES:
     dance-single:
     Easy:
     Beginner:
     1:
     0.176,0.212,0.000,0.347,0.062:
0000
0000
0000
0000
,
0000
0000
0000
0000
,
1000
0000
0000
0001
0000
0000
1000
0000
0000
0001
0000
0020
,
0000
0000
0000
0000
0000
0000
0000
0000
0030
0000
0000
0000
,
0100
0000
0000
0001
0000
0000
1000
0000
0000
0001
0020
0000
,
0000
0000
0000
0000
0000
0000
0000
0030
0000
0000
0000
0000
,
0001
0000
0000
1000
0000
0000
0001
0000
0000
0100
0000
0020
,
0000
0000
0000
0000
0000
0000
0000
0030
0000
0000
0000
0000
,
0010
0000
0000
1000
0000
0000
0010
0000
0000
0010
0000
0200
,
0000
0000
0300
0000
,
0100
0000
0000
0010
0000
0000
0200
0000
0300
0010
0000
0000
,
1000
0000
0200
0000
0000
0000
0000
0300
0000
0000
0000
0000
,
1000
0100
0001
0010
,
1000
0000
0200
0000
0000
0000
0000
0000
0300
0000
0000
0000
,
1000
0000
0000
0100
0000
0000
0010
0000
0000
0001
0000
0020
,
0000
0000
0030
0000
,
0010
0100
0010
0100
,
2000
0000
3000
0000
,
1000
0000
0000
0100
0000
0000
0020
0000
0030
0000
0000
0000
,
1000
0000
0000
0001
0000
0000
0200
0300
0000
0000
0000
0000
,
0020
0030
0000
0200
0300
0000
0020
0030
0000
1000
0000
0000
,
0002
0000
0000
0000
0000
0003
0000
0000
0000
0000
0000
0000
,
0001
0000
0000
0100
0000
0000
0002
0000
0000
0000
0003
0000
,
0200
0300
0000
0010
0000
0000
2000
0000
0000
0000
0000
0000
,
0000
3000
0000
0000
0000
0000
0001
0000
0000
0200
0300
0000
,
0002
0003
0000
2000
3000
0000
0200
0300
0000
0020
0030
0000
,
0002
0003
0001
0100
,
0002
0000
0003
1000
0000
0000
0001
0000
0000
2000
3000
0000
,
0020
0030
0000
0100
0000
0000
0002
0000
0000
0003
0000
0000
,
0020
0000
0030
0000
0000
0000
0100
0010
0010
0100
0010
0010
,
0001
0010
0010
0100
0000
0000
1000
0000
0000
0001
0000
0000
,
1000
0100
0010
0100
,
2000
0000
0000
3000
0000
0000
0200
0000
0000
0000
0000
0000
0000
0000
0000
0000
0000
0000
0000
0000
0000
0000
0300
0000
,
0000
0000
0000
1000
0000
0200
0000
0000
0000
0000
0000
0300
,
0020
0000
0030
0200
0000
0300
1000
0000
0200
0000
0000
0000
,
0000
0000
0000
0000
0000
0300
0000
0000
0000
0000
0000
0000
,
0000
0000
0000
0000
,
2000
0000
0000
0000
0000
0000
0000
0000
3000
0000
0000
0000
0200
0000
0000
0000
0000
0000
0000
0000
0300
0000
0000
0000
0002
0000
0000
0000
0000
0000
0000
0000
0003
0000
0000
0000
0200
0000
0000
0000
0000
0000
0000
0000
0000
0300
0000
0000
,
2000
0000
3000
0200
0000
0300
0002
0000
0000
0000
0000
0000
,
0000
0000
0003
0000
;
