#TITLE:Donna toki mo zutto;
#SUBTITLE:;
#ARTIST:u's;
#TITLETRANSLIT:;
#SUBTITLETRANSLIT:;
#ARTISTTRANSLIT:;
#GENRE:;
#CREDIT:CHMEX;
#BANNER:banner.png;
#BACKGROUND:BGI.png;
#LYRICSPATH:;
#CDTITLE:;
#MUSIC:Donna toki mo zutto.mp3;
#OFFSET:0.000;
#SAMPLESTART:51.821;
#SAMPLELENGTH:12.000;
#SELECTABLE:YES;
#BPMS:0.000=165.000,252.000=329.840,256.000=164.920;
#STOPS:0.000=0.080
;
#BGCHANGES:0.000=BGA.avi=1.000=0=0=1=StretchNormal====,
99999=-nosongbg-=1.000=0=0=0 // don't automatically add -songbackground-
;
#KEYSOUNDS:;

//---------------dance-single - Blank----------------
#NOTES:
     dance-single:
     Blank:
     Hard:
     8:
     0.621,0.890,0.387,0.796,0.033:
0000
0000
0000
0000
,
0000
0000
0000
0000
,
0000
0000
0000
0000
,
0000
0000
0000
0000
,
0000
0000
0000
0000
,
0000
0000
0000
0000
,
0002
0023
0032
0203
,
0320
0000
2030
0000
3100
0001
0100
0010
,
0002
0000
0000
0000
0000
0000
0000
0003
,
0010
0100
1000
0100
,
0100
0010
0100
1010
0000
0100
0010
0100
,
0110
0100
1000
0010
,
0100
0010
0010
0011
0000
0010
0001
0010
,
0010
0100
1000
0010
,
1000
0010
1000
1010
0000
0010
0100
0001
,
0010
0000
0100
1000
0000
0010
0000
2000
,
0100
0010
3001
0100
0010
0010
0200
0310
,
0000
0000
0010
0000
1000
0010
0001
0010
,
0200
0000
0000
0300
0000
0000
0010
0000
0000
0200
0000
0000
0300
0000
0000
2000
0000
0000
0000
0000
0000
0000
3000
0000
,
1000
0000
0001
0010
0100
0010
0100
0001
,
0100
0000
0010
1000
0000
0020
0000
0030
,
0010
0000
0010
0100
0010
1000
0001
0010
,
0100
0000
1000
0010
0000
0100
0000
0020
,
0000
0000
0000
0000
0000
0000
0000
0000
0000
0000
0000
0030
0000
0000
0000
0000
,
0210
0300
0102
0003
2001
3000
2010
3000
,
0102
0100
0103
0000
2001
0001
3001
0000
,
0010
0000
1001
0000
0110
0010
0100
0000
,
1020
1000
1030
0000
0201
0001
0301
0000
,
0100
0000
0010
0000
0110
0100
0010
0000
,
0001
0000
0020
0230
0000
2300
0000
0002
,
0000
0000
0003
0100
0020
0000
0000
0000
,
3030
0000
0200
0300
0002
0003
0100
0000
,
2002
0000
0000
0000
,
0000
0000
0000
0000
0000
0000
0000
0000
0000
0000
0000
0000
0000
0000
0000
3003
,
1000
0001
1000
0001
1000
0001
1000
0010
0100
0010
0100
0010
0100
0000
1001
0000
,
0000
1100
0000
1010
1001
0000
1000
0220
,
0330
0010
0010
0001
0010
0100
0020
0230
,
0000
0000
0000
0300
0001
0000
0010
0000
0100
0000
1000
0000
0020
0000
0100
0000
,
0130
0010
1000
0010
0000
0001
0000
0200
,
0300
0000
0001
0010
0100
1000
0010
2000
,
0010
3010
0100
0001
0010
0100
2000
0020
,
0000
3030
0200
0310
0000
0000
0100
0000
,
2000
0000
0010
3001
0000
0110
0000
1001
,
0000
2002
3003
2002
0000
3003
0001
2000
,
0000
0100
3100
0010
0001
0010
0100
2000
,
0010
3010
0001
1000
0100
0001
0010
0200
,
0000
0300
0010
0000
0010
1000
0000
0200
,
0000
0000
0000
0300
0001
0010
0100
0020
,
1000
0130
0010
0000
0001
1000
0000
2002
,
0000
3003
0000
0000
0001
0100
0000
2000
,
0000
3000
0000
0000
0020
0030
0002
0003
,
0020
0030
1000
0100
0020
0000
1030
0100
,
0002
0000
0000
0003
0100
0010
1000
0001
,
1000
0100
0010
0100
0010
0001
0010
0100
,
0010
0100
0001
1000
0010
0100
0001
0010
,
0100
0010
0210
0000
0312
0000
0213
0000
,
0310
0001
0000
2020
3030
2010
0100
0010
,
0001
0010
0100
3010
0000
0012
0100
1000
,
0100
0010
0100
1003
0010
0100
0010
0001
,
0020
0000
0032
0003
2000
3000
0020
0030
,
0010
0100
0000
1010
0000
1001
0000
0022
,
0000
0000
0000
0000
0000
0000
0000
0000
0000
0000
0000
0000
0000
0000
0000
0033
;

//---------------dance-single - Medium----------------
#NOTES:
     dance-single:
     Medium:
     Easy:
     4:
     0.341,0.378,0.055,0.475,0.000:
0000
0000
0000
0000
,
0000
0000
0000
0000
,
0000
0000
0000
0000
,
0000
0000
0000
0000
,
0000
0000
0000
0000
,
0000
0000
0000
0000
,
0002
0000
0000
0003
2000
0000
0000
0000
,
3002
0000
0000
0003
1000
0000
0001
0000
,
0010
0100
0010
0100
,
0001
0010
0100
0020
,
0000
0030
0000
0000
,
1000
1000
0100
1000
,
0020
0000
0000
0000
0000
0030
0010
0000
,
0010
0100
1000
1000
,
0020
0000
0000
0000
0000
0030
0010
0000
,
0001
1000
0010
1000
,
0010
0001
0100
1000
,
0020
0030
0010
0000
0100
0000
0001
0000
,
0010
0000
0000
0000
2000
0000
0000
0000
0020
3000
0000
0000
0000
0000
0030
0000
,
0010
0100
0001
0010
,
0100
0000
0010
0000
0200
0000
0000
0300
,
0100
0010
0100
0100
,
0010
0001
0010
0002
,
0000
0000
0000
0000
0000
0003
0000
0000
,
0100
1000
0001
0020
,
2030
0000
0000
3000
1000
0000
1001
0000
,
0010
0001
0100
0100
,
0020
0000
0030
0000
0200
0300
1001
0000
,
0001
0100
1000
0100
,
0001
0020
0230
2300
,
0000
3002
0000
0000
,
0000
0000
0023
0030
0200
0300
2000
3000
,
2002
0000
0000
0000
,
0000
0000
0000
0000
0000
0000
0000
3003
,
4004
0000
0000
0000
0000
0000
0000
0000
0000
0000
0000
0000
0000
3003
0010
0000
,
0000
0010
0000
0010
0010
0000
0000
0200
,
0000
0000
0000
1300
0000
0000
0000
0200
,
0000
0000
0000
0301
0000
0000
0000
0020
,
0000
0130
0100
0010
,
0010
1000
1000
0002
,
0000
0013
0001
0020
,
0000
0130
0100
0010
,
0100
1000
0100
0010
,
0100
0000
0020
0000
0000
0030
0200
0000
,
0000
0301
0010
0200
,
0000
0301
1000
0010
,
0100
0001
0010
0100
,
0001
0010
1000
0010
,
0001
0000
0010
0000
0100
0000
0000
0020
,
0000
0000
0030
0000
1000
0000
0000
0002
,
0000
0003
0100
0010
,
0002
0000
2003
0000
,
3020
0000
0000
0130
,
1000
0001
0010
0100
,
0010
0001
0010
0001
,
0100
0200
0302
0203
,
0301
0000
0000
0010
0000
1000
0000
0020
,
0000
0000
0031
0100
,
0001
0100
0001
0010
,
0100
0010
0001
0010
,
0010
0000
0000
0010
0000
0100
0000
0220
,
0000
0000
0000
0000
,
0000
0330
0000
0000
0000
0000
0000
0000
;

//---------------dance-single - Easy----------------
#NOTES:
     dance-single:
     Easy:
     Beginner:
     3:
     0.218,0.378,0.000,0.276,0.000:
0000
0000
0000
0000
,
0000
0000
0000
0000
,
0000
0000
0000
0000
,
0000
0000
0000
0000
,
0000
0000
0000
0000
,
0000
0000
0000
0000
,
0000
0000
0000
0000
,
0000
0000
0000
0000
,
0000
0000
0000
0000
,
0001
0010
0010
0200
,
0000
0300
0000
0000
,
1000
0100
0100
0100
,
0020
0000
0000
0030
,
0010
0100
0100
0200
,
0000
0300
0000
0000
,
0001
0010
0010
0200
,
0000
0300
0100
0010
,
0010
0000
0100
0001
,
0010
0000
0000
0000
2000
0000
0000
0000
0020
3000
0000
0000
0000
0000
0030
0000
,
0010
0100
0001
0010
,
0100
0000
0010
0000
0002
0000
0000
0003
,
0001
0010
0100
0100
,
0010
0001
0010
0001
,
0020
0000
0000
0030
,
0000
0000
0000
0000
,
2000
0000
3100
0100
,
0010
0010
0010
0000
,
2000
0000
0000
3001
,
0001
0100
0100
0100
,
0001
0020
0230
2300
,
0000
0002
0000
0000
,
3003
0100
0010
0100
,
0020
0000
0000
0000
,
0000
0000
0000
0030
,
0000
0000
0000
0000
,
0000
0000
0000
0001
,
0000
1000
0000
0001
,
0000
1000
0000
0001
,
0000
1000
0000
0020
,
0000
0000
0000
0030
0000
0000
0001
0000
,
0000
1000
0000
0001
,
0000
1000
0000
0001
,
0000
0000
0010
0000
0000
0000
0000
0200
,
0000
0000
0300
0010
,
0000
0001
0000
1000
,
0000
0010
0000
1000
,
0000
0010
0000
2000
,
0000
0000
0000
3000
0000
0000
0001
0000
,
1000
0000
0000
0000
0000
0000
0000
2000
,
0000
0000
0000
3000
0000
0000
0000
0002
,
0000
0000
0000
0003
0000
0000
0000
0000
,
1000
0001
1000
0001
,
2000
0000
0000
3000
,
1000
1000
0001
0001
,
0100
0010
0100
0001
,
0020
0000
0000
0000
0000
0030
0010
0000
,
0100
0000
0000
1000
0000
0000
0000
0200
,
0000
0000
0000
0000
,
0300
1000
0100
1000
,
0200
0000
0000
0000
0000
0300
1000
0000
,
0100
0000
0000
0010
0000
0000
0000
0200
,
0000
0000
0000
0000
,
0000
0300
0000
0000
0000
0000
0000
0000
;

//---------------dance-single - Hard----------------
#NOTES:
     dance-single:
     Hard:
     Challenge:
     11:
     0.684,0.890,0.475,0.697,0.088:
0000
0000
0000
0000
,
0000
0000
0000
0000
,
0000
0000
0000
0000
,
0000
0000
0000
0000
,
0000
0000
0000
0000
,
0000
0000
0000
0000
,
0001
0001
0010
0010
0001
0001
0100
0100
,
0010
0010
1000
1000
0100
0001
0100
0010
,
0002
0000
0000
0000
0000
0000
0000
0003
,
0010
0100
1000
0100
,
0100
0010
0100
1010
0000
1010
0010
0100
,
0110
0100
1000
0010
,
0100
0010
0010
0011
0000
0011
0001
0010
,
0010
0100
1000
0010
,
1000
0010
1000
1010
0000
1010
0100
0001
,
0010
0000
0100
1000
0000
0010
0000
2000
,
0100
0000
0010
0000
3001
0000
0100
1000
0010
0100
0010
1000
0100
0001
0010
0001
,
0200
0000
0000
0300
0010
0000
0000
0000
1000
0000
0010
0000
0001
0000
0010
0000
,
0200
0000
0000
0300
0000
0000
0010
0000
0000
2000
0000
0000
3000
0000
0000
2000
0000
0000
0100
0000
0000
0001
3000
0000
,
0020
0030
0001
0010
0100
0010
0100
0001
,
0100
0000
0010
1000
0000
0020
0100
1000
,
0230
0300
0010
0100
0010
1000
0001
0010
,
0100
0000
1000
0010
0000
0100
0000
0020
,
0000
0000
0000
0000
1000
0000
0000
0000
0100
0000
0030
0000
0010
0000
0001
1000
,
0001
0000
1000
0010
1000
0000
0100
0010
0100
0000
0001
0100
0010
0000
0100
1000
,
0102
0000
0100
0003
0101
0000
0000
0000
2001
0000
0001
3000
1001
0000
0000
0000
,
0010
0000
1001
0000
0110
0010
0100
0000
,
1020
0000
1000
0030
1010
0000
0000
0000
0201
0000
0001
0300
0101
0000
0000
0000
,
0100
0000
0010
0000
0110
0100
0010
0000
,
0001
0000
0020
0230
0000
2300
0000
0002
,
0000
0000
0003
0100
0010
0001
0100
0010
,
3001
0010
0200
1300
0002
0013
1000
0100
,
2002
0000
0000
0000
,
0000
0000
0000
0000
0000
0000
0000
0000
0000
0000
0000
0000
0000
0000
0000
3003
,
1000
0001
1000
0100
1000
0100
0010
0001
0100
0010
0001
0010
0100
0000
1001
0000
,
0000
1100
0000
1010
1001
0000
1000
0220
,
0330
0010
0010
0001
0010
0100
0020
0230
,
0010
0000
0010
0300
0101
0000
0010
0000
0100
0000
1000
0000
0020
0000
0100
0000
,
0130
0010
1010
0010
0000
0001
0000
0200
,
0300
0010
0001
0010
0100
1000
0010
2000
,
0010
3010
1100
0001
0010
0100
2000
0020
,
0000
3030
0210
0310
0000
0000
0100
0000
,
2000
0000
0010
3001
0000
0110
0000
1001
,
0000
2020
3030
2002
0000
3003
0001
2000
,
0000
0100
3100
0010
1001
0010
0100
2000
,
0010
3010
0101
1000
0100
0001
0010
0200
,
0000
0300
0010
0000
0010
1000
0000
0200
,
0000
0000
0000
0300
0001
0010
0100
0020
,
1000
0130
0010
0000
0001
1000
0000
2002
,
0000
3003
0000
0000
0001
0100
0000
2000
,
0000
3000
0000
0000
0020
0030
0002
0003
,
0020
0030
1000
0100
0020
0000
1030
0100
,
0002
0000
0000
0003
0100
0010
1000
0001
,
1000
0100
0010
0100
0010
0001
0010
0100
,
0010
0100
0001
1000
0010
0100
0001
0010
,
0100
0010
0210
0000
0312
0000
0213
0000
,
0310
0001
0000
2020
3030
2010
0100
0010
,
0001
0010
0100
3010
0100
0012
0100
1000
,
0100
0010
0100
1003
0010
0100
0010
0001
,
0020
0000
0032
0003
2000
3000
0020
0030
,
0010
0100
0000
0010
0000
1001
0000
0022
,
0000
0000
0000
0000
0000
0000
0000
0000
0000
0000
0000
0000
0000
0000
0000
0033
;

//---------------dance-single - Hard----------------
#NOTES:
     dance-single:
     Hard:
     Medium:
     5:
     0.521,0.548,0.088,0.763,0.006:
0000
0000
0000
0000
,
0000
0000
0000
0000
,
0000
0000
0000
0000
,
0000
0000
0000
0000
,
0000
0000
0000
0000
,
0000
0000
0000
0000
,
0002
0023
0032
0203
,
0320
0000
2030
0000
3100
0001
0100
0010
,
0002
0000
0000
0000
0000
0000
0000
0003
,
0010
0000
0100
0000
1000
0000
0100
0020
,
0000
0000
0000
0030
0000
0100
0010
0100
,
0010
0000
0100
0000
1000
0000
0010
0200
,
0000
0000
0000
0300
,
0010
0000
0100
0000
1000
0000
0010
0200
,
0000
0000
0000
0300
0000
0010
0100
0001
,
0010
0000
0100
1000
0000
0010
0000
2000
,
0100
0010
3001
0100
0010
0010
0200
0310
,
0000
0000
0010
0000
1000
0010
0001
0010
,
0200
0000
0000
0300
0000
0000
0010
0000
0000
2000
0000
0000
3000
0000
0000
2000
0000
0000
0000
0000
0000
0000
3000
0000
,
0010
0000
0001
0010
0100
0010
0100
0001
,
0100
0000
0010
1000
0000
0020
0000
0000
,
0030
0000
0010
0100
0010
1000
0001
0010
,
0100
0000
1000
0010
0000
0100
0000
0020
,
0000
0000
0000
0000
0000
0000
0000
0000
0000
0000
0000
0030
0000
0000
0000
0000
,
0200
0300
0002
0003
0200
0300
0020
0030
,
0200
0310
0002
0103
,
0010
0000
1001
0000
0110
0010
0100
0000
,
0020
1030
0200
0301
,
0100
0000
0010
0000
0100
0100
0010
0000
,
0001
0000
0020
0230
0000
2300
0000
0002
,
0000
0000
0003
0100
0020
0000
0000
0000
,
3030
0000
0200
0300
0002
0003
0100
0000
,
2002
0000
0000
0000
,
0000
0000
0000
0000
0000
0000
0000
0000
0000
0000
0000
0000
0000
0000
0000
3003
,
4000
0004
0000
0000
0000
0000
0000
0000
0000
0000
0000
0000
3003
0000
1001
0000
,
0000
0100
0000
1000
0001
0000
1000
0020
,
0030
0010
0010
0001
0010
0100
0020
0230
,
0000
0000
0000
0300
0001
0000
0010
0000
0100
0000
1000
0000
0010
0000
0200
0000
,
0000
1300
0100
0010
0000
0001
0000
0200
,
0300
0000
0001
0010
0100
1000
0010
2000
,
0000
0000
3100
0001
0010
0100
2000
0020
,
0000
3030
0200
0310
0000
0000
0100
0000
,
2000
0000
0010
3001
0000
0100
0000
0010
,
0000
0002
0003
2002
0000
3003
0001
2000
,
0000
0000
3100
0010
0001
0010
0100
2000
,
0000
3000
0001
1000
0100
0001
0010
0200
,
0000
0300
0010
0000
0010
1000
0000
0200
,
0000
0000
0000
0300
0001
0010
0100
0020
,
1000
0130
0010
0000
0001
1000
0000
0002
,
0000
0003
0000
0000
0001
0100
0000
2000
,
0000
3000
0000
0000
0020
0030
0002
0003
,
0020
0030
1000
0100
0020
0000
1030
0100
,
0002
0000
0000
0003
0100
0010
1000
0001
,
1000
0100
0010
0100
0010
0001
0010
0100
,
0010
0100
0001
1000
0010
0100
0001
0010
,
0100
0010
0200
0000
0302
0000
0203
0000
,
0310
0001
0000
0020
0030
0010
0100
0010
,
0001
0010
0100
0010
0001
0010
0100
1000
,
0100
0010
0100
1000
0010
0100
0010
0001
,
0020
0000
0032
0003
2000
3000
0020
0030
,
0010
0100
0000
1010
0000
1001
0000
0022
,
0000
0000
0000
0000
0000
0000
0000
0000
0000
0000
0000
0000
0000
0000
0000
0033
;
