#TITLE:Datte datte Amu Jo;
#SUBTITLE:;
#ARTIST:u's;
#TITLETRANSLIT:;
#SUBTITLETRANSLIT:;
#ARTISTTRANSLIT:;
#GENRE:;
#CREDIT:CHMEX;
#BANNER:banner.png;
#BACKGROUND:BGI.png;
#LYRICSPATH:;
#CDTITLE:;
#MUSIC:Datte datte Amu Jo.mp3;
#OFFSET:0.000;
#SAMPLESTART:78.200;
#SAMPLELENGTH:12.000;
#SELECTABLE:YES;
#BPMS:0.000=84.000,37.000=168.000,37.500=168.000,38.000=168.000;
#STOPS:0.000=0.620
;
#BGCHANGES:0.000=BGA.avi=1.000=0=0=1=StretchNormal====,
99999=-nosongbg-=1.000=0=0=0 // don't automatically add -songbackground-
;
#KEYSOUNDS:;

//---------------dance-single - Blank----------------
#NOTES:
     dance-single:
     Blank:
     Hard:
     9:
     0.630,0.826,0.393,0.622,0.295:
0000
0000
0000
0000
0000
0000
0000
0000
0000
0000
0000
0000
0000
0000
0000
0000
0000
0000
0000
0000
0000
0000
0000
0000
0000
0000
0000
1001
0000
0000
0000
0000
,
0000
0000
0000
0000
0000
0000
0000
0000
0000
0000
0000
0000
0000
0000
0000
0000
0000
0000
0000
0000
0000
0001
0000
0000
0000
0010
0000
0000
0000
0200
0000
0000
,
0000
0000
0000
0000
0000
0000
0300
0000
0000
0010
0000
0000
0000
0000
2000
0000
0000
0000
0000
0000
0000
0000
0000
0000
0000
0000
3000
0000
0000
0000
0001
0000
,
0010
0100
0020
0000
0000
0000
0000
0000
0000
0000
0000
0030
0001
0000
0010
0000
,
2000
0000
0000
0000
0000
0000
0000
0000
0000
0000
0000
0000
0000
0000
0000
0000
0000
0000
0000
0000
0000
0000
0000
0000
0000
0000
0000
0000
0000
0000
0000
0000
0000
0000
0000
0000
0000
0000
0000
0000
0000
0000
0000
0000
0000
0000
0000
0000
0000
0000
0000
0000
3000
0000
0000
0000
0000
0000
0000
0000
0000
0000
0000
0000
0000
0000
0000
0000
0000
0000
0000
0000
0000
0000
0000
0000
0000
0000
0100
0000
0000
0000
0000
0000
0000
0000
0000
0000
0000
0000
0000
0000
0000
0000
0000
0000
0000
0000
0000
0000
0000
0000
0020
0000
0000
0000
0000
0000
0000
0000
0000
0000
0000
0000
0000
0000
0000
0000
0000
0000
0000
0000
0000
0000
0000
0000
0000
0000
0000
0000
0000
0000
0000
0000
0000
0000
0000
0000
0000
0000
0000
0000
0000
0000
0000
0000
0000
0000
0000
0000
0000
0000
0000
0000
0000
0000
0030
0000
0000
0000
0000
0000
0000
0000
0000
0000
0000
0000
0000
0000
0000
0000
0000
0000
0000
0000
0000
0000
0000
0000
0100
0000
0000
0000
0000
0000
0000
0000
0000
0000
0000
0000
,
0010
0000
0002
0000
0000
0000
0000
0000
0000
0000
0000
0000
0000
0003
0010
0000
0000
0000
0200
0000
0000
0000
0000
0000
0000
0000
0000
0000
0000
0000
0300
0000
,
0010
0000
1000
0000
0002
0000
0000
0000
0000
0000
0000
0000
0023
0000
0000
0000
0000
0000
0000
0000
0230
0000
0000
0000
0000
0000
0000
0000
0000
0000
0000
0300
,
0000
0010
0000
0001
0000
0020
0000
0000
0000
0000
0000
0000
0000
0030
0000
0000
0000
0000
0010
0000
0000
0000
0002
0000
0000
0000
0000
0000
0000
0003
2000
0000
,
0000
0000
0000
0000
3000
0000
2002
0000
3000
0000
0000
0000
0000
0000
0000
0000
0000
0000
0000
0000
0000
0000
0000
2000
0000
0000
0000
0000
0000
0000
0000
0000
,
0000
0000
0000
3003
0010
0000
1000
0000
0010
0000
0001
0000
0100
0000
0010
0000
,
0001
0010
0100
1000
0010
1000
0100
0010
,
0001
0010
2000
0010
0001
3010
0100
1000
,
0010
0000
0000
0100
0000
0000
0010
0000
0000
2020
0000
3030
0100
0000
0000
0001
0000
0000
0010
0000
0000
0200
0000
0000
,
1300
0001
0010
0100
1000
0010
0100
0001
,
0010
0100
1000
0010
0100
0001
0010
0100
,
1000
0100
0020
0000
0000
0000
0000
0030
,
0001
0010
0010
1000
0010
0001
0100
1000
,
0100
0011
0001
1000
0010
0110
0000
1000
,
1000
0000
0000
0000
0000
0000
1000
0000
0000
0000
0000
0000
2020
0000
0000
0000
0000
0000
0000
0000
0000
3030
0000
0000
0000
0000
0000
0000
0000
0000
0200
0000
0000
0000
0000
0000
0000
0000
0300
0000
0000
0000
0000
0000
0000
0000
0000
0000
,
1000
0000
0202
0303
0000
0020
0030
0000
,
2000
0000
0002
0000
0000
0000
0000
3003
,
0100
0000
0001
0000
1000
0000
0001
0000
0000
0000
4000
3000
0000
0000
0010
0000
,
0100
0000
0010
0000
0001
0010
0100
0000
,
2000
0000
0020
0000
3030
2020
3030
1000
,
1000
0000
0000
1001
0000
0001
1000
0001
1000
0010
1000
0010
,
1000
0000
0100
0000
1000
0000
0100
0000
0000
0000
0000
0000
0001
0000
0000
0010
0000
0000
0000
0000
0000
0010
0000
0000
,
0100
0020
0030
0000
0000
0000
1000
0000
,
0010
0200
0000
0000
,
0000
0300
0000
0010
0010
0100
1000
0010
,
0100
0010
2000
0000
3100
0020
0030
0001
,
0010
0100
0000
0000
0000
0000
0100
0000
,
1000
0000
0000
0000
0020
0000
0000
0000
0000
0000
0000
0000
0000
0000
0000
0030
,
0020
0000
0000
0030
0010
0100
1000
0010
0100
1000
0010
0100
1000
0010
0100
1000
,
0010
0000
0000
0000
0200
0000
0000
0000
0000
0000
0000
0000
0000
0300
0000
0000
,
0001
0000
0020
0000
0000
0000
0000
0030
,
1000
0000
0100
0000
2000
0000
0000
0000
0000
0000
0000
0000
0000
3000
0000
0000
,
0010
0000
0002
0000
0000
0000
0000
0003
,
0001
1000
0001
1000
0010
0001
0000
1000
,
0000
0000
1001
0000
0000
0000
0010
0100
0001
0000
0010
0000
0100
0000
0010
0000
,
1000
0100
1010
0100
0010
0011
0100
0001
,
0011
1000
0010
0110
0100
0010
0011
0100
,
0001
0000
0010
0000
2002
0000
3003
0000
0010
1000
0100
1000
0010
1000
0001
0100
,
0010
1000
0100
0010
1000
0010
0100
0010
0001
0100
0001
0100
0010
0001
0100
0000
,
0010
0001
0100
1001
0000
0010
0000
1001
,
0100
0210
0300
0110
0110
0110
0110
1001
,
1001
1001
1002
0003
1000
0001
0010
0100
,
0001
1000
0001
0010
0200
0010
0300
0100
,
0001
0100
0001
0010
2000
0010
3000
0000
,
0200
0000
0300
0000
0101
0000
0001
0010
0001
0000
0100
0000
0001
0000
1000
0000
,
0010
1000
0002
0000
2000
0003
0020
3000
,
0200
0030
0002
0300
2000
0003
0020
3000
,
0200
0030
0010
0301
0010
0100
1000
0100
,
0010
0001
0100
1000
0200
0000
0310
0000
,
0001
0000
0101
0000
0000
1010
0000
0000
,
0011
0200
1000
0310
,
0001
0000
0000
0000
0000
0000
0000
0000
0110
0000
0000
0000
0000
0000
0000
0000
0001
0000
0000
0000
0010
0000
0000
0000
0000
0000
0000
0000
0000
0000
0000
0100
,
0000
2001
0000
3000
,
1000
0010
1000
0010
0200
0000
0300
0000
0100
0001
0100
0001
0020
0000
0030
0000
,
0010
1000
0010
1000
0200
0000
0000
0300
0100
1000
0100
1000
0200
0000
1310
0000
,
1010
1010
1000
0010
1000
0110
0110
0110
,
1001
0000
1001
0000
1001
0000
0001
1000
0001
0100
0010
1000
0100
0010
1000
0010
,
0100
0001
0010
0100
0001
0000
0100
0000
1000
0000
0020
0000
0000
0000
0030
0000
,
0100
0000
0010
1000
0001
0200
0000
0000
,
0310
0000
1000
0001
0100
0020
0000
0000
,
1030
0000
0000
0000
0010
0000
0100
0001
0100
0000
0010
0000
1000
0000
0001
0000
,
0100
0000
0010
0000
2020
0000
3030
0000
0010
0100
0010
0100
0002
0000
0000
0003
,
0010
1000
0010
1000
0200
0000
0000
0300
0001
0100
0001
0100
0020
0000
1030
0000
,
0100
0001
0110
0000
1000
0001
0000
0100
,
0000
0010
1000
0000
0002
0000
0000
0000
,
0000
0000
0000
0000
0003
0000
1000
1100
,
0000
0001
0011
0000
1000
1001
0000
0000
,
2002
0000
0000
0000
,
0000
0000
0000
0000
,
0000
0000
0000
0000
,
0000
0000
0000
3003
;

//---------------dance-single - Hard----------------
#NOTES:
     dance-single:
     Hard:
     Challenge:
     12:
     0.749,0.856,0.532,0.687,0.376:
0000
0000
0000
0000
0000
0000
0000
0000
0000
0000
0000
0000
0000
0000
0000
0000
0000
0000
0000
0000
0000
0000
0000
0000
0000
0000
0000
2002
0000
0000
0000
0000
,
3003
0000
0000
0000
0000
0000
0000
0000
0000
0000
0000
0000
0000
0000
0000
0000
0000
0000
0000
0000
0000
0001
0000
0000
0000
0010
0000
0000
0000
0200
0000
0000
,
0000
0000
0000
0000
0000
0000
0000
0300
0000
0001
0000
0000
0000
0000
0200
0000
0000
0000
0000
0000
0000
0000
0000
0000
0000
0000
0300
0000
0000
0000
0001
0000
,
0010
0100
0020
0000
0000
0000
0000
0000
0000
0000
0000
0030
0001
0000
0010
0000
,
2001
0000
0000
0000
0010
0000
0000
0000
0100
0000
0000
0000
0010
0000
0000
0000
3200
0000
0000
0000
0000
0000
0000
0000
0310
0000
0000
0000
0000
0000
0000
0000
0000
0002
0000
0000
0000
0000
0003
0000
0000
0000
0100
0000
0000
0000
0000
0000
0000
0000
0000
0001
0000
0000
0000
0000
0000
0000
0000
0000
0010
0000
0000
0000
,
0001
0000
0010
0000
0100
0000
1000
0000
0100
0000
0020
0000
0000
0000
0000
0000
0000
0000
0130
0000
0010
0000
0100
0000
1000
0000
0200
0000
0000
0000
0300
0010
,
0000
1000
0000
0002
0000
0000
0000
0000
0000
0000
0000
0000
0023
0000
0000
0000
0100
0000
0000
0000
0230
0000
0000
0000
0001
0000
0000
0000
0302
0000
0000
0000
,
0003
0100
0000
0001
0000
0201
0000
0000
0000
0000
0000
0000
0000
0000
0000
0000
0300
0000
0010
0000
0000
0000
0002
0000
0000
0000
0000
0000
0000
0000
2000
0000
,
0000
0000
3003
2002
0000
0000
0000
0000
0000
0000
0000
0000
0000
0000
0000
3003
,
2002
0000
3103
0010
1000
0010
0001
0100
,
0010
0001
0010
0100
1000
0010
1000
0100
,
0010
0001
0010
2000
0010
0001
0010
0010
,
3001
0000
0000
0010
0000
0000
0100
0000
0000
0010
0000
0000
2020
0000
3030
0100
0000
0000
0001
0000
0000
0010
0000
0000
,
0200
1300
0001
0010
0100
1000
0010
0100
,
0001
0010
0100
1000
0010
0100
0001
0010
,
0100
1000
0200
0010
0001
0310
0100
1000
,
0100
0010
0001
0010
1000
0100
1000
0001
,
0001
0010
0100
0010
1000
0000
0010
0000
0100
0000
0110
0000
0000
0000
1000
0000
,
1000
0000
0000
0000
0000
0000
1000
0000
0000
0000
0000
0000
2020
0000
0000
0000
0000
0000
0000
0000
0000
3030
0000
0000
0000
0000
0000
0000
0000
0000
0200
0000
0000
0000
0000
0000
0000
0000
0300
0000
0000
0000
0000
0000
0000
0000
0000
0000
,
1000
0000
0000
0000
0202
0000
0303
0000
0000
0000
0220
0000
0000
0330
0000
0000
,
2000
0000
0002
0000
0000
0000
0000
3003
,
0100
0000
0001
0000
1000
0000
0001
0000
0000
0000
4000
3000
0000
0000
0010
0000
,
0200
0300
0110
0000
0001
0010
0110
0000
,
1000
0010
1000
0100
0020
0000
0000
0000
0030
0000
2020
0000
3030
0000
1000
0000
,
1000
0000
0000
1010
0000
0010
0001
0010
0100
1000
0100
1000
,
0100
0000
0010
0000
0001
0000
0010
0000
0000
0000
0000
0000
0001
0000
0000
0010
0000
0000
0000
0000
0000
0010
0000
0000
,
0100
0020
0000
0030
0000
0000
0010
0000
,
0100
0000
2001
0000
0000
0000
0000
3000
,
0000
0010
0100
0010
0101
1000
0001
0010
,
0110
1000
0020
0030
0100
0001
0000
0100
,
0001
0020
0030
0000
0000
0000
0100
0000
,
0010
0000
1002
0000
0000
0000
0000
0003
,
0002
0000
0000
0003
0001
0010
0100
0001
0010
1000
0001
0100
1000
0010
0100
1000
,
0001
0100
1000
0100
0020
0000
0000
0000
0000
0000
1030
0000
0110
0000
0000
0000
,
0100
0001
0200
0010
0000
1000
1301
0000
,
0010
0100
0020
1000
0000
0031
1001
0000
,
0010
0000
0000
0100
0000
0000
0001
0000
0000
0020
0000
0000
0000
0000
0000
0100
0000
0030
1010
0000
0000
0000
0000
0000
,
0011
0100
0001
1000
0010
1100
0000
1000
,
0000
0000
1001
0000
0000
0000
0010
0100
0001
0000
0010
0000
0001
0000
0100
0000
,
0010
1000
1010
0100
0001
0011
1000
0010
,
0011
1000
0100
0011
0100
1000
0001
0100
,
0001
0000
0010
0000
2002
0000
3003
0000
0010
1000
0100
1000
0010
1000
0001
0100
,
0010
0001
0100
0010
1000
0010
0100
0010
0001
1000
0001
0100
0010
1000
0100
0001
,
0010
0100
0001
0000
0100
0000
1001
0000
0000
0000
0010
0000
0000
0000
1001
0000
,
0100
0210
0300
0110
0110
0110
0110
1001
,
1001
1001
1002
0003
1000
0001
0010
0100
,
0001
1000
0001
0010
0200
0010
1300
0100
,
0001
0100
0001
0010
2000
0020
3000
0030
,
0200
0000
0300
0000
0101
0000
0001
0010
0001
0000
0100
0000
0001
0000
1000
0000
,
0010
1000
0002
0100
2003
0010
3020
0001
,
0230
1000
0302
0010
2003
0100
3020
0001
,
0230
1000
0310
0001
0010
0100
1000
0100
,
0010
0000
0001
0000
0010
0000
0100
0000
2000
0000
0000
3000
0100
0000
0000
0000
,
0010
0000
0101
0000
0000
1010
0000
0000
,
0011
0000
0200
0000
2000
0300
0010
3000
,
0001
0000
0110
0000
0001
0010
0000
0000
,
0100
2001
0000
3000
,
1000
0010
1000
0010
0200
0000
0300
0000
0100
0001
0100
0001
0020
0000
0030
0000
,
0010
1000
0010
1000
0200
0000
0300
0000
0100
1000
0100
1000
0200
0000
1310
0000
,
1010
1010
1000
0010
1000
0110
0110
0110
,
1001
0000
1001
0000
1001
0000
0001
1000
0001
0100
0010
1000
0100
0010
1000
0010
,
0100
0001
0010
0100
0001
0000
0100
0000
1000
0000
0020
0000
0100
0000
1030
0000
,
0110
0001
0010
1000
0001
0200
0010
0301
,
0110
0100
1000
0001
0100
0020
0100
0031
,
1010
0000
0100
0000
0010
0000
0100
0001
0100
0000
0010
0000
1000
0000
0001
0000
,
0100
0000
0010
0000
2020
0000
3030
0000
0010
0100
0010
0100
0002
0000
0000
0003
,
0010
1000
0010
1000
0200
0000
0000
0300
0001
0100
0001
0100
0020
0000
1030
0000
,
0100
0001
0110
0000
1000
0001
0000
0100
,
0000
0000
0010
0000
1000
0000
0000
0000
0002
0000
0000
0003
0001
1000
0001
1000
,
0001
0100
0001
0100
0010
0100
0010
0100
0010
0000
0000
0000
1000
0000
1100
0000
,
0000
0001
0011
0000
1000
1001
0000
0000
,
2002
0000
0000
0000
,
0000
0000
0000
0000
,
0000
0000
0000
0000
,
0000
0000
0000
3003
;

//---------------dance-single - Hard----------------
#NOTES:
     dance-single:
     Hard:
     Medium:
     7:
     0.347,0.457,0.139,0.393,0.000:
0000
0000
0000
0000
,
0000
0000
0000
0000
,
0000
0000
0000
0000
,
0000
0000
0000
0000
,
0000
0000
0000
0000
,
0000
0000
0000
0000
,
0000
0000
0000
0000
,
0000
0000
0000
0000
,
0000
0000
0000
0000
,
1000
0000
0001
0010
0100
1000
0001
0010
,
1000
0100
0001
0010
1000
0000
0010
0000
,
1001
0000
0010
0001
1000
0001
0010
0100
,
0001
0100
0010
1000
0001
0000
0010
0100
,
1000
0000
0001
0010
0001
0010
0100
0010
,
0001
0100
0010
0100
0001
0000
0010
0000
,
1100
0000
0100
1000
0100
0010
0100
0010
,
0100
1000
0001
0010
0001
0010
0100
1000
,
0100
0001
0020
0000
0000
0000
0000
0030
,
0100
0000
0100
0000
0000
0010
0000
0000
,
0001
0000
0010
0000
0000
1000
0000
0000
,
0010
0200
0000
0300
,
0010
0000
0100
0000
0001
0000
0010
0000
0000
0000
0004
0003
0000
0000
0010
0000
,
1000
0000
0010
0000
0001
0010
0100
0000
,
0010
0000
0002
0000
0003
0001
0000
0001
,
0001
0002
0000
0000
,
0000
0003
0001
0000
0000
1000
0000
0010
,
0001
0010
0000
0000
0000
0000
1000
0000
,
0010
0002
0000
0000
,
0000
0003
0000
0000
0000
0000
0000
0000
,
0000
0000
0100
0000
0010
0001
0000
0010
,
0100
0010
0000
0000
0000
0000
0100
0000
,
0010
0002
0000
0000
,
0023
0030
0040
0000
0000
0000
0000
0000
,
0000
0000
0000
0030
0002
0000
0000
0000
0000
0000
0000
0000
0000
0000
0000
0000
,
1003
0000
0002
0000
0000
0000
0000
0003
,
0100
0010
0200
0000
0000
0000
0000
0000
,
0310
0002
0000
0003
,
0010
0100
0001
0010
0100
1000
0000
0001
,
0000
0002
0000
0000
0003
0001
0000
0000
,
0010
0000
0202
0000
0003
0001
0000
0000
,
0001
0000
0001
0010
,
0310
4004
0000
0000
,
0000
0000
0000
0000
0000
0000
0000
3003
,
0001
1000
0001
1000
0000
0001
0000
0001
,
1000
0220
0000
0000
0000
0000
0000
0000
,
0000
0000
1330
0001
0100
0010
0000
0000
,
1000
0001
0100
0010
0100
0001
0000
0000
,
0001
0000
0010
1000
0001
0100
0000
0000
,
0010
0000
0001
0100
0010
0100
0001
0010
,
1000
0010
0200
0000
0320
0000
2030
0000
,
3002
0203
0320
2030
,
3020
0230
0000
0300
,
0010
0000
0200
0000
0000
0300
1001
0000
,
0001
0000
0110
0000
0000
1000
0000
0000
,
0010
0000
0002
0000
2000
0003
0020
3000
,
0130
0000
0001
0000
0010
1000
0000
0000
,
0001
2002
0000
3003
,
0001
2002
0003
0002
,
3000
0000
2000
0003
0000
0000
3002
0000
,
0000
0003
1000
0000
0010
0100
0000
0000
,
0010
4004
0000
0000
,
0000
0000
0000
0000
3003
0000
0001
0000
0000
0010
0000
0000
0100
0000
0000
0010
0000
0000
0000
0000
0000
0000
0000
0000
,
0001
0000
0010
1000
0100
1000
0000
0000
,
0010
0000
0100
0001
0100
0010
0000
0000
,
0001
0000
0010
0000
0000
0000
0010
1000
,
0001
0100
0220
0000
0330
0000
0022
0000
,
0000
0033
0220
0000
0000
0330
0022
0000
,
0000
0033
0110
0000
0001
1000
0000
0010
,
0000
0100
0001
0000
2002
0000
0000
0000
,
0000
0000
0000
0000
3003
0000
0001
1000
,
0000
0100
0010
0000
0001
1000
0000
0000
,
2002
0000
0000
0000
,
0000
0000
0000
0000
,
0000
0000
0000
0000
,
0000
0000
3003
0000
;

//---------------dance-single - Medium----------------
#NOTES:
     dance-single:
     Medium:
     Easy:
     5:
     0.223,0.304,0.025,0.278,0.000:
0000
0000
0000
0000
,
0000
0000
0000
0000
,
0000
0000
0000
0000
,
0000
0000
0000
0000
,
0000
0000
0000
0000
,
0000
0000
0000
0000
,
0000
0000
0000
0000
,
0000
0000
0000
0000
,
0000
0000
0000
0000
,
0000
0000
1000
0000
,
0001
0000
0100
0000
,
0010
0000
1000
0000
,
0010
0000
0001
0010
,
0001
0000
1000
0000
,
1000
0000
0001
0000
,
0001
0000
0100
0000
,
0010
0000
0100
0010
,
1000
0000
0001
0000
0000
0010
0000
0000
,
0010
0000
1000
0000
0000
0100
0000
0000
,
0010
0000
0001
0000
0000
0010
0000
0000
,
0100
0000
0020
0000
0000
0000
0000
0030
,
0010
0000
0010
0000
0000
0020
0000
0000
,
0030
2000
0000
3002
,
0000
0203
0000
0000
,
0300
0220
0000
0000
,
0000
0330
0000
0000
,
0000
1000
0000
0000
,
0000
0001
0000
0000
,
0000
0000
0000
0100
,
0000
0010
0000
0000
,
0000
1000
0000
0000
,
0000
0001
0000
0000
,
0000
0100
0000
0010
,
0001
0020
0000
1030
,
0000
0200
0000
0310
,
0000
0002
0000
0103
,
0000
0020
0000
0130
,
1000
0001
0010
0000
1000
0000
0000
0010
,
0000
0110
0000
0000
0000
0200
0000
0000
,
2300
0000
0002
3000
0000
0203
0000
0000
,
0320
0000
0000
2030
0000
0000
3001
0000
,
0100
0020
0000
0000
,
0000
0000
0000
0000
0000
0000
0000
0030
,
0001
0100
0010
0100
0000
0010
0000
0001
,
0000
0020
0000
0000
0000
0000
0000
0000
,
0030
0001
1000
0010
,
0100
0010
1000
0001
,
0100
0010
1000
0010
,
0100
0001
0010
0010
,
0010
0001
0010
1000
,
0100
0010
0001
0010
,
0100
0000
0020
0000
0000
0000
0000
0030
,
1000
0010
0000
0001
,
0010
0000
0100
0000
0000
0010
0000
0000
,
1000
0010
0100
0001
,
0010
0000
1000
0000
0100
0010
0000
0000
,
0001
0000
0002
0000
0000
0000
0000
0003
,
0001
0000
0020
0000
0000
0030
2000
0000
,
0000
3002
0000
0203
,
0000
0000
0320
0000
0000
0000
0000
0030
,
1000
0002
0103
0010
,
1000
0001
0001
0010
,
1000
1000
1000
0100
,
0010
0001
0001
0001
,
0100
1000
0100
0010
,
0001
0020
0000
2030
,
0000
3020
0000
0230
,
0000
0000
0310
0000
1000
0000
0000
0001
,
0000
0000
0200
0000
,
0000
0000
0000
0300
0000
0000
0010
0000
,
0000
1000
0000
0000
0001
0000
0000
0000
,
2002
0000
0000
0000
,
0000
0000
0000
0000
,
0000
0000
0000
0000
,
0000
0000
0000
3003
0000
0000
0000
0000
;

//---------------dance-single - Blank----------------
#NOTES:
     dance-single:
     Blank:
     Beginner:
     1:
     0.140,0.213,0.016,0.213,0.000:
0000
0000
0000
0000
,
0000
0000
0000
0000
,
0000
0000
0000
0000
,
0000
0000
0000
0000
,
0000
0000
0000
0000
,
0000
0000
0000
0000
,
0000
0000
0000
0000
,
0000
0000
0000
0000
,
0000
0000
0000
0000
,
0000
1000
0000
1000
,
0000
0001
0000
0001
,
0000
0010
0000
0010
,
0000
0100
0000
0100
,
0000
0010
0000
0010
,
0000
0100
0000
0100
,
0000
0010
0000
0010
,
0000
1000
0000
1000
,
0000
0010
0000
0010
,
0000
0020
0000
0030
,
0000
2000
0000
0000
,
3000
0002
0000
0000
,
0003
0000
0000
0000
0000
0020
0030
0000
,
0000
1000
0000
0100
,
0000
0200
0000
0000
,
0000
0000
0300
0000
,
0000
1000
0000
0000
,
0000
0001
0000
0000
,
0000
0200
0000
0000
,
0000
0300
0000
0000
,
0000
1000
0000
0000
,
0000
0001
0000
0000
,
0000
2000
0000
0000
,
0000
3000
0000
0000
,
0000
0020
0000
0000
,
0030
2000
0000
0000
,
3000
0002
0000
0000
,
0000
0203
0000
0000
,
0310
0000
0000
0100
0000
0000
0000
0010
,
0000
0020
0000
0000
0030
0000
0000
0000
,
0000
0000
1000
0000
0000
0100
0000
0000
,
1000
0000
0000
0100
0000
0000
1000
0000
,
0000
0004
0000
0000
,
0000
0000
0000
0003
,
0000
1000
0000
0000
,
0020
0000
0000
0000
,
0030
0000
1000
0000
,
1000
0000
0010
0000
,
0010
0000
0100
0000
,
0100
0000
0001
0000
,
0001
0000
1000
0000
,
0010
0000
0100
0000
,
0010
0000
0100
0000
,
0010
0000
0100
0000
,
0010
1000
0000
0010
,
0000
0020
0030
0000
,
0000
0001
0000
0010
,
0000
0200
0000
0300
,
0000
0020
0000
2030
,
0000
3002
0000
0023
,
0000
0230
0000
0000
,
0000
0340
0000
0000
,
0000
0030
1000
0000
,
1000
0000
0001
0000
,
0001
0000
0010
0000
,
0010
0000
0100
0000
,
0100
0002
0000
2000
,
0000
0003
0002
0000
0000
3000
2000
0000
,
0000
3003
1001
0000
0000
0000
0000
0000
,
0000
0000
0000
0000
,
0000
0000
0000
1000
,
0000
0001
0000
0000
1000
0000
0000
0000
,
2002
0000
0000
0000
,
0000
0000
0000
0000
,
0000
0000
0000
0000
,
0000
0000
3003
0000
;

//---------------dance-double - Easy----------------
#NOTES:
     dance-double:
     Easy:
     Easy:
     5:
     0.325,0.497,0.115,0.515,0.020:
00000000
00000000
00000000
00000000
,
00000000
00000000
00000000
00000000
,
00000000
00000000
00000000
00000000
,
00000000
00000000
00000000
00000000
,
00000000
00000000
00000000
00000000
,
00000000
00000000
00000000
00000000
,
00000000
00000000
00000000
00000000
,
00000000
00000000
00000000
00000000
,
00000000
00000000
00000000
00000000
,
00000000
00000000
00000000
00000000
,
00000000
00100000
00000000
00100000
00000000
01000000
00000000
00010000
,
00000000
01000000
00000000
00100000
00000000
01000000
00000000
00010000
,
00000000
20000000
00000000
00010000
00000000
01000000
30000000
00100000
,
00000000
00010000
00000000
00100000
00000000
00010000
00000000
01000000
,
00000000
00010000
00000000
01000000
00000000
00100000
00000000
00010000
,
00000000
01000000
00000000
00100000
00000000
00010000
00000000
01000000
,
00000000
00200000
00000000
00000000
00000000
00300000
00002000
00000000
,
00013000
00010000
01000000
00010000
00001000
00100000
01000000
00000000
,
00010000
00000200
00000000
00000000
00000300
00000000
00010000
00000000
,
00200000
00000000
00000000
00000000
00000000
00000000
00000000
00000000
00000000
00000000
00000000
00000000
00000000
00000000
00000000
00300000
00000000
00000000
00000000
00000000
00000000
00000000
00000000
00000000
00020000
00000000
00000000
00000000
00000000
00000000
00000000
00000000
00030000
00000000
00000000
00000000
00000000
00000000
00000000
00000000
00000000
00000000
00100000
00000000
00000000
00000000
00000000
00000000
,
00000000
00020000
00030000
00000000
00002000
00003000
00000000
00200000
,
00000000
00300200
00000000
00000000
00000000
00000000
00000300
00010000
,
00000010
00010000
00000010
00000000
00020000
00030000
00000100
00001000
,
00000000
00000100
00000000
00000010
00000100
00001000
00000000
00020000
,
00000000
00000200
00000000
00000000
00000000
00000000
00000000
00000000
,
00000000
00030300
00000000
00000000
00000000
00000000
00000000
00000000
,
00000000
00001000
00000000
00000010
00000100
00000000
00000100
00001000
,
00000020
00000030
00000000
00000000
00000000
00001000
00000000
00000010
,
00000000
00000200
00000000
00000000
00000000
00000000
00000000
00000300
,
00000000
00000000
00000000
00000000
,
00000000
00000010
00000000
00000100
00000001
00000000
00000100
00000001
,
00000020
00000000
00000000
00000000
00000030
00000100
00000000
00001000
,
00000000
00000200
00000000
00000000
00000000
00000000
00000300
00000000
,
00000000
00000400
00004000
00000000
00000000
00000000
00000000
00000000
,
00003000
00000000
00002300
00000000
00000000
00000000
00000000
00000000
00000000
00000000
00000000
00003000
00000000
00000000
00000010
00000000
,
00000000
00000200
00000000
00000000
00000000
00000000
00000300
00000000
,
00100000
00010000
00200000
00000000
00000000
00000000
00300000
00001000
,
00000000
00000200
00000000
00000000
00000000
00000300
00000000
00000000
,
00000100
00100000
00000100
00100000
00001000
00000100
00000000
00100000
,
00000000
00200200
00000000
00310300
00000100
00001000
00100000
00010000
,
00010000
00000000
01001000
00000000
00000000
00101000
00000000
00000000
,
01001000
00000000
00000000
00101000
00000000
00000000
01001000
00000000
,
00101000
02002000
00000000
00000000
,
00000000
00000000
00000000
00000000
00000000
00000000
00000000
03003000
,
01000000
00001000
00100000
01000000
00000000
00010000
00000000
00001000
,
01000000
02100000
03000000
01000000
00100000
01000000
00100000
10000000
,
00010000
10000000
00020000
00030000
10000000
00000000
00100000
00000000
,
01000000
00010000
02000000
03000000
,
01000000
00010000
20000000
30000000
,
00200000
00300000
00002000
00003000
00200000
00000000
00000000
00300000
,
00010000
00000000
00002000
00000000
02000000
00003000
00020000
03000000
,
00200000
00030000
00002000
00300000
02000000
00003000
00020000
03000000
,
00200000
00000000
00030000
00000000
00000000
00020000
00300000
00000000
00000000
00000000
00000000
00000000
00000000
00030000
00000000
00000000
,
00000100
00000000
00000000
00000000
00000000
00000000
00000000
00000000
00000000
00000000
00000000
00000000
00000000
00000000
00000000
00000000
00000000
00000000
00000000
00000000
00000000
00000000
00000000
00000000
00000000
00000000
00000000
00000000
00000000
00000000
00000000
00000000
00000000
00000000
00000000
00000000
00000000
00000000
00000000
00000000
00000000
00000000
00000000
00000000
00000000
00000000
00000000
00000000
00020000
00000000
00000000
00000000
00000000
00000000
00000000
00000000
00000000
00000000
00000000
00000000
00000000
00000000
00000000
00000000
00000000
00000000
00000000
00000000
00000000
00000000
00000000
00000000
00000000
00000000
00000000
00000000
00000000
00000000
00000000
00000000
00000000
00000000
00000000
00000000
00000000
00000000
00000000
00000000
00000000
00000000
00000000
00000000
00000000
00000000
00000000
00000000
00000000
00000000
00000000
00000000
00000000
00000000
00000000
00000000
00000000
00000000
00000000
00000000
00000000
00000000
00000000
00000000
00000000
00000000
00000000
00000000
00000000
00000000
00000000
00000000
00000000
00000000
00000000
00000000
00000000
00000000
00000000
00000000
00030000
00000000
00000000
00000000
00000000
00000000
00000000
00000000
00000000
00000000
00000000
00000000
00000000
00000000
00000000
00000000
00000000
00000000
00000000
00000000
00000000
00000000
00000000
00000000
00000000
00000000
00000000
00000000
00000000
00000000
00000000
00000000
00000000
00000000
00001000
00000000
00000000
00000000
00000000
00000000
00000000
00000000
00000000
00000000
00000000
00000000
00000000
00000000
00000000
00000000
00000000
00000000
00000000
00000000
00000000
00000000
00000000
00000000
00000000
00000000
00000000
00000000
00000000
00000000
,
00000000
00000100
00000000
00000000
00000000
00000100
00000000
00000000
00000000
00000000
00100000
00000000
00000000
00000000
00000000
00000000
,
00000100
00000000
00020000
00000000
00000000
00030000
00001000
00000000
,
00000100
00000000
00000000
00000000
00010000
00000000
00000000
00000000
00000100
00000000
00001000
00000000
00000000
00000000
00000000
00010000
,
00000000
00020000
00000000
00030000
,
00000000
00000000
00000000
00022000
00033000
00000000
00000000
00002200
,
00003300
00000000
00000000
00022000
00033000
00000000
00000000
00022000
,
00033000
00010000
00001000
00000100
,
00000010
00000004
00000000
00000000
,
00000000
00000000
00000003
00000001
00000000
00001000
00000010
00000000
,
00000000
00000100
00000000
00000010
00000000
00000001
00000200
00000000
,
00000000
00000310
00000000
00001000
00000000
00000100
00000020
00000000
,
00000000
00001030
00000000
00000020
00000000
00000030
00000000
00001000
,
00000010
00000000
00010000
00000000
00000010
00000000
00020000
00000000
00000000
00000000
00000000
00000000
00000000
00030000
00000020
00000000
,
00000000
00000000
00000030
00020000
00000000
00030000
00000000
00002000
,
00000000
00000000
00003000
00020000
00000000
00031000
00000010
00000000
,
00001000
00000000
00000100
00010000
00000000
00000020
00000000
00000000
,
00000000
00000000
00000000
00000000
00000000
00000030
00000000
00100000
,
00100000
00000000
00000100
00000100
00000000
00100000
00100000
00000000
,
00000000
00200200
00000000
00000000
00000000
00000000
00000000
00000000
,
00000000
00000000
00000000
00000000
,
00000000
00000000
00000000
00000000
,
00000000
00000000
00000000
00000000
00000000
00000000
00000000
00300300
;

//---------------dance-double - Medium----------------
#NOTES:
     dance-double:
     Medium:
     Medium:
     7:
     0.439,0.590,0.115,0.671,0.053:
00000000
00000000
00000000
00000000
,
00000000
00000000
00000000
00000000
,
00000000
00000000
00000000
00000000
,
00000000
00000000
00000000
00000000
,
00000000
00000000
00000000
00000000
,
00000000
00000000
00000000
00000000
,
00000000
00000000
00000000
00000000
,
00000000
00000000
00000000
00000000
,
00000000
00000000
00000000
00000000
,
00000000
00000000
00000000
00000000
,
00000000
00100000
10000000
00100000
00000000
01000000
00100000
00010000
,
00000000
01000000
10000000
00100000
00000000
01000000
00100000
00010000
,
00000000
20000000
00100000
00010000
00000000
01000000
30010000
00100000
,
00000000
00000000
00000000
00010000
00000000
00000000
02000000
00000000
03000000
00100000
00000000
00000000
00001000
00000000
00000000
00010000
00000000
00000000
00200000
00000000
00000000
01300000
00000000
00000000
,
00000000
00010000
00100000
01000000
00000000
00100000
00001000
00010000
,
00000000
01000000
00010000
00100000
00000000
00010000
00100000
01000000
,
00200000
00000000
00000000
00000000
00000000
00300000
00002000
00000000
,
00013000
00010000
01000000
00010000
00001000
00100000
01000000
00010000
,
00010000
00000200
00000000
00000000
00000300
00000000
00010000
00000000
,
00200000
00000000
00000000
00000000
00000000
00000000
00000000
00000000
00000000
00000000
00000000
00000000
00000000
00000000
00000000
00300000
00000000
00000000
00000000
00000000
00000000
00000000
00000000
00000000
00020000
00000000
00000000
00000000
00000000
00000000
00000000
00000000
00030000
00000000
00000000
00000000
00000000
00000000
00000000
00000000
00000000
00000000
00100000
00000000
00000000
00000000
00000000
00000000
,
00000000
00020000
00030000
00000000
00002000
00003000
00000000
00200000
,
00000000
00000200
00000000
00000000
00000000
00000000
00300300
00010000
,
00000010
00010000
00000010
00000000
00020000
00030000
00000100
00001000
,
00000000
00000100
00000000
00000010
00000100
00001000
00000000
00020000
,
00000000
00000200
00000000
00030300
00020200
00030300
00010000
00010000
,
00000000
00000000
00000000
00010100
00000000
00000000
00000000
00000000
00010000
00000000
00000010
00000000
00010000
00000000
00000010
00000000
00001000
00000000
00000100
00000000
00001000
00000000
00000100
00000000
,
00000100
00000000
00000010
00000000
00000100
00000000
00000000
00000000
00000000
00000001
00000000
00000000
00000010
00000000
00000000
00000000
00000000
00000000
00000010
00000000
00000000
00000100
00000000
00000000
,
00000020
00000030
00000000
00000000
00000000
00001000
00000000
00000010
,
00000000
00000200
00000000
00000000
00000000
00000000
00000000
00000300
,
00000000
00000000
00000000
00000000
,
00000000
00000010
00000000
00000100
00000001
00000000
00000100
00000001
,
00000200
00000000
00000000
00000000
00000300
00001000
00000000
00010000
,
00000000
00000200
00000000
00000000
00000000
00000000
00000300
00000000
,
00000000
00000200
00002300
00023000
00030200
00002300
00003020
00002030
,
00003200
00000000
00002300
00000000
00000000
00000000
00000000
00000000
00000000
00000000
00000000
00003000
00000000
00000000
00000010
00000000
,
00000000
00002000
00000000
00000000
00000000
00000000
00003000
00100000
,
00010000
00200000
00000000
00000000
00000000
00300000
00000000
00001000
,
00000000
00000200
00000000
00000000
00000000
00000300
00000000
00000000
,
00000100
00100000
00000100
00100000
00001000
00000100
00000000
00100000
,
00000000
02002000
00000000
03103000
00001000
00010000
00100000
00010000
,
01000000
00100000
01000000
00100000
00001000
00100000
00010000
00001000
,
01000000
00010000
00001000
01000000
00100000
00010000
00001000
00100000
,
00001000
00010000
02002000
00000000
00000000
00000000
00000000
00000000
,
00000000
03003000
20000000
32000000
03020000
02030000
03200000
01300000
,
00100000
00010000
01000000
10000000
00000000
00100000
00000000
00010000
,
01000000
02100000
03000000
01000000
00100000
01000000
00100000
10000000
,
00010000
10000000
00020000
00030000
10000000
00010000
00100000
01000000
,
00001000
01000000
00001000
00010000
00200000
00010000
00300000
00100000
,
00001000
00100000
00001000
00010000
02000000
00010000
03000000
00000000
,
00200000
00300000
00102000
00000000
00000000
00000000
00003000
00000000
,
00010000
00001000
00002000
00000000
02000000
00003000
00020000
03000000
,
00200000
00030000
00002000
00300000
02000000
00003000
00020000
03000000
,
00200000
00000000
00030000
00000000
00000000
00020000
00300000
00000000
00000000
00000000
00000000
00000000
00000000
00030000
00000000
00000000
,
00000100
00000000
00000000
00000000
00000000
00000000
00000000
00000000
00000000
00000000
00000000
00000000
00000000
00000000
00000000
00000000
00000000
00000000
00000000
00000000
00000000
00000000
00000000
00000000
00000000
00000000
00000000
00000000
00000000
00000000
00000000
00000000
00000000
00000000
00000000
00000000
00000000
00000000
00000000
00000000
00000000
00000000
00000000
00000000
00000000
00000000
00000000
00000000
00020000
00000000
00000000
00000000
00000000
00000000
00000000
00000000
00000000
00000000
00000000
00000000
00000000
00000000
00000000
00000000
00000000
00000000
00000000
00000000
00000000
00000000
00000000
00000000
00000000
00000000
00000000
00000000
00000000
00000000
00000000
00000000
00000000
00000000
00000000
00000000
00000000
00000000
00000000
00000000
00000000
00000000
00000000
00000000
00000000
00000000
00000000
00000000
00000000
00000000
00000000
00000000
00000000
00000000
00000000
00000000
00000000
00000000
00000000
00000000
00000000
00000000
00000000
00000000
00000000
00000000
00000000
00000000
00000000
00000000
00000000
00000000
00000000
00000000
00000000
00000000
00000000
00000000
00000000
00000000
00030000
00000000
00000000
00000000
00000000
00000000
00000000
00000000
00000000
00000000
00000000
00000000
00000000
00000000
00000000
00000000
00000000
00000000
00000000
00000000
00000000
00000000
00000000
00000000
00000000
00000000
00000000
00000000
00000000
00000000
00000000
00000000
00000000
00000000
00001000
00000000
00000000
00000000
00000000
00000000
00000000
00000000
00000000
00000000
00000000
00000000
00000000
00000000
00000000
00000000
00000000
00000000
00000000
00000000
00000000
00000000
00000000
00000000
00000000
00000000
00000000
00000000
00000000
00000000
,
00000000
00000100
00000000
00000000
00000000
00010100
00000000
00000000
00000000
00000000
00101000
00000000
00000000
00000000
00000000
00000000
,
00001100
00000000
00020000
00000000
00200000
00030000
00001000
00300000
,
00000100
00000000
00000000
00000000
00010000
00000000
00000000
00000000
00000100
00000000
00001000
00000000
00000000
00000000
00000000
00010000
,
00000000
00020000
00000000
00030000
,
00000000
00010000
00010000
00002000
00003000
00001000
00001000
00000200
,
00000300
00000000
00000100
00000000
00000100
00000000
00002000
00000000
00000000
00003000
00010000
00000000
00010000
00000000
00002000
00000000
,
00013000
00000100
00010000
00010000
00000100
00010000
00000100
00001000
,
00000010
00001000
00000001
00000020
00000000
00000000
00000000
00000000
,
00000000
00000000
00000030
00000001
00000100
00001000
00000020
00000000
,
00000030
00000100
00000000
00000010
00001000
00000001
00000200
00000000
,
00000000
00000310
00000000
00001000
00000001
00000100
00000020
00000000
,
00000000
00001030
00000000
00000020
00000000
00000030
00000000
00001000
,
00000010
00000000
00001000
00000000
00000100
00000000
00020200
00000000
00000000
00000000
00000000
00000000
00000000
00030300
00002020
00000000
,
00000000
00000000
00003030
00020200
00000000
00030300
00000000
00022000
,
00000000
00000000
00000000
00000000
00033000
00000000
00002000
00000000
00000000
00003000
00010000
00000000
00000010
00000000
00000000
00000000
,
00001000
00000000
00000100
00010000
00000000
00000020
00000000
00000000
,
00000000
00000000
00000000
00000000
00000000
00000030
00000000
00100000
,
00100000
00000000
00000100
00000100
00000000
00100000
00100000
00000000
,
00000000
00200200
00000000
00000000
00000000
00000000
00000000
00000000
,
00000000
00000000
00000000
00000000
,
00000000
00000000
00000000
00000000
,
00000000
00000000
00000000
00000000
00000000
00000000
00000000
00300300
;

//---------------dance-double - Hard----------------
#NOTES:
     dance-double:
     Hard:
     Hard:
     9:
     0.625,0.900,0.376,0.614,0.331:
00000000
00000000
00000000
00000000
,
00000000
00000000
10010000
00000000
,
00000000
00000000
00000000
00000000
00000000
00010000
00000000
00100000
00000000
02000000
00000000
00000000
00000000
00000000
00000000
03100000
,
00000000
20000000
00000000
00000000
00000000
00000000
00000000
00000000
30000000
00000000
00010000
00100000
01000000
00200000
00000000
00000000
,
00000000
00000000
00000000
00000000
00000000
00300000
00001000
00000000
00010000
00000000
02000000
00000000
00000000
00000000
00000000
00000000
,
00000000
03100000
00000000
00020000
00000000
00000000
00000000
00000000
00030000
00100000
00010000
00002000
00000000
00000000
00000000
00000000
,
00000000
00003000
00010000
00000000
00200000
00000000
00000000
00000000
00000000
00300000
00010000
01000000
00002000
00000000
00000000
00003000
,
00020000
00000000
00000000
00000000
00230000
00000000
00000000
00000000
00300000
00000000
00000000
00010000
00001000
00020000
00000000
00000000
,
00000000
00000000
00030000
00001000
00000000
00000200
00000000
00000000
00000000
00200300
00000000
00000000
00300000
00000000
00100200
00000000
,
00000000
00000000
00000000
00200000
00000000
00000000
00000000
00000000
,
00300300
00001000
00100000
00001000
00000100
00010000
00001000
00000100
,
00001000
00010000
00100000
00001000
00100000
00010000
00001000
00000100
,
00000100
00020000
00000100
00000010
00030100
00001000
00010000
00000100
,
00001000
00000000
00000000
00000100
00000000
00000000
00020200
00000000
00030300
00001000
00000000
00000000
00000010
00000000
00000000
00000100
00000000
00000000
00002000
00000000
00000000
00013000
00000000
00000000
,
00000010
00000100
00001000
00010000
00000100
00001000
00000010
00000100
,
00001000
00010000
00000100
00001000
00000010
00000100
00001000
00010000
,
00000200
00000000
00000000
00000000
00000000
00000300
00000002
00000000
,
00000013
00000010
00001000
00000010
00000001
00000100
00001000
00000100
,
00000011
00000001
00001000
00000010
00000110
00000000
00001000
00001000
,
00001000
00000000
00000000
00000000
00000000
00000000
00002020
00000000
00000000
00000000
00000000
00000000
00000000
00000000
00000000
00003030
00000000
00000000
00000000
00000000
00000000
00000000
00000000
00000000
00000200
00000000
00000000
00000000
00000000
00000000
00000000
00000000
00000300
00000000
00000000
00000000
00000000
00000000
00000000
00000000
00000000
00000000
00001000
00000000
00000000
00000000
00000000
00000000
,
00000000
00002020
00003030
00000000
00000200
00000300
00000000
00020000
,
00000000
00000020
00000000
00000000
00000000
00000000
00030030
00001000
,
00000010
00000000
00010000
00000000
00000010
00000000
00000000
00000000
00040000
00030000
00000000
00000000
00000100
00000000
00001000
00000000
,
00000000
00000100
00000000
00000010
00000100
00001000
00000000
00020000
,
00000000
00000200
00000000
00030300
00020200
00030300
00010000
00010000
,
00000000
00000000
00000000
00101000
00000000
00000000
00000000
00000000
00100000
00000000
00000100
00000000
00100000
00000000
00000100
00000000
00010000
00000000
00001000
00000000
00010000
00000000
00001000
00000000
,
00010000
00000000
00001000
00000000
00010000
00000000
00000000
00000000
00000000
00000100
00000000
00000000
00001000
00000000
00000000
00000000
00000000
00000000
00001000
00000000
00000000
00010000
00000000
00000000
,
00002000
00003000
00000000
00000000
00000000
00100000
00000000
00001000
,
00000000
00020000
00000000
00000000
00000000
00000000
00000000
00030000
,
00010000
00100000
00010000
00100000
01000000
00001000
00010000
00100000
,
01000000
00010000
01000000
00001000
00010000
00000000
00100000
00010000
,
00100000
00000000
00000000
00000000
00000000
00100000
00000000
01000000
,
00000000
00000000
00020000
00000000
00000000
00000000
00000000
00000000
00000000
00000000
00000000
00000000
00030000
00000000
00000000
00020000
,
00000000
00030000
00000000
00100000
01000000
10000000
00100000
01000000
10000000
00100000
01000000
10000000
00000000
00000000
00010000
00000000
,
00000000
00000000
02000000
00000000
00000000
00000000
00000000
00000000
00000000
00000000
00000000
03000000
00000000
00000000
00010000
00000000
,
00000000
00200000
00000000
00000000
00000000
00000000
00300000
00000000
,
10000000
01000000
20000000
00000000
00000000
00000000
00000000
30000000
,
00010000
00002000
00000000
00003000
,
00001000
01000000
00001000
01000000
00010000
00001000
00000000
01000000
,
00000000
00000000
01001000
00000000
00000000
00000000
00010000
00100000
00001000
00000000
00010000
00000000
00100000
00000000
00010000
00000000
,
01000000
00100000
01010000
00100000
00010000
00011000
00100000
00001000
,
00001100
00100000
00001000
00011000
00010000
00001000
00001100
00010000
,
00000100
00000000
00001000
00000000
00200200
00000000
00300300
00000000
00001000
00100000
00010000
00100000
00001000
00100000
00000100
00010000
,
00001000
00100000
00010000
00001000
00100000
00001000
00010000
00001000
00000100
00010000
00000100
00010000
00001000
00000100
00010000
00000000
,
00001000
00000100
00010000
00100000
00000000
00001000
00000000
00100000
,
00001000
00002100
00003000
00001100
00001100
00001100
00001100
00010010
,
00010010
00010010
00010020
00000030
00010000
00000010
00000100
00001000
,
00000010
00010000
00000010
00000100
00002000
00000100
00003000
00001000
,
00000010
00001000
00000010
00000100
00020000
00000100
00030000
00000000
,
00000200
00000000
00000300
00000000
00000101
00000000
00000001
00000010
00000001
00000000
00000100
00000000
00000001
00000000
00001000
00000000
,
00000010
00001000
00000002
00000000
00002000
00000003
00000020
00003000
,
00000200
00000030
00000002
00000300
00002000
00000003
00000020
00003000
,
00000200
00000000
00000030
00000000
00000000
00000010
00000300
00000001
00000000
00000010
00000000
00000100
00000000
00001000
00000000
00000100
,
00000000
00000000
00000100
00000000
00000000
00000000
00000010
00000000
00000000
00000000
00001000
00000000
00000000
00000000
00010000
00000000
00000000
00000000
00002000
00000000
00000000
00000000
00000000
00000000
00003000
00000000
00000000
00000100
00000000
00000000
00000000
00000000
,
00000000
00000010
00000000
00000000
00000000
00001010
00000000
00000000
00000000
00000000
00010100
00000000
00000000
00000000
00000000
00000000
,
00000110
00000000
00002000
00000000
00020000
00003000
00000100
00030000
,
00000010
00000000
00000000
00000000
00000000
00000000
00001100
00000000
00000000
00000000
00000000
00000000
00000010
00000000
00000000
00000100
00000000
00000000
00000000
00000000
00000000
00000000
00001000
00000000
,
00000000
00200100
00000000
00300000
,
00000000
00000000
00100000
00001000
00100000
00001000
00020000
00000000
00030000
00000000
00010000
00000100
00010000
00000100
00002000
00000000
,
00003000
00000000
00001000
00100000
00001000
00100000
00020000
00000000
00000000
00030000
00010000
00100000
00010000
00100000
00020000
00000000
,
00131000
00101000
00101000
00100000
00001000
00100000
00011000
00011000
,
00110000
00000000
01001000
00000000
01001000
00000000
01001000
00000000
00001000
01000000
00001000
00100000
00010000
01000000
00100000
00010000
,
01000000
00010000
00100000
00001000
00010000
00100000
00001000
00000000
00100000
00000000
01000000
00000000
00020000
00000000
00000000
00000000
,
00030000
00100000
00000000
00010000
01000000
00001000
00200000
00000000
,
00000000
00310000
00000000
01000000
00001000
00100000
00020000
00000000
,
00000000
00000000
01030000
00000000
00000000
00000000
00010000
00000000
00100000
00001000
00100000
00000000
00010000
00000000
01000000
00000000
,
00010000
00000000
01000000
00000000
00100000
00000000
20200000
00000000
30300000
00000000
00100000
01000000
00100000
01000000
00020000
00000000
,
00000000
00030000
00100000
10000000
00100000
10000000
02000000
00000000
00000000
03000000
00010000
01000000
00010000
01000000
00200000
00000000
,
10300000
01000000
00010000
01100000
00000000
10000000
00010000
00000000
,
01000000
00000000
00100000
10000000
00000000
00020000
00000000
00000000
,
00000000
00000000
00000000
00000000
00000000
00030000
00000000
01000000
,
01100000
00000000
00001000
00011000
00000000
01000000
01001000
00000000
,
00000000
02002000
00000000
00000000
00000000
00000000
00000000
00000000
,
00000000
00000000
00000000
00000000
,
00000000
00000000
00000000
00000000
,
00000000
00000000
00000000
00000000
00000000
00000000
00000000
03003000
;
