#TITLE:Dancing Stars On Me;
#SUBTITLE:;
#ARTIST:u´s;
#TITLETRANSLIT:;
#SUBTITLETRANSLIT:;
#ARTISTTRANSLIT:;
#GENRE:;
#CREDIT:CHMEX;
#BANNER:banner.png;
#BACKGROUND:BGI.png;
#LYRICSPATH:;
#CDTITLE:;
#MUSIC:Dancing Stars On Me.mp3;
#OFFSET:0.000;
#SAMPLESTART:64.486;
#SAMPLELENGTH:12.000;
#SELECTABLE:YES;
#BPMS:0.000=137.000;
#STOPS:;
#BGCHANGES:0.000=BGA.avi=1.000=1=0=1=StretchNormal==CrossFade==,
99999=-nosongbg-=1.000=0=0=0 // don't automatically add -songbackground-
;
#KEYSOUNDS:;

//---------------dance-single - Blank----------------
#NOTES:
     dance-single:
     Blank:
     Hard:
     9:
     0.675,0.712,0.457,0.780,0.181:
0000
0000
0000
0000
,
0000
0000
0000
2000
,
0000
0001
0000
3002
,
0000
1000
0000
2003
,
0000
0010
0000
3002
,
0000
0000
0000
0000
0100
0000
0000
0000
0000
0000
0003
0000
1000
0000
0100
0001
,
1000
0010
1000
0001
0100
0001
1000
0100
0010
0000
0010
0000
1100
0000
0010
0000
,
1010
0100
0101
0010
0100
0110
0100
1010
,
0001
1000
0010
1100
0010
0100
1001
0010
,
0101
0000
0010
0000
0110
0000
0001
0000
0100
0000
2020
0000
0000
3030
0001
0010
,
0001
0010
0100
1001
0110
0110
0010
0100
,
0020
0000
0001
0030
0100
0000
1000
0000
0010
0000
0002
0000
0010
0000
0100
0003
,
1000
0010
0000
0200
0010
0300
0022
0030
,
0010
0100
0000
1003
0000
0200
0000
0300
,
0010
0000
0200
0320
2030
3002
0203
0300
,
0010
1000
0020
0230
0320
2030
3002
0003
,
1010
0110
0110
0110
,
0110
0000
0011
0000
0002
0013
0010
0110
,
0010
1010
0100
1100
1100
1001
0110
0100
,
0010
0200
0301
0010
0100
2000
0100
3010
,
0001
0000
0100
0000
0000
0000
0200
0000
0010
0300
0000
0000
0100
0000
0000
0000
,
0001
0020
0030
0200
0300
2000
0001
0010
,
3100
0010
2000
0100
3100
1000
0100
0010
,
0100
0001
0200
0010
0310
0100
0001
0010
,
0100
0000
0010
0000
0002
0000
0003
0100
0000
0000
1000
0000
0200
0000
0000
0000
,
0310
0200
0000
2300
0000
3020
0000
0000
,
0030
0000
0202
0303
2020
3030
0202
0303
,
0220
0000
0330
0000
2002
0000
3003
0000
0000
0000
0010
1000
0010
0000
0010
0000
,
0100
0000
0010
0000
0002
0000
0000
0000
0003
0000
0000
0000
2010
0000
0000
3000
,
0012
0000
0000
0003
2100
0000
0000
3000
0000
0000
0100
0010
1000
0000
0100
0000
,
0010
0001
0200
0000
0300
0000
0012
0003
,
1200
0000
0300
0000
2002
0000
0000
0000
3003
0000
0100
0001
0010
0000
1000
0000
,
0010
0000
0100
0000
0020
0000
0000
0030
1000
0000
0001
0000
0010
0000
0100
0000
,
0010
1000
0010
0100
0001
0010
1000
0100
,
1000
0000
0010
0000
1000
0000
0001
0000
0100
0000
0010
1000
0010
0000
0000
0000
,
0000
0000
1001
0000
0000
0000
0000
0000
0100
0000
0000
0000
1000
1000
0001
0001
,
1000
1000
0010
0010
0100
0100
0010
0010
0100
0100
0001
0001
0001
0000
0000
0000
,
0100
0010
0000
2000
3000
0020
0130
0010
,
0001
0000
0100
0000
1000
0000
0100
0010
0001
1000
0001
0100
0020
0000
0000
0030
,
0100
0010
0000
0200
0000
0301
1000
0010
,
1000
0000
0002
0000
0013
0000
0100
0010
0001
1000
0001
1000
0020
0000
1030
0000
,
0010
0000
0100
0000
0010
0000
1000
0000
0001
0000
0100
0000
2000
0000
0000
3000
,
1000
0000
0010
0000
1000
0000
0001
0000
0100
0000
0010
0000
1020
0000
0030
0100
,
0000
0000
1000
0000
0200
0000
0000
0310
0000
0000
0001
0000
0200
0000
0300
0000
,
0010
0000
1000
0000
0010
0100
0010
1000
0010
0100
0001
0100
1000
0000
0000
0000
,
0200
1300
0000
0100
0100
0010
0001
0010
,
0100
0000
0010
0000
0100
0000
1000
0100
0010
1000
0001
1000
0020
0000
0000
0000
,
0130
0000
1000
0000
2000
0000
0100
0000
3200
0000
0010
0300
0010
0000
0001
0000
,
0010
0000
0100
0000
1000
0000
0100
0010
0001
1000
0001
1000
0020
0000
0000
0000
,
0031
0010
0100
1000
0100
2000
3010
0200
,
0301
0010
2000
3000
0010
0100
2000
0100
,
3010
0001
0200
0010
0000
0310
0100
0000
,
0011
0110
1010
2002
,
0000
0000
0000
0000
3003
0100
0001
0010
,
0100
1000
0010
0100
0001
0010
0101
0010
,
1100
0000
0010
0000
1001
0000
0100
0000
0010
0000
2020
0000
0000
0000
0000
3030
,
0000
0000
1000
0010
1000
0000
0100
0000
0010
0000
0001
0000
0202
0000
0000
0000
,
0000
0000
0000
0000
,
0000
0000
0000
0000
,
0000
0000
0000
0000
0000
0000
0000
0303
;

//---------------dance-single - Blank----------------
#NOTES:
     dance-single:
     Blank:
     Beginner:
     1:
     0.156,0.168,0.010,0.057,0.000:
0000
0000
0000
0000
,
0000
0000
0000
0000
,
0000
0000
0000
0000
,
0000
0000
0000
0000
,
0000
0000
0000
0000
,
0000
0000
0000
0000
,
0000
0000
0000
1000
,
0000
1000
0000
0001
,
0100
0001
0010
0100
,
0000
0100
0000
0010
,
0000
0100
0000
0001
,
0000
0001
0000
1000
,
0000
1000
0000
0010
,
0000
0010
0000
0100
,
0000
0010
0001
0010
,
0000
0100
1000
0100
,
0000
0010
0000
0001
,
0000
0010
0000
0100
,
0000
1000
0000
0100
,
0000
0010
0000
0001
,
0000
0001
0000
1000
,
0000
1000
0000
0010
,
0000
0100
0001
0010
,
0000
0100
1000
0001
,
0000
0100
0000
0001
,
0000
1000
0000
0001
,
0000
1000
0001
0100
,
0010
0100
0000
0000
,
0000
0000
0000
1000
,
0001
0010
0000
0000
,
0000
0000
0000
0001
,
1000
0010
0000
0000
,
0000
0000
0000
0100
,
0000
0001
0000
1000
,
0000
0001
0000
0100
,
0000
0000
0000
0002
,
0000
0000
0000
1003
,
0000
0001
0000
0100
,
0000
0001
0010
0100
,
0000
1000
0000
0100
,
0000
0100
0010
0001
,
0000
0001
0000
0100
,
0000
1000
0000
0100
,
0000
0010
0000
0100
,
0000
1000
0000
1000
,
0000
0001
0000
0100
,
0000
0010
0001
0100
,
0000
1000
0000
0010
,
0000
0100
0001
0010
,
0000
1000
0000
0001
,
0000
0100
0000
0020
,
0000
0230
0000
0310
,
0001
0010
1000
0020
,
0000
0000
0000
0030
,
0001
0000
1000
0000
,
0001
0000
0100
0000
,
0010
0000
0100
0220
,
0000
0000
0000
0000
,
0000
0000
0000
0000
,
0330
0000
0000
0000
;

//---------------dance-single - Hard----------------
#NOTES:
     dance-single:
     Hard:
     Challenge:
     11:
     0.750,0.797,0.628,0.732,0.214:
0000
0000
0000
0000
,
0000
0000
0000
2000
,
0000
0001
0000
3002
,
0000
1000
0000
2003
,
0000
0010
0000
3002
,
0000
0000
0000
0000
0100
0000
0000
0000
0000
0000
0003
0000
1000
0000
0100
0001
,
1000
0010
1000
0001
0100
0001
1000
0100
0010
0000
0100
0000
1001
0000
0010
0000
,
1100
0010
0101
0110
0100
0110
0100
1010
,
0001
0100
0110
0010
0101
0100
1100
0010
,
1001
0000
0010
0000
0100
0000
0011
0000
0100
0000
2020
0000
0000
3030
0001
0010
,
0001
0000
0010
0001
0010
0100
1000
0000
1100
0000
0110
0000
0010
0000
0100
0000
,
0020
0000
0001
0030
0100
0000
1000
0000
0110
0000
0001
0000
0010
0000
0100
0000
,
1001
0010
0100
0010
0110
1000
0022
0033
,
0001
0100
0010
1000
0110
0100
0001
1000
,
0110
0100
0010
1000
0001
0100
0020
0030
,
0110
1000
0010
0100
0001
0010
0200
0300
,
0110
0010
0100
0010
0100
0001
0010
1000
,
0010
0000
0100
0000
0010
0000
0100
0000
0010
0000
0001
1000
0001
0000
0110
0000
,
0010
0110
0100
0100
1100
1001
0110
0100
,
0010
0200
0301
0010
0110
2000
0100
3010
,
1001
0000
0100
0000
0010
0000
0200
0300
0110
0000
0001
0000
0100
0000
0010
0000
,
0011
0010
0100
0100
0110
1000
0001
0010
,
1100
0010
2000
3100
1000
1100
0200
0300
,
0110
0100
0100
0010
0100
0010
0200
0300
,
0110
0010
0001
0010
1000
0010
0100
0001
,
0010
0100
0002
0013
0200
0020
0300
0000
,
0030
0000
0202
0303
2020
3030
0202
0303
,
0220
0000
0330
0000
2002
0000
3003
0000
0000
0000
0010
1000
0010
0000
0010
0000
,
0100
0000
0010
0000
0002
0000
0010
0000
0003
0000
1000
0000
2010
0000
0000
3000
,
0012
0000
0000
0003
2100
0000
0000
3000
0000
0000
0100
0010
1000
0000
0100
0000
,
0010
0000
0001
0000
0200
0000
0001
0000
0310
0000
0100
0001
2000
0000
3000
0000
,
0120
0000
0030
0000
2002
0000
0000
0000
3003
0000
0100
0001
0010
0000
1000
0000
,
0010
0000
0100
0000
0020
0000
0000
0030
0100
0000
1001
0000
0010
0000
0100
0000
,
0100
1000
0010
0001
1000
0010
0001
0100
,
0010
0000
1000
0000
0010
0000
0100
0000
0001
0000
0010
0100
0010
0000
0000
0000
,
0000
0000
1001
0000
0000
0000
0000
0000
0010
0000
0000
0000
1000
1000
0001
0001
,
1000
1000
0010
0010
0100
0100
0010
0010
0100
0100
0001
0001
0010
0000
1000
0000
,
0100
0010
0001
2000
3100
0020
0130
0010
,
0001
0000
0010
0000
0100
0000
1000
0100
0010
0001
0100
0001
0020
0000
0000
0030
,
0100
0010
0001
0100
1000
0001
1000
0010
,
1000
0000
0020
0000
0001
0030
0001
0010
0100
1000
0010
0100
0020
0000
1030
0000
,
0010
0000
0100
0000
0010
0000
1000
0000
0001
0000
0100
0000
2000
0000
0000
3000
,
1000
0000
0010
0000
1000
0000
0001
0000
0100
0000
0010
0000
1020
0000
0030
0100
,
0000
0000
1000
0000
0210
0000
0000
0310
0000
0000
0001
0000
0200
0000
0300
0000
,
0010
0000
1000
0000
0010
0100
0010
0000
0010
0000
0001
0100
1000
0000
1000
0000
,
1200
1300
0010
0100
0100
0010
0001
0010
,
0100
0000
0010
0000
0100
0000
1000
0100
0010
0001
1000
0010
0200
0000
0000
0300
,
0100
1000
2100
0100
3210
0010
0310
0001
,
0010
0000
0100
0000
0001
0000
1000
0100
0010
0001
1000
0001
0020
0000
0000
0030
,
0001
0010
0100
1000
0100
2000
3010
0200
,
0301
0010
2000
3000
0010
0100
2000
0100
,
3010
0001
0002
0010
0000
0013
0100
0000
,
1100
0110
0011
2002
,
0000
0000
0000
0000
3003
0100
0101
0010
,
0110
1000
0110
0100
0101
0010
0101
0010
,
1100
0000
0010
0000
0110
0000
1010
0000
0100
0000
2020
0000
0000
3000
2030
3020
,
1030
0200
2300
3020
2030
3200
0320
0032
0023
0230
0320
0032
0200
0000
0000
0000
,
0000
0000
0000
0000
,
0000
0000
0000
0000
,
0000
0000
0000
0000
0000
0000
0000
0303
;

//---------------dance-single - Hard----------------
#NOTES:
     dance-single:
     Hard:
     Medium:
     7:
     0.529,0.655,0.143,0.761,0.014:
0000
0000
0000
0000
,
0000
0000
0000
2000
,
0000
0001
0000
3002
,
0000
1000
0000
2003
,
0000
0010
0000
3002
,
0000
0000
0200
0000
0000
0003
0000
0000
,
0000
0300
0000
0000
0000
0000
0001
0000
,
0100
0000
0001
0010
0000
0100
0000
0010
,
0001
1000
0010
0100
0010
0001
0100
0000
,
0001
0000
0100
0010
0000
0200
0000
0000
,
0000
0310
0100
0001
0010
0010
0010
0100
,
0020
0000
0001
0030
0100
0000
1000
0000
0000
0000
0002
0000
0010
0000
0100
0003
,
1000
0010
0000
0100
0020
0030
0002
0000
,
0013
0100
0000
1000
0000
0200
0000
0300
,
0010
0000
0200
0320
2030
3002
0203
0300
,
0010
0000
0020
0230
0320
2030
3002
0003
,
0010
0010
0100
0010
,
0100
0000
0010
0000
0200
0310
0010
0100
,
0100
1100
1000
0100
0100
0001
0100
0100
,
0010
0200
0301
0010
0100
0000
0100
0010
,
0001
0000
0100
0000
0000
0000
0200
0000
0001
0300
0000
0000
0100
0000
0000
0000
,
0001
0010
0000
0100
0000
2000
0000
0000
,
3010
0000
1000
0100
0100
1000
0100
0010
,
0100
0001
0100
0010
0010
0001
1000
0010
,
0100
0010
0002
0013
0100
2000
0010
3100
,
0020
0000
0100
0030
0002
0000
0013
0000
0200
0000
0320
0000
0000
0000
0000
0000
,
0030
0000
0202
0303
2020
3030
0202
0303
,
0220
0330
2002
3003
0000
0010
0100
1000
,
0100
0000
0010
0000
0002
0000
0000
0000
0003
0000
0000
0000
2100
0000
0000
3000
,
0012
0000
0000
0003
2100
0000
0000
3000
0000
0000
0100
0000
1000
0000
0100
0000
,
0010
0001
0200
0000
0300
0000
0012
0003
,
1200
0300
2002
0000
3003
0100
0010
1000
,
0010
0000
0100
0000
0020
0000
0000
0030
0100
0000
1000
0000
0010
0000
0100
0000
,
0100
1000
0010
0001
0100
0010
0010
0100
,
0010
1000
0001
0100
0001
0010
0100
0000
,
0000
0000
1001
0000
0000
0000
0000
0000
0100
0000
0000
0000
4000
0004
0000
0000
,
0000
0000
0000
3013
,
0100
0010
0000
2000
3000
0020
0130
0010
,
0001
0000
0100
0000
2000
0000
0000
0000
3000
0000
0000
0000
0020
0000
0000
0030
,
0100
0010
0000
0200
0000
0301
1000
0010
,
1000
0002
0023
0000
0030
0000
0020
1030
,
0010
0000
0100
0000
0010
0000
1000
0000
0001
0000
0100
0000
2000
0000
0000
3000
,
1000
0000
0010
0000
1000
0000
0001
0000
0100
0000
0010
0000
0020
0000
0030
0100
,
0000
0000
1000
0000
0200
0000
0000
0310
0000
0000
0001
0000
0200
0000
0300
0000
,
0010
1000
0010
0100
0010
0001
1000
0000
,
0200
1300
0000
0100
0100
0010
0001
0010
,
0100
0000
0010
0000
0200
0000
0000
0000
0300
0000
0000
0000
0200
0000
0000
0300
,
0100
0000
1000
0000
2000
0000
0100
0000
3200
0000
0010
0300
0010
0000
0001
0000
,
0010
0000
0100
0000
0200
0000
0000
0000
0300
0000
0010
0000
0002
0000
0000
0003
,
0001
0010
0100
1000
0100
2000
3010
0200
,
0301
0010
2000
3000
0010
0100
2000
0100
,
3010
0001
0200
0010
0000
0310
0100
0000
,
0010
0100
1000
2002
,
0000
0000
0000
0000
3003
0000
0000
0010
,
0100
1000
0010
0100
0001
0010
0001
0010
,
1000
0010
0001
0100
0010
0200
0000
0000
,
0300
1000
1000
0100
0010
0001
0202
0000
,
0000
0000
0000
0000
,
0000
0000
0000
0000
,
0000
0000
0000
0000
0000
0000
0000
0303
;

//---------------dance-single - Medium----------------
#NOTES:
     dance-single:
     Medium:
     Easy:
     5:
     0.321,0.400,0.086,0.428,0.000:
0000
0000
0000
0000
,
0000
0000
0000
2000
,
0000
0000
0000
3002
,
0000
0000
0000
2003
,
0000
0000
0000
3002
,
0000
0000
0000
0000
0000
0003
0000
0000
,
0000
0000
0000
0001
,
0100
0001
0000
0100
,
0001
0010
0000
1000
,
0001
1000
0100
0010
,
0010
0100
0100
0010
,
0001
0010
0000
0010
,
0010
0100
0000
0010
,
0010
0100
0000
0100
,
0010
0000
0200
0300
0020
0030
0200
0300
,
0010
0000
0002
0003
2000
3000
0002
0003
,
0010
0100
1000
0001
,
0100
0000
0010
0000
0002
0003
0010
0000
,
0100
0000
1000
0000
0100
0000
0200
0300
,
0100
0100
0010
0100
,
0100
0010
1000
0100
,
0010
0010
0100
1000
,
0100
0000
2000
3000
0002
0003
0200
0300
,
0010
0000
0200
0300
0020
0030
0200
0300
,
0010
0000
0002
0003
0100
0000
0010
0000
,
0020
0032
0203
0320
,
0130
0000
0002
0003
2000
3000
0002
0003
,
0200
0300
0020
0030
0000
0000
0100
0000
,
0100
0000
0000
0000
0002
0000
0000
0000
0003
0000
0000
0000
2000
0000
0000
3000
,
0002
0000
0000
0003
2000
0000
0000
3000
0000
0000
0000
0000
1000
0000
0000
0000
,
0010
0000
0200
0000
0300
0000
0002
0003
,
0200
0300
2000
0000
3000
0000
0010
0000
,
0100
0000
0000
0000
0020
0000
0000
0030
0100
0000
0000
0000
0010
0000
0000
0000
,
0100
0010
1000
0001
,
0010
1000
0100
0001
,
0000
1001
0000
0000
0100
0000
4000
0000
,
0000
0000
0000
3100
,
0001
0010
0100
0010
,
1000
0001
1001
0010
,
0100
0100
0100
0010
,
0001
0010
1001
0010
,
1000
1000
0001
0010
,
0001
0001
0001
1000
,
0000
0002
0000
2003
,
0000
3001
1001
0001
,
1000
1000
0001
0001
,
0010
0100
1001
0010
,
0010
0100
0100
0010
,
0010
0001
1001
0010
,
1000
1000
0001
0010
,
0100
0010
0001
0020
,
1000
2000
0000
3130
,
0001
0010
1001
0220
,
0000
0000
0330
0000
,
1000
0000
0001
0010
,
0100
1000
0010
0001
,
0100
0010
1000
2002
,
0000
0000
0000
0000
,
0000
0000
0000
0000
,
0000
0000
0000
0000
,
3003
0000
0000
0000
;

//---------------dance-single - IF----------------
#NOTES:
     dance-single:
     IF:
     Edit:
     3:
     -1.000,-1.000,-1.000,-1.000,-1.000:
0000
0000
0000
0000
,
0000
0000
0000
0000
0000
0000
0000
0000
0000
0000
0000
0000
1000
0001
1000
0100
,
1000
0001
0010
1000
0001
0000
0001
0000
0001
0000
0001
1000
0001
0000
0010
0000
,
0010
0000
1000
0001
1000
0000
0010
0000
0010
0000
0010
0001
0100
0000
0100
0000
,
0100
0000
0100
1000
0001
0000
0001
0000
0001
0000
0001
0010
0100
0000
0100
0000
,
0100
0000
0100
0001
1000
0000
1000
0000
1000
0000
1000
0000
1000
0000
0100
0001
,
1000
0010
1000
0001
0100
0001
1000
0100
0010
0000
0100
0000
1001
0010
0010
0000
,
1100
1000
0010
0000
0101
0010
0001
0000
0100
0001
0110
0000
0100
0100
1010
0000
,
0001
0010
0100
0000
0110
1000
0010
0000
0101
0010
0100
0000
1100
1000
0010
0000
,
1001
0100
0010
0000
0100
0010
0011
0000
0100
0000
2020
0000
0000
3030
0001
0010
,
0001
0000
0010
0001
0010
0100
1000
0000
1100
0000
0110
0000
0010
0000
0100
0000
,
0020
0000
0001
0030
0100
0000
1000
0000
0110
0000
0001
0000
0010
0000
0100
0000
,
1001
0010
0100
0010
0110
1000
0022
0033
,
0001
0100
0010
1000
0110
0100
0001
1000
,
0110
0000
0100
0000
0010
0000
1000
0000
0001
0000
0100
0000
0020
0100
1030
0100
,
0010
0001
0010
0100
1000
0100
0010
0001
0010
0100
1000
0001
0100
0010
0001
0010
,
0100
1000
0100
0010
0001
0010
0100
1000
0100
0010
0001
0100
0010
0000
1000
0000
,
0010
0000
0100
0000
0010
0000
0100
0000
0010
0000
0001
1000
0001
0000
0110
0000
,
0010
0110
0100
0100
1100
1001
0110
0100
,
0010
0200
0301
0010
0110
2000
0100
3010
,
1001
0000
0100
0000
0010
0000
0200
0300
0110
0000
0001
0000
0100
0000
0010
0000
,
0011
0010
0100
0100
0110
1000
0001
0010
,
1100
0000
0010
0000
2000
0000
3100
0000
1000
0000
1100
0000
0100
0010
0001
0010
,
0100
1000
0100
0010
0001
0010
0100
1000
0100
0010
0001
0010
0100
0001
0100
1000
,
0100
0010
0001
0010
0100
1000
0100
0010
0001
0010
0100
1000
0100
0000
0001
0000
,
0010
0000
0100
0000
0002
0000
0013
0000
0200
0000
0320
0000
1000
0000
0100
0030
,
0010
0010
0202
0303
2020
3030
0202
0303
,
0220
0000
0330
0000
2002
0000
3003
0000
0000
0000
0010
1000
0010
0000
0010
0000
,
0100
0000
0010
0000
0002
0000
0013
0000
0000
0000
1000
0000
2010
0000
0000
3000
,
0012
0000
0000
0003
2100
0000
0000
3000
0000
0000
0100
0010
1000
0000
0100
0000
,
0010
0000
0001
0000
0200
0000
0001
0000
0310
0000
0100
0001
2000
0000
3000
0000
,
0120
0000
0030
0000
2002
0000
0000
0000
3003
0000
0100
0001
0010
0000
1000
0000
,
0010
0000
0100
0000
0020
0000
0000
0030
0100
0000
1001
0100
0010
0000
0100
0000
,
0100
1000
0010
0001
1000
0010
0001
0100
,
0010
0000
1000
0000
0010
0000
0100
0000
0001
0000
0010
0100
0010
0000
0000
0000
,
0000
0000
1001
0000
0000
0000
0000
0000
0010
0000
0000
0000
1000
1000
0001
0001
,
1000
1000
0010
0010
0100
0100
0010
0010
0100
0100
0001
0001
0110
0000
1000
0000
,
0110
0010
0001
2001
3100
0020
0130
0010
,
1001
0000
0010
0000
0100
0000
1000
0100
0010
0001
0100
0001
0020
0000
1000
0030
,
0100
0010
0001
0100
1000
0001
1000
0010
,
1000
0000
0020
0000
0001
0030
0001
0010
0100
1000
0010
0100
0020
0000
1030
0000
,
0010
0000
0100
0000
0010
0000
1000
0000
1001
0000
0100
0000
2000
0000
0000
3000
,
1000
0000
0010
0000
1000
0000
0001
0000
0100
0000
0010
0000
1020
0000
0030
0100
,
0000
0000
1000
0000
0210
0000
0000
0310
0000
0000
0001
0000
0200
0000
0300
0000
,
0010
0000
1000
0000
0010
0100
0010
0000
0010
0000
0001
0100
1000
0000
1000
0000
,
1200
1300
0010
0100
0100
0010
0001
0010
,
0100
0000
0010
0000
0100
0000
1000
0100
0010
0001
1000
0010
0200
0000
0000
0300
,
0100
1000
2100
0100
3210
0010
0310
0001
,
0010
0000
0100
0000
0001
0000
1000
0100
0010
0001
1000
0001
0020
0000
0000
0030
,
0001
0010
0100
1000
0100
2000
3010
0200
,
0301
0000
0010
0000
2000
3000
1000
0001
0010
0100
1000
0000
2000
0000
0100
0000
,
3010
0001
0002
0010
0000
0013
0100
1000
,
1100
0000
0000
0000
0010
0100
0010
0000
0011
0000
0010
0100
1001
0100
0010
0000
,
0001
1000
0010
0000
1001
0100
1000
0000
1001
0010
0100
0000
0101
0010
0010
0000
,
0110
0010
1000
0000
0110
1000
0100
0000
0101
0100
0010
0000
0101
0001
0010
0000
,
1100
1000
0010
0000
0110
0001
1000
0000
0100
0010
2020
0000
0000
3000
2030
3020
,
1030
0200
2300
3020
2030
3200
0320
0032
0023
0230
0320
0032
0200
0000
0000
0000
,
0000
0000
0000
0000
,
0000
0000
0000
0000
,
0000
0000
0000
0000
0000
0000
0000
0303
;
