#TITLE:Cutie Panther;
#SUBTITLE:;
#ARTIST:BiBi;
#TITLETRANSLIT:;
#SUBTITLETRANSLIT:;
#ARTISTTRANSLIT:;
#GENRE:;
#CREDIT:;
#BANNER:banner.png;
#BACKGROUND:BGI.png;
#LYRICSPATH:;
#CDTITLE:;
#MUSIC:Cutie Partner.mp3;
#OFFSET:0.000;
#SAMPLESTART:77.255;
#SAMPLELENGTH:12.000;
#SELECTABLE:YES;
#BPMS:0.000=170.000;
#STOPS:0.000=0.200
;
#BGCHANGES:0.000=BGA.avi=1.000=0=0=1=StretchNormal====,
99999=-nosongbg-=1.000=0=0=0 // don't automatically add -songbackground-
;
#KEYSOUNDS:;

//---------------dance-single - Loak----------------
#NOTES:
     dance-single:
     Loak:
     Hard:
     9:
     0.677,0.836,0.182,0.405,0.165:
0000
0000
0000
0000
,
0000
0000
0000
0000
,
0000
0000
0000
0000
,
0000
0000
0000
0000
,
0000
0000
0000
0000
,
0000
0000
0000
0000
,
0000
0000
0000
0000
,
0000
0000
0000
0000
,
0000
0000
0000
0000
,
0000
0000
0000
0000
0000
0000
0100
1000
,
0001
0100
0110
0010
1000
0100
0010
0100
,
0001
0000
0000
1000
0010
0100
0001
1000
,
0100
0000
0000
0100
1000
0001
0100
0010
,
0000
0010
1000
0001
0100
0001
0010
0100
,
1000
0100
1010
0010
0001
1000
0001
0100
,
0010
0000
0000
0010
1000
0100
1000
0010
,
0100
0000
0000
1000
0001
0010
0001
1000
,
0100
0000
1000
0000
0010
0000
0100
0000
0010
0000
0100
0000
0001
1000
0001
1000
,
0001
0010
0100
0010
1000
0001
0010
0100
,
0010
1000
0000
0100
1000
0001
0100
0010
,
0100
0001
0000
0001
1000
0010
1000
0001
,
0010
0100
2000
0000
3010
0100
0000
0010
,
0000
0100
0000
0001
0010
0100
1000
0001
,
0010
0100
2000
0000
3010
0002
0000
0013
,
1000
0100
0010
0001
0100
0001
1000
0100
,
0010
0000
1000
0001
1000
0010
0100
0000
0010
0000
1000
0001
0100
0001
0010
0001
,
1000
0010
1000
0100
2000
0000
0000
0000
0100
0000
0000
0000
3002
0000
0000
0000
,
0100
2003
0100
0000
,
0100
3000
1000
0010
0100
0001
0010
0001
,
1000
0010
0000
0001
0100
0010
1000
0001
,
1000
0010
0002
0000
0100
0000
2003
0000
,
0100
3002
0010
0000
,
0013
0000
0000
0100
0001
0010
0100
1000
,
0001
0000
1000
0000
0100
0000
0000
0000
0100
0000
0001
0000
0001
0010
0001
0010
,
0100
0000
0000
0000
1000
0000
M001
0010
0100
0010
0001
1000
0001
1000
001M
0100
,
0010
2000
3200
0320
,
0230
0000
0000
0000
1300
0000
0010
0100
0010
0100
1000
0000
0100
0001
0010
0100
,
0001
0000
2000
3000
0020
0030
0200
0300
,
0020
0030
0001
0010
0100
0010
1000
0000
,
0001
0010
0000
0100
0010
1000
0100
0010
,
0100
0000
1000
0010
0100
0010
2000
3000
,
0100
0000
2000
0000
0000
3000
0001
0000
0100
0000
0001
0000
0100
0000
0000
0000
,
0010
0000
0010
1000
0002
0003
0100
0010
,
2000
3000
0100
0010
0002
0003
1000
0001
,
2000
3000
0010
0100
0010
0001
0000
0100
,
1000
0100
0020
0000
0000
0000
0000
0000
,
0000
0000
0000
0000
0000
0000
0030
0000
0000
0000
0000
0000
0001
0000
0000
0000
0000
0000
0100
0000
0000
0000
0000
0000
0001
0000
0000
1000
0000
0000
0001
0000
0000
1000
0000
0000
0004
0000
0000
0000
4000
0000
0000
0000
0000
0000
0000
0000
,
0000
3003
0100
0000
1010
0000
0101
0000
,
0001
0000
0010
0000
0000
0000
0100
0000
0000
0000
1000
0000
0010
0000
1000
0100
,
1000
0001
0100
0010
1000
0000
0000
0000
0011
0000
0000
0000
1010
0000
0000
0000
,
0001
0100
0000
0010
0000
0200
0320
0032
,
2003
3020
0032
0000
0000
0010
0013
0100
,
1100
0000
2000
0000
0000
0100
3100
0010
,
0011
0000
1001
0010
0100
0001
0010
0100
,
0000
0000
0100
0000
1000
0000
0010
0000
1000
0000
0100
0000
0010
0000
0100
0001
,
1000
0100
1000
0010
0100
0000
0000
0000
0110
0000
0000
0000
0101
0000
0000
0000
,
0001
0000
0010
0000
0000
0000
0100
0000
0000
0000
1000
0000
0001
0000
0001
0100
,
0001
0010
0100
0001
0100
0000
0000
0000
0011
0000
0000
0000
1100
0000
0000
0000
,
0001
1000
0000
0010
0000
0002
0023
0032
,
2003
3020
0032
0000
0000
0100
0103
0001
,
0101
0000
2000
0000
0000
0100
3100
0010
,
0011
2000
3002
0203
,
0320
2030
3200
0320
,
0032
0003
0100
1000
0010
1000
0100
0010
,
0001
0100
0010
0100
0001
1000
0010
1000
,
0100
1000
0001
0100
0001
0010
0001
1000
,
0010
1000
0100
0010
0001
1000
0001
0100
,
0001
1000
1010
0010
1000
0100
0010
0001
,
1000
0000
0000
0100
0001
1000
0010
1000
,
0100
0000
0000
0001
0100
0010
0100
0001
,
0000
0010
0001
0100
0010
0100
1000
0010
,
0001
0100
0101
0010
0001
0100
1000
0100
,
1000
0000
0000
0010
0100
0001
0010
0100
,
0010
0000
0000
0010
0100
0001
0100
0001
,
0100
0000
1000
0000
0010
0000
0100
0000
0010
0000
0100
0000
1000
0001
0100
0001
,
1000
0001
1010
0001
0010
0100
0010
0001
,
0100
0000
0000
0010
0100
0010
0001
0100
,
0010
0000
0000
0010
0100
1000
0100
0010
,
0000
0001
0010
0100
0001
0100
0010
0100
,
0010
0001
0101
0010
0010
0100
0010
0001
,
0100
0000
0000
0010
0001
0100
0010
0001
,
1000
0000
0000
0010
0001
0100
0001
0010
,
0001
0000
0100
0000
1100
0000
1100
0000
1100
0000
0000
0000
1000
0001
1000
0001
,
0200
0000
0300
0000
0010
1000
0010
1000
0200
0000
0300
0000
0010
0001
0010
0001
,
0200
0300
0000
0000
;

//---------------dance-single - Loak----------------
#NOTES:
     dance-single:
     Loak:
     Medium:
     8:
     0.539,0.559,0.190,0.414,0.000:
0000
0000
0000
0000
,
0000
0000
0000
0000
,
0000
0000
0000
0000
,
0000
0000
0000
0000
,
0000
0000
0000
0000
,
0000
0000
0000
0000
,
0000
0000
0000
0000
,
0000
0000
0000
0000
,
0000
0000
0000
0000
,
0000
0000
0000
0000
0000
0000
0100
1000
,
0002
0003
0101
0010
1000
0100
0010
0100
,
0001
0000
0000
1000
0001
0100
0001
1000
,
0100
0000
0000
0100
1000
0001
0100
0010
,
0000
0010
0100
0001
1000
0001
0010
0100
,
2000
3000
1100
0010
0001
1000
0001
0100
,
0010
0000
0000
0010
1000
0100
1000
0001
,
0010
0000
0000
1000
0001
0010
0001
1000
,
0100
1000
0001
0100
0010
0010
0010
1000
,
1000
0001
0100
0001
1000
0001
0010
0100
,
0010
0100
0000
0001
1000
0001
0100
0010
,
0100
0001
0000
0001
1000
0010
1000
0001
,
0010
0100
0020
0000
0130
1000
0000
0010
,
0000
1000
0000
0001
0010
0100
0010
0001
,
1000
0010
0200
0000
0310
0002
0000
0103
,
0000
0200
0000
0000
0300
0010
0001
1000
,
0000
0200
0000
0000
0000
0000
0000
0000
,
0300
2000
0000
3002
,
0000
0023
0000
0000
,
0000
0030
0000
1000
0001
0100
0010
0100
,
0001
0100
0000
1000
0100
0010
0001
1000
,
0001
0100
0020
0000
0000
0030
2000
0000
,
0000
3000
0200
0000
0000
0000
0000
0000
,
0300
0000
0000
0010
0100
0010
0001
1000
,
0001
0100
0001
0000
0010
0200
0000
0000
,
0300
0001
1100
0001
,
1100
2000
3020
0230
,
0320
1030
0101
1000
,
0101
2000
3200
0320
,
0230
0000
0301
0010
0100
0010
0001
0000
,
0001
0010
0000
0100
0010
1000
0100
0010
,
0100
0000
1000
0010
0100
0010
0002
0000
,
0003
1000
0000
0100
0001
0100
0001
0000
,
0010
2000
3001
0020
,
1030
2000
3010
0002
,
0013
0000
0100
0001
0010
0001
0000
0010
,
0100
0010
0002
0000
0000
0000
0000
0000
,
0000
0000
0000
0000
,
0003
0100
1010
0101
,
0010
0000
0100
0000
0000
0000
1000
0000
0000
0000
0010
0000
4000
3000
0040
0030
,
0400
0300
0001
0000
0010
0000
0000
0000
0011
0000
0000
0000
1010
0000
0000
0000
,
0001
0100
0000
0010
0000
1000
0100
0010
,
0001
1000
0002
0000
0000
0000
0013
0000
,
1100
0000
2000
0000
0000
0000
0010
3000
,
0101
0000
1001
0000
0100
0001
0010
0100
,
0000
0100
1000
0010
1000
0200
0000
0000
,
0300
0001
1100
0101
,
0001
0000
0010
0000
0000
0000
0100
0000
0000
0000
1000
0000
0400
0300
0040
0030
,
4000
3000
0100
0000
0020
0000
0030
0000
0011
0000
0000
0000
1100
0000
0000
0000
,
0001
1000
0000
0010
0000
0100
0001
1000
,
0001
0100
0020
0000
0000
0030
0100
0000
,
0110
2000
0000
0100
,
3110
2000
3002
0203
,
0320
2030
3200
0320
,
0032
1003
0010
0100
,
0001
1000
0001
0010
,
0100
1000
0010
1000
,
0001
0000
0010
0000
0100
0000
0001
0100
,
0020
0030
1010
0100
0010
0001
1000
0010
,
0100
0000
0000
1000
0010
1000
0001
0010
,
0100
0000
0000
0001
1000
0010
1000
0010
,
0000
0100
0010
0100
0001
0001
0010
1000
,
0200
0300
0110
0001
0100
0001
0010
0100
,
0010
0000
0000
0001
1000
0010
0100
0010
,
1000
0000
0000
0001
0100
0010
1000
0001
,
0010
0100
1000
0010
1000
0000
0001
0010
,
0200
0300
0101
0100
0100
0001
0010
0100
,
0010
0000
0000
0010
0100
0010
0001
0010
,
0100
0000
0000
0010
0001
0010
0100
0010
,
0000
0100
1000
0100
1000
0000
0010
0001
,
0020
0030
0110
0100
1000
0100
0010
0010
,
0100
0000
0000
0100
0010
0100
1000
0100
,
0010
0000
0000
1000
0100
0010
0001
0010
,
0100
0010
0100
1000
1000
0000
2000
0000
,
3001
0020
0130
2000
,
3020
0000
0030
0000
;

//---------------dance-single - Loak----------------
#NOTES:
     dance-single:
     Loak:
     Easy:
     5:
     0.345,0.486,0.165,0.306,0.000:
0000
0000
0000
0000
,
0000
0000
0000
0000
,
0000
0000
0000
0000
,
0000
0000
0000
0000
,
0000
0000
0000
0000
,
0000
0000
0000
0000
,
0000
0000
0000
0000
,
0000
0000
0000
0000
,
0000
0000
0000
0000
,
0000
0000
0001
1000
,
0001
1001
1000
0100
,
0010
0000
0100
1000
,
0001
0000
1000
0010
,
0100
0001
1000
0001
,
1000
1001
0001
0100
,
0010
0000
0100
0001
,
1000
0000
0001
0010
,
0100
1000
0001
1000
,
0100
0110
0000
0010
,
0000
0001
0000
1000
,
0000
0010
0000
0100
,
0000
0001
1000
0100
,
0010
0100
0000
1000
,
0000
0001
0000
0100
,
0000
1000
0001
1000
,
0001
2000
0100
0001
,
3100
0200
0000
0320
,
0000
0032
0000
0000
,
0000
1003
0000
0010
,
0000
0100
0001
1000
,
0001
0020
0000
0230
,
0000
2300
0000
0000
,
0000
3001
0000
0100
,
0000
0010
1000
0010
,
0000
0100
0110
0010
,
0110
2000
3002
2003
,
3002
0013
0110
0100
,
0110
0002
2003
3002
,
2003
3001
0100
0010
,
0000
1000
0001
0010
,
0000
0100
1000
0010
,
0000
0100
0001
1000
,
0000
0002
0003
2000
,
3000
0200
0300
0020
,
0030
0002
0003
2000
,
3000
0002
0000
0000
,
0000
0000
0000
0000
,
0000
1003
1001
1001
,
0001
0010
0100
1000
,
0000
0001
0101
0101
,
0100
0010
1000
0001
,
0000
0020
0000
0130
,
1100
2000
0000
3001
,
0101
0100
0010
0100
,
0001
1000
0001
0010
,
0000
0001
1001
1001
,
1000
0010
0100
0001
,
0000
1000
1100
1100
,
0001
1000
0010
0100
,
0000
0002
0000
0103
,
0101
2000
0000
3100
,
1100
2000
3002
0203
,
0320
2030
3200
0320
,
0032
1003
0010
0100
,
0001
1000
0001
0010
,
0100
1000
0010
1000
,
0001
0010
0100
1000
,
0001
1001
1000
0010
,
0100
0000
0001
0010
,
0100
0000
1000
0001
,
0100
0010
0100
0010
,
0001
0010
0000
0010
,
0100
0010
1000
0010
,
0001
0000
0100
1000
,
0010
0001
0010
0100
,
0010
0001
0000
1000
,
0100
0100
1000
0100
,
0100
0000
0010
0000
,
0010
0001
0010
0100
,
0100
0010
0000
0100
,
0100
0010
0000
0010
,
0010
0100
1000
0001
,
0001
0100
0010
0002
,
1003
0200
0310
0002
,
0103
0000
0000
0000
;

//---------------dance-single - Loak----------------
#NOTES:
     dance-single:
     Loak:
     Beginner:
     3:
     0.235,0.313,0.000,0.132,0.000:
0000
0000
0000
0000
,
0000
0000
0000
0000
,
0000
0000
0000
0000
,
0000
0000
0000
0000
,
0000
0000
0000
0000
,
0000
0000
0000
0000
,
0000
0000
0000
0000
,
0000
0000
0000
0000
,
0000
0000
0000
0000
,
0000
0000
0000
0001
,
1000
0010
0001
0000
,
0100
0000
0010
0000
,
1000
0000
0001
0000
,
0010
0000
0100
0000
,
1000
0000
0001
0000
,
0100
0000
0010
0000
,
1000
0000
0001
0000
,
0010
0000
0100
0000
,
1000
0000
0001
0100
,
0001
0000
1000
0100
,
1000
0000
0001
1000
,
0010
0000
1000
0001
,
0100
0000
0001
1000
,
0100
0000
1000
0010
,
0100
0000
0001
1000
,
0002
0000
0000
0003
,
0020
0000
0230
0000
,
2300
0000
0000
0000
,
3001
0000
0100
0000
,
0010
0000
1000
0000
,
0002
0000
2003
0000
,
3200
0000
0000
0000
,
1300
0000
0001
0000
,
0100
0000
0010
0000
,
0001
0000
1000
0001
,
1000
0000
1000
0000
,
0100
0000
1000
0001
,
1000
0010
0000
1000
,
0000
0001
1000
0001
,
0000
0001
0100
0001
,
0000
1000
0010
1000
,
0000
0001
1000
0001
,
0010
0010
0010
0000
,
0100
0000
1000
0000
,
0001
0000
1000
0000
,
0020
0000
0000
0000
,
0000
0000
0000
0030
,
0000
1000
0001
2000
,
3100
0100
0010
0000
,
0100
1000
0001
1000
,
0001
0010
0100
1000
,
0020
0000
0000
0030
,
0002
0000
0000
0003
,
1000
0010
0010
0000
,
0100
0000
0001
0000
,
1000
0100
0100
0001
,
0010
0000
0100
0000
,
1000
0010
0001
0001
,
1000
0000
0010
0000
,
0200
0000
0000
0300
,
0002
0000
0000
0003
,
1000
0000
0001
0000
,
0010
0000
0100
0000
,
1000
0000
0100
0000
,
0010
0000
0001
0000
,
1000
0000
0010
0000
,
0100
0000
0001
0000
,
1000
0001
1000
0000
,
0001
0010
0001
0000
,
1000
0001
1000
0000
,
0001
0100
0001
0000
,
0010
0100
1000
0100
,
0010
0000
0010
0100
,
0010
0000
1000
0100
,
0010
0100
0010
0000
,
0000
0000
1000
0100
,
0010
0000
0001
0010
,
0010
0000
0100
1000
,
0100
0010
0100
0000
,
0100
0010
0000
0010
,
0010
0000
0100
0100
,
0100
0010
0010
0000
,
0001
0001
0010
0020
,
0030
2000
3000
0002
,
0003
0000
0000
0000
;

//---------------dance-single - Hard----------------
#NOTES:
     dance-single:
     Hard:
     Challenge:
     13:
     0.841,1.000,0.240,0.480,0.356:
0000
0000
0000
0000
,
0000
0000
0000
0000
,
0000
0000
0000
0000
,
0000
0000
0000
0000
,
0000
0000
0000
0000
,
0000
0000
0000
0000
,
0000
0000
0000
0000
,
0000
0000
0000
0000
,
0000
0000
0000
0000
,
0000
0000
0000
0000
0000
0000
0010
1000
,
0001
0100
0110
1000
0100
0010
0100
0001
,
0100
0010
1000
0010
0100
0001
1000
0100
,
0010
1000
0100
1000
0001
0100
0010
0100
,
0010
1000
0001
0100
0001
0010
0100
1000
,
0100
1000
0110
0001
1000
0001
0100
0010
,
0001
0100
0010
1000
0100
1000
0010
0100
,
0001
0010
1000
0001
0010
0001
1000
0100
,
1000
0000
0010
0000
0100
0000
0001
0000
0010
0000
0001
1000
0001
1000
0001
1000
,
0010
0100
1001
1000
0001
0010
0100
0010
,
1000
0010
0001
1000
0001
0100
0010
0100
,
0001
0100
0001
1000
0010
1000
0001
0010
,
0100
1000
0020
0000
0031
0200
0000
0310
,
1000
0100
0001
0010
0100
1000
0001
0010
,
0100
1000
0200
0301
0020
1030
0001
1000
,
0100
0010
0001
0100
0001
1000
0100
0010
,
1000
0000
1000
0010
0100
0001
0010
0100
1000
0001
0100
0001
0010
0001
1000
0010
,
1000
0100
1000
0010
2000
0000
0000
0000
3100
0000
0000
0000
0002
0000
0000
0000
,
0103
2000
0100
0100
,
3100
0000
0010
0100
0001
0010
0001
1000
,
0010
1000
0001
0100
0010
1000
0001
1000
,
0010
0100
0002
0000
0103
0000
2000
0000
,
3100
0002
0010
0010
,
0013
0000
0100
0001
0010
0100
1000
0001
,
1000
0000
0100
0000
0001
0000
0100
0000
0001
0000
0010
0000
0100
0001
0100
0001
,
0100
0000
0010
0000
M001
0010
0100
0010
0001
1000
0001
1000
001M
0100
0010
0100
,
1000
2000
3200
0320
,
0230
0000
0000
0000
1300
0000
0010
0100
1000
0010
0100
0001
0010
0100
1000
0100
,
1000
2000
3020
0230
,
0320
0000
0031
0100
0010
1000
0100
0001
,
0010
0010
0100
0010
1000
0100
0010
0100
,
0001
0000
0010
0100
0010
1000
0010
0001
,
0100
1000
0001
0100
0001
0100
0001
0010
,
0100
0000
1000
0002
0013
0100
0010
2000
,
3010
0100
0010
0002
0103
1000
0001
2000
,
3100
0010
0100
0010
0001
0010
0100
1000
,
0001
2000
0002
0000
0000
0000
0000
0000
,
0000
0000
0000
0000
0000
0000
3003
0000
0000
0000
0000
0000
0001
0000
0000
0000
0000
0000
1000
0000
0000
0000
0000
0000
0001
0000
0000
1000
0000
0000
0001
0000
0000
1000
0000
0000
0001
0000
1000
0000
0001
0000
1000
0000
0001
0000
1000
0000
,
0001
1000
0001
1000
0001
1000
2002
0000
0000
3003
0000
0000
2002
0000
0000
3003
0000
0000
2020
0000
0000
3030
0000
0000
,
1100
0000
0010
0000
0000
0000
0100
0000
0000
0000
0020
0000
1030
0000
0100
1000
,
0010
1000
0100
0010
0101
0000
0000
0000
0110
0000
0000
0000
1100
0000
0000
0000
,
1010
1000
0000
0100
0002
0023
0032
2003
,
3002
0010
0100
1000
0100
0013
0100
0010
,
2001
0010
0100
0010
0100
3010
0001
0001
,
1001
1000
1001
0100
0001
0010
0100
1000
,
0100
0000
1000
0000
0010
0000
1000
0000
0100
0000
0010
0000
0001
0000
0100
0010
,
1000
0010
0100
0010
1001
0000
0000
0000
0110
0000
0000
0000
0101
0000
0000
0000
,
0011
0000
0100
0000
0000
0000
1000
0000
0100
0000
0020
0000
0230
0000
0310
0001
,
0100
0001
0010
0100
1001
0000
0000
0000
0101
0000
0000
0000
1010
0000
0000
0000
,
1100
1000
0010
0020
0032
0023
0032
2003
,
3020
0032
0100
1000
0100
0013
0001
0100
,
2001
0010
0100
0010
0001
3100
0010
0011
,
0100
2000
0100
3002
0010
0203
1000
0320
,
0100
2030
0010
3200
1000
0320
0100
0032
,
0013
0100
1000
0010
1000
0100
0010
0001
,
0100
0010
0100
0001
1000
0010
1000
0100
,
1000
0001
0100
0001
0010
0001
1000
0010
,
1000
0100
0010
0001
1000
0001
0100
0001
,
1000
0010
1001
1000
0100
0010
0001
1000
,
0010
1000
0100
0001
1000
0010
1000
0100
,
0010
0100
0001
0100
0010
0100
0001
0100
,
0010
0001
0100
0010
0100
1000
0010
0001
,
0100
0001
1001
0001
0100
1000
0100
1000
,
0100
0001
0010
0100
0001
0010
0100
0010
,
0100
0001
0010
0100
0001
0100
0001
0100
,
1000
0000
0010
0000
0100
0000
0010
0000
1000
0000
0001
0000
0100
0001
0010
0001
,
0100
0000
1000
0000
0001
1000
0010
1000
0100
1000
0010
0100
0001
0000
0100
0000
,
0010
1000
0001
1000
0010
0100
1000
0100
0010
0000
0001
0000
0100
0001
0010
0001
,
0100
0000
1000
0000
0010
0001
0100
0010
1000
0010
0100
1000
0010
0000
0100
0000
,
0001
1000
0010
1000
0100
1000
0001
0010
0100
0000
0010
0000
0100
1000
0010
1000
,
0001
0000
0100
0000
0001
1000
0010
1000
0100
1000
0010
1000
0001
0000
0100
0000
,
0010
1000
0001
1000
0010
1000
0001
0010
0100
0000
0010
0000
0001
0100
0010
1000
,
0100
0000
0010
0000
0010
1000
0001
1000
0100
1000
0001
1000
0010
0000
0001
0000
,
0100
0000
0010
0000
1100
0000
1001
0000
1001
0000
0000
0000
1000
0001
1000
0010
,
0200
0000
0300
0000
0010
1000
0010
1000
0200
0000
0300
0000
0010
0001
0010
0001
,
0200
0000
0000
0000
0000
0300
0000
0000
0000
0000
0000
0000
0000
0000
0000
0000
,
0000
0000
M000
0000
;
