#TITLE:Bokutachi wa Hitotsu no Hikari;
#SUBTITLE:;
#ARTIST:u's;
#TITLETRANSLIT:;
#SUBTITLETRANSLIT:;
#ARTISTTRANSLIT:;
#GENRE:;
#CREDIT:CHMEX;
#BANNER:banner.png;
#BACKGROUND:BGI.png;
#LYRICSPATH:;
#CDTITLE:;
#MUSIC:Bokutachi wa Hitotsu no Hikari.mp3;
#OFFSET:0.000;
#SAMPLESTART:77.820;
#SAMPLELENGTH:12.000;
#SELECTABLE:YES;
#BPMS:0.000=174.000,346.000=87.020;
#STOPS:0.000=0.180
;
#BGCHANGES:0.000=BGA.avi=1.000=0=0=1=StretchNormal====,
99999=-nosongbg-=1.000=0=0=0 // don't automatically add -songbackground-
;
#KEYSOUNDS:;

//---------------dance-single - Blank----------------
#NOTES:
     dance-single:
     Blank:
     Hard:
     7:
     0.576,0.649,0.250,0.918,0.584:
0000
0000
0000
0000
,
0000
0000
2002
3003
,
0000
0000
0000
0000
0000
0220
0000
0000
0330
0000
0000
0000
,
0000
0000
0000
0000
0000
2002
0000
0000
0000
0000
0000
0000
,
0000
0000
0000
0000
0000
0000
0003
0000
0000
0000
3000
0000
,
0000
0000
0000
0000
0000
0000
2000
0000
0000
0000
3000
0020
,
0000
0000
0000
0000
0030
0000
0000
0000
0000
0000
0000
0000
0000
0202
0000
0000
0000
0000
0000
0000
0000
0000
0000
0000
,
0000
0303
0000
0000
0000
0000
0000
0000
0000
0000
0000
0000
0010
0000
0000
0000
0000
0000
1000
0000
0000
0000
0000
0000
,
0010
0100
0001
0200
0000
0000
0310
0000
0000
1000
0000
0000
,
0100
0000
0010
0000
0000
0001
0000
0000
1000
0001
0000
0100
,
0000
0000
0010
1000
0000
0100
0010
0000
0000
0010
0000
0000
,
0001
0010
0000
0000
0000
0001
0000
0000
0010
0000
0000
0100
,
0000
0000
1000
0010
0000
0000
2000
0000
0100
0100
0000
3002
,
0000
0000
0010
0010
0000
2003
0000
0000
0100
0100
0000
3002
,
0000
0000
0010
0010
0000
2003
0000
0000
0010
0010
0000
3002
,
0000
0000
0100
0100
0000
2003
0000
0000
0100
0100
0000
3002
,
0000
0000
0100
0100
0000
0003
2002
0000
0000
0000
0000
0000
,
0000
0000
0000
0000
,
0000
0000
0000
3003
1001
0000
0110
0000
,
1001
0000
0000
0220
0000
0000
0000
0330
0010
1000
0000
0010
,
0100
0000
0001
0010
0000
0100
2000
0000
0000
0000
3000
0000
,
0000
0000
0000
0000
0000
0000
2020
0000
0000
0000
3030
0000
,
0220
0000
0000
0000
0330
0000
0202
0000
0000
0000
0303
0000
,
0000
0000
1000
0001
,
0100
0000
0000
0010
0000
0000
2020
0000
0000
0000
3030
0000
,
0000
0000
0022
0033
,
2020
3030
0202
0303
,
0000
0000
1000
0001
,
0020
0000
0030
0000
0000
0000
0220
0000
0000
0000
0330
0000
,
0000
0000
2002
3003
,
2002
0000
0000
0000
3003
0000
2020
0000
0000
3030
0000
0000
,
1000
0000
0000
0100
0000
0010
0000
0000
0010
1000
0000
0000
,
0200
0000
0000
0000
0300
0000
0202
0000
0000
0000
0303
0000
,
0110
0000
0000
0000
0000
0000
2020
0000
0000
0000
3030
0000
,
0220
0000
0000
0000
0330
0010
0001
0000
0000
1000
0000
0000
,
0010
0000
0100
0010
0000
0001
0100
0000
0010
0100
0000
0100
,
1000
0000
0010
1000
0000
0100
0010
0000
0100
0001
0000
0010
,
0002
0000
0000
0000
0003
0010
0000
0000
1000
0010
0000
0001
,
0020
0000
0030
0100
0000
0000
0010
0000
0000
1000
0000
0000
,
0001
0000
0000
0210
0000
0000
0000
0000
0000
0000
0000
0300
,
0000
0000
0010
0100
0000
0000
1000
0000
0010
0100
0000
0001
,
0020
0000
0030
0000
0000
1000
0000
0000
0100
0010
0000
0100
,
2000
0000
3000
1000
0000
0000
0100
0000
0000
0010
0000
0000
,
0001
0210
0000
0000
,
0300
0000
0010
0100
0000
0100
2000
0000
3000
0001
0000
0000
,
0100
0010
1000
0010
,
0200
0000
0000
0000
0300
0000
0100
0000
0000
0001
0000
0000
,
0100
0000
0000
0120
0000
0000
0000
0000
0000
0000
0030
0100
,
0000
0000
0100
1000
0000
0100
0010
0000
0000
0100
0000
0002
,
0000
0000
0100
0100
0000
2003
0000
0000
0010
0010
0000
3002
,
0000
0000
0000
0000
0000
0000
0010
0000
0000
0000
0000
0000
0100
0003
0000
0000
0000
0000
0010
0000
0000
0002
0000
0000
,
0000
0000
0000
0003
0000
0100
0000
0000
0010
1000
0000
0000
,
0100
0000
0000
0010
0000
0000
0002
0000
0000
0000
0000
0003
,
2000
0000
0000
0000
3000
0020
0000
0000
0000
0000
0000
0030
,
0200
0310
1000
0001
,
0110
0000
0000
2002
0000
0000
0000
3003
0001
1000
0001
1000
,
0010
0100
0010
0100
0010
0100
0020
0000
0000
0030
0000
0000
,
0010
0000
0100
0000
0000
0002
0000
0000
0003
0000
0000
0000
,
0010
0000
1000
0010
0000
0001
0010
0000
0010
0000
0000
0200
,
0000
0000
0000
0000
0300
0000
2000
0000
0000
3020
0000
0000
,
0230
0302
0023
2030
,
3002
0000
0100
0100
0000
2003
0000
0000
0010
3010
0000
0002
,
0000
0000
0013
0100
0000
1000
0010
0000
0000
0100
0000
0000
,
0001
0000
0000
0010
0000
1000
0000
0000
0100
0010
0000
0200
,
0000
0000
0000
0000
0300
0000
2000
0000
3000
0100
0000
0000
,
0010
0000
1000
0000
0000
0002
0000
0000
0003
0000
0000
0000
,
0010
0000
1000
0001
0000
0010
0100
0000
1000
0000
0000
0200
,
0000
0000
0000
0300
0000
0010
0002
0000
0000
0000
0000
0003
,
0020
0000
0030
2000
0000
3000
0200
0000
0300
0020
0000
2030
,
0000
0000
0100
0100
0000
3000
0002
0000
0100
0100
0000
2003
,
0000
0000
0000
0010
3000
0001
0010
0000
0000
1000
0000
0100
,
0020
0000
0030
0000
0000
0002
0000
0003
0010
1000
0000
0002
,
0000
0003
0000
0010
0000
0100
0002
0000
0003
0010
0000
1000
,
0200
0000
0300
0000
0000
0010
0000
0000
0100
0001
0000
0010
,
2000
0000
3000
0000
0000
0000
0100
0000
0000
0001
0000
0000
,
1000
0000
0000
0000
0100
0000
0000
0000
0010
0001
0000
0000
,
1000
0020
0130
0001
,
0010
0000
1000
0010
0000
0100
0000
0000
0001
0000
0000
1000
,
0001
1000
0001
0100
0010
0100
0020
0000
0000
1000
0000
0000
,
0100
0000
0000
1030
0000
0010
0000
0000
0100
0001
0000
0010
,
1000
0000
0100
0010
0000
0001
0020
0000
0000
1030
0000
0000
,
0010
0000
0100
0000
0000
0002
0000
0000
1003
0010
0000
0100
,
0001
0000
0010
1000
0000
1000
0200
0000
0000
0010
0000
0000
,
0301
0000
0000
0010
0000
1000
0000
0000
0100
0001
0000
0001
,
0010
0000
0010
1000
0000
0100
1000
0000
0000
0100
0000
0000
,
0001
0000
0010
0000
0000
2002
0000
0000
0000
0000
0000
0000
,
0000
0000
0000
0000
0000
3003
0000
0000
0000
0000
0000
0000
;

//---------------dance-single - Hard----------------
#NOTES:
     dance-single:
     Hard:
     Challenge:
     10:
     0.738,0.901,0.501,1.000,0.843:
0000
0000
0000
0000
,
0000
0000
0000
0000
0000
0000
2002
0000
0000
3003
0000
0010
,
1000
0000
0010
0000
0000
0202
0000
0000
0000
0303
0000
0000
,
0010
0000
1000
0010
0000
2200
0000
0000
0320
0000
0000
0032
,
0000
0000
0000
0000
0000
0000
0000
0000
0000
0000
3003
0000
2020
0000
0000
0000
0000
0000
3030
0000
0000
2002
0000
0000
,
0000
0000
0000
3003
0010
0000
0100
0000
0000
0000
0000
0000
2100
0000
0000
0000
0000
0000
0000
0000
3000
0000
0120
0000
,
0000
0000
0000
0000
0030
0000
0000
0000
0000
0000
0000
0000
0000
0202
0000
0000
0000
0000
0000
0000
0000
0000
0000
0000
,
0000
0303
0000
0000
0000
0000
0000
0000
0000
0000
0000
0000
0010
0000
0000
0000
0000
0000
1000
0000
0000
0000
0000
0000
,
0010
0100
0001
0210
0000
0000
0310
0000
0000
1100
0000
0000
,
0100
0000
0010
0000
0000
0001
0000
0000
1000
0001
0000
0100
,
0000
0000
0000
0000
0000
0000
0000
0000
0010
0000
0000
0100
0000
0000
1000
0000
0000
0100
0000
0000
0010
0000
0000
0000
0001
0000
0000
0000
0000
0000
0000
0000
0000
0000
0000
0000
0010
0000
0000
0000
0000
0000
0000
0000
0000
0000
0000
0000
,
0000
0001
0000
0000
0010
0000
0000
0000
0000
0000
0011
0000
0000
0000
0000
0000
0010
0000
0000
0000
0000
0000
0110
0000
,
0000
0000
0000
0000
1000
0000
0010
0000
0000
0000
0100
0000
2000
0000
0000
0000
0100
0000
0100
0000
0000
3000
1002
0000
,
0000
0000
0010
0010
0003
2001
0000
0000
0100
0100
3000
1002
,
0000
0000
0010
1000
0103
0001
2000
0000
0010
0010
3000
1002
,
0000
0000
0100
0100
0003
2001
0000
0000
0100
0100
3000
1002
,
0000
0000
0103
0010
1000
0010
2002
0000
0000
0000
0000
0000
,
0000
0000
0000
0000
,
0000
0000
0000
0000
0000
0000
0000
0000
0000
0000
0000
0000
3003
0000
0100
0000
0000
0010
0000
0000
0100
0000
0000
0000
1001
0000
0000
0000
0000
0000
0000
0000
0000
0000
0000
0000
0110
0000
0000
0000
0000
0000
0000
0000
0000
0000
0000
0000
,
1001
0000
0000
0220
0000
0000
0000
0330
0010
1000
0000
0010
,
0100
0000
0001
0010
0000
0100
2200
0000
0000
0000
3300
0000
,
0000
0000
0000
0000
0000
0000
2020
0000
0000
0000
3030
0000
,
0220
0000
0000
0000
0330
0000
0202
0000
0000
0000
0303
0000
,
0000
0000
1000
0001
,
0100
0000
0000
0010
0000
0000
2020
0000
0000
0000
3030
0000
,
0010
0000
0100
0010
0000
0000
0022
0000
0000
0033
0000
0000
,
2020
3030
0202
0303
,
0000
0000
1100
0011
,
0220
0000
0330
0000
0000
0000
0220
0000
0000
0000
0330
0000
,
0000
0000
2002
3003
,
2002
0000
0000
0000
3003
0000
2020
0000
0000
3030
0000
0000
,
1000
0000
0000
0100
0000
0010
0000
0000
0010
1000
0000
0000
,
0200
0000
0000
0000
0300
0000
0202
0000
0000
0000
0303
0000
,
0210
0000
0000
0300
0000
0000
2020
0000
0000
0000
3030
0000
,
0220
0000
0000
0000
0330
0010
0001
0000
0000
1000
0000
0000
,
0010
0000
0000
0000
0000
0000
0000
0000
0100
0000
0000
0000
0010
0000
0000
0000
0000
0000
0000
0000
0001
0000
0000
0000
0100
0000
0000
0000
0000
0000
0000
0000
0010
0000
0000
0000
0100
0000
0000
0000
0000
0000
0000
0000
0200
0000
0000
2300
,
0000
0000
3200
0000
0000
0320
0000
0000
0230
0000
0000
0320
0000
0000
0032
0000
0000
0203
0000
0000
0320
0000
0000
0032
0000
0000
0003
0000
0000
0000
0000
0000
0100
0000
0000
0000
0001
0000
0000
0000
0000
0000
0000
0000
0010
0000
0000
0000
,
0002
0000
0000
0000
0003
0010
0000
0000
1000
0010
0000
0001
,
0020
0000
0030
0100
0000
0000
0010
0000
0000
1000
0000
0000
,
0001
0000
0000
0210
0000
0000
0000
0000
0010
0010
0300
0102
,
0000
0000
0013
0200
0000
0300
1000
0000
0010
0100
0000
0001
,
0020
0000
0030
0000
0000
1000
0000
0000
0100
0010
0000
0100
,
2000
0000
3000
1000
0000
0001
0100
0001
1000
0100
0010
0100
,
0001
0000
0010
0200
0000
0000
0000
0000
0010
0010
0300
0102
,
0000
0000
0013
0100
0000
0100
2000
0000
3000
0001
0000
0000
,
0100
0010
1000
0010
,
0200
0000
0000
0000
0300
0000
0100
0000
0000
0001
0000
0000
,
0100
0000
0000
0120
0000
0000
0000
0000
0100
1000
0030
0110
,
0000
0000
0100
1000
0000
0100
0010
0000
0000
0100
0000
0002
,
0000
0000
0100
0100
0003
2001
0000
0000
0010
0010
3000
1002
,
0000
0000
0000
0000
0000
0000
0010
0000
0003
0000
0000
0000
0100
0000
0000
0000
0000
0000
0010
0000
0000
0020
0000
0000
,
0000
0000
0000
0030
0000
0000
0000
0000
0000
0000
0100
0000
0000
0000
0000
0000
0010
0000
1000
0000
0000
0000
0000
0000
,
0100
0010
0001
0010
0100
0010
0002
0000
0000
0000
0000
0013
,
2000
0000
3010
2000
0000
3020
0000
0030
0100
1000
0000
2200
,
0000
3300
0100
0010
1000
0010
1000
0000
0000
0001
0000
0000
,
0110
0000
0000
2002
0000
0000
0000
3003
0001
1000
0001
1000
,
0010
0100
0010
0100
0010
0100
0020
0000
0000
1030
0000
0000
,
0010
0000
0100
0000
0000
0001
0000
0000
0010
0100
0000
0100
,
0010
0000
1000
0010
0000
0001
0010
0000
0010
0000
0000
0200
,
0000
0000
0000
0000
0300
0000
2000
0000
0000
3020
0000
0000
,
0230
0302
0023
2030
,
3002
0000
0100
0100
0003
2001
0000
0000
0010
0010
3000
1002
,
0000
0000
0013
0100
0000
1000
0010
0000
0000
0100
0000
0010
,
0001
0000
0100
0010
0000
1000
0000
0000
0100
0010
0000
0002
,
2003
3002
2003
3020
2030
3200
2300
0000
3000
0100
0000
0000
,
0010
0000
1000
0000
0000
0002
0000
0000
0013
0100
0000
1000
,
0010
0000
1000
0001
0000
0010
0100
0000
1000
0000
0000
0200
,
0000
0000
0000
0300
0000
0010
0002
0000
0000
0000
0000
0003
,
0020
0000
0030
2000
0000
3000
0200
0000
0300
0020
0000
2031
,
0000
0000
0100
0100
0000
3100
0002
0000
0100
0100
0000
2003
,
0000
0000
0000
0010
3000
0001
0010
0000
0000
1000
0000
0100
,
0020
0000
0030
0000
0000
0002
0000
0003
0010
1000
0000
0002
,
0000
0003
0000
0010
0000
0100
0002
0000
0003
0010
0000
1000
,
0200
0000
0300
0000
0000
0010
0000
0000
0100
0001
0000
0010
,
2000
0000
3100
0010
0001
1000
0100
0000
0000
0001
0000
0000
,
1100
0000
0000
0000
0100
0000
0000
0000
0010
0001
0000
0000
,
1000
0000
0000
0020
0000
0000
0230
0000
0000
0301
0000
0001
,
0010
0000
1000
0010
0000
0100
0000
0000
0001
0000
0000
1000
,
0001
1000
0001
0100
0010
0100
0020
0000
0000
1000
0000
0000
,
0100
0000
0000
1030
0000
0010
0000
0000
0100
0001
0000
0010
,
1000
0000
0100
0010
0000
0001
0020
0000
0000
1030
0000
0000
,
0010
0000
0100
0000
0000
0002
0000
0000
1003
0010
0000
0100
,
0001
0000
0010
1000
0000
1000
0200
0000
0000
0010
0000
0000
,
0301
0000
0000
0010
0000
1000
0000
0000
0100
0001
0000
0001
,
0010
0000
0010
1000
0000
0100
1000
0000
0000
0110
0000
0000
,
1001
0000
0110
0000
0000
2002
0000
0000
0000
0000
0000
0000
,
0000
0000
0000
0000
0000
3003
0000
0000
0000
0000
0000
0000
;

//---------------dance-single - Hard----------------
#NOTES:
     dance-single:
     Hard:
     Medium:
     5:
     0.423,0.541,0.250,0.809,0.146:
0000
0000
0000
0000
,
0000
0000
2002
3003
,
0000
0000
0000
0000
0000
0220
0000
0000
0330
0000
0000
0000
,
0000
0000
0000
0000
0000
2002
0000
0000
0000
0000
0000
0000
,
0000
0000
0000
0000
0000
0000
0003
0000
0000
0000
3000
0000
,
0000
0000
0000
0000
0000
0000
2000
0000
0000
0000
3000
0020
,
0000
0000
0000
0000
0030
0000
0000
0000
0000
0000
0000
0000
0000
0202
0000
0000
0000
0000
0000
0000
0000
0000
0000
0000
,
0000
0303
0000
0000
0000
0000
0000
0000
0000
0000
0000
0000
0010
0000
0000
0000
0000
0000
1000
0000
0000
0000
0000
0000
,
0010
0200
0310
1000
,
0101
0010
0010
0001
,
0010
0010
0001
0010
,
1000
0010
0001
0010
,
0001
0000
0000
0010
0000
0000
2000
0000
0000
0000
0000
3002
,
0000
0000
0000
0000
0000
2003
0000
0000
0000
0000
0000
3002
,
0000
0000
0000
0000
0000
2003
0000
0000
0000
0000
0000
3002
,
0000
0000
0000
0000
0000
2003
0000
0000
0000
0000
0000
3002
,
0000
0000
0000
0000
0000
0003
2002
0000
0000
0000
0000
0000
,
0000
0000
0000
0000
,
0000
3003
0000
0000
0000
0000
1001
0000
0000
0010
0000
0000
,
1001
0000
0000
0220
0000
0000
0000
0330
0000
0000
0000
0000
,
0000
0000
0000
0000
0000
0000
2200
0000
0000
0000
3300
0000
,
0000
0000
0000
0000
0000
0000
2020
0000
0000
0000
3030
0000
,
0220
0000
0000
0000
0330
0000
0202
0000
0000
0000
0303
0000
,
0000
0000
1000
0001
,
0100
0000
0000
0010
0000
0000
2020
0000
0000
0000
3030
0000
,
0000
0000
0022
0033
,
2020
3030
0202
0303
,
0000
0000
1000
0001
,
0020
0000
0030
0000
0000
0000
0220
0000
0000
0000
0330
0000
,
0000
0000
2002
3003
,
2002
0000
0000
0000
3003
0000
2020
0000
0000
3030
0000
0000
,
0000
0000
2020
3030
,
0200
0000
0000
0000
0300
0000
0202
0000
0000
0000
0303
0000
,
0000
0000
0000
0000
0000
0000
2020
0000
0000
0000
3030
0000
,
0220
0000
0000
0000
0330
0010
0001
0000
0000
1000
0000
0000
,
0010
0100
0001
0010
,
0100
0000
0000
1000
0000
0000
0010
0000
0000
1000
0000
0010
,
0002
0000
0000
0000
0003
0010
0000
0000
1000
0010
0000
0001
,
0020
0000
0030
0100
0000
0000
0010
0000
0000
1000
0000
0000
,
0001
0000
0000
0200
0000
0000
0000
0000
0000
0000
0000
0300
,
0000
0000
0000
0000
0000
0000
1000
0000
0000
0010
0000
0001
,
0020
0000
0000
0000
0030
0000
0000
0000
0000
1000
0000
0000
0000
0000
0000
0100
0000
0000
0000
0000
0000
0000
0100
0000
,
2000
0000
3000
1000
0000
0000
0100
0000
0000
0010
0000
0000
,
0001
0200
0000
0000
,
0300
0000
0000
0000
0000
0000
2000
0000
0000
0000
0000
3000
,
0200
0000
0000
0300
0000
0000
2000
0000
0000
0000
3000
0000
,
0200
0000
0000
0000
0300
0000
0100
0000
0000
0001
0000
0000
,
0100
0000
0000
0020
0000
0000
0000
0000
0000
0000
0030
0000
,
0000
0000
0000
0000
0000
0000
0001
0000
0000
0100
0000
0002
,
0000
0000
0000
0000
0000
2003
0000
0000
0000
0000
0000
3002
,
0000
0000
0003
0010
0000
0000
0100
0000
0000
0010
0000
0000
,
0010
0000
0000
0000
0000
0100
0000
0000
0010
1000
0000
0000
,
0100
0000
0000
0010
0000
0000
0002
0000
0000
0000
0000
0003
,
2000
0000
0000
0000
3000
0020
0000
0000
0000
0000
0000
0030
,
0200
0310
1000
0001
,
0100
0000
0000
2002
0000
0000
0000
3003
0004
4000
0000
0000
,
0000
0000
3013
0001
,
0010
0001
0010
1001
,
0001
0010
0001
0010
,
1000
0010
0001
0010
,
0001
0010
0100
0010
,
1000
0000
1000
0001
0000
2002
0000
0000
0000
0000
0000
3223
,
0000
0330
1000
0010
,
0001
0010
1000
0010
,
0200
0000
0000
0000
0000
0000
2300
0000
3000
0100
0000
0000
,
0020
0000
0000
2030
0000
0000
3000
0000
,
0010
0000
1000
0001
0000
0010
0100
0000
1000
0000
0000
0200
,
0000
0000
0000
0300
0000
0010
0002
0000
0000
0000
0000
0003
,
0020
0000
0030
2000
0000
3000
0200
0000
0300
0020
0000
2030
,
0000
0000
0000
0000
0000
3000
0002
0000
0000
0000
0000
2003
,
0000
0000
0000
0000
3000
0000
0001
0000
0000
0010
0000
0000
,
0001
0000
0000
1000
0000
0010
0000
0001
,
0000
0000
0001
0010
,
0001
0000
0000
1000
0000
0000
0010
0000
,
0001
0000
1000
0001
,
1000
0000
0000
0100
0000
0000
0010
0000
,
1000
0010
0200
0000
,
0000
0000
0000
0000
0000
0000
0000
0000
0000
0000
0300
0000
,
0000
0000
0001
0010
,
0001
0000
1000
0010
,
0001
0010
0001
0010
,
0001
0000
0000
0010
0000
0000
0001
0000
,
0010
0001
0010
1000
,
0010
0000
0001
0010
,
0001
0010
1000
0010
,
0001
0010
0000
2002
0000
0000
0000
0000
,
0000
0000
3003
0000
;

//---------------dance-single - Medium----------------
#NOTES:
     dance-single:
     Medium:
     Easy:
     4:
     0.300,0.361,0.008,0.476,0.050:
0000
0000
0000
0000
,
0000
0000
0000
0000
,
0000
0000
0000
0000
,
0000
0000
0000
0000
,
0000
0000
0000
0000
,
0000
0000
0000
0000
0000
0000
2000
0000
0000
0000
3000
0020
,
0000
0000
0000
0000
0030
0000
0000
0000
0000
0000
0000
0000
0000
0202
0000
0000
0000
0000
0000
0000
0000
0000
0000
0000
,
0000
0303
0000
0000
0000
0000
0000
0000
0000
0000
0000
0000
0010
0000
0000
0000
0000
0000
1000
0000
0000
0000
0000
0000
,
0010
0200
0310
1000
,
0100
0010
0001
0010
,
0010
0100
0100
0010
,
1000
0100
0010
0010
,
0010
0000
0000
0100
0000
0000
2000
0000
0000
0000
0000
3002
,
0000
0000
0000
0000
0000
2003
0000
0000
0000
0000
0000
3002
,
0000
0000
0000
0000
0000
2003
0000
0000
0000
0000
0000
3002
,
0000
0000
0000
0000
0000
2003
0000
0000
0000
0000
0000
3002
,
0000
0000
0000
0000
0000
0003
2000
0000
0000
0000
0000
0000
,
0000
0000
0000
0000
,
0000
0000
0000
0000
3000
0000
1000
0000
0000
0010
0000
0000
,
1000
0000
0000
0020
0000
0000
0000
0030
0000
0000
0000
0000
,
0000
0000
0000
0000
0000
0000
0200
0000
0000
0000
0300
0000
,
0000
0000
0000
0000
0000
0000
0020
0000
0000
0000
0030
0000
,
0020
0000
0000
0000
0030
0000
0002
0000
0000
0000
0003
0000
,
0000
0000
1000
0000
,
0100
0000
0000
0000
0000
0000
0020
0000
0000
0000
0030
0000
,
0000
0000
0020
0030
,
0020
0030
0200
0300
,
0000
0000
1000
0001
,
0020
0000
0030
0000
0000
0000
0200
0000
0000
0000
0300
0000
,
0000
0000
0002
0003
,
2000
0000
0000
0000
3000
0000
0020
0000
0000
0030
0000
0000
,
0000
0000
2000
3000
,
0200
0000
0000
0000
0300
0000
0200
0000
0000
0000
0300
0000
,
0000
0000
0000
0000
0000
0000
0020
0000
0000
0000
0030
0000
,
0200
0000
0000
0000
0300
0000
0001
0000
0000
1000
0000
0000
,
0010
1000
0001
0100
,
0010
0001
1000
0010
,
1000
0000
0010
0100
,
0001
0100
0010
1000
,
0001
0000
0000
0200
0000
0000
0000
0000
0000
0000
0000
0300
,
0000
0000
1000
0001
,
1000
0000
0001
1000
,
0001
1000
0100
0010
,
0001
0200
0000
0000
,
0300
0000
0000
0000
0000
0000
2000
0000
0000
0000
0000
3000
,
0200
0000
0000
0300
0000
0000
2000
0000
0000
0000
3000
0000
,
0200
0000
0000
0000
0300
0000
0100
0000
0000
0001
0000
0000
,
0100
0000
0000
0020
0000
0000
0000
0000
0000
0000
0030
0000
,
0000
0000
0000
1000
,
0000
0001
0000
1000
,
0000
0001
0000
0100
,
0000
0010
0000
1000
,
0100
0000
0000
0010
0000
0000
0002
0000
0000
0000
0000
0003
,
2000
0000
0000
0000
3000
0020
0000
0000
0000
0000
0000
0030
,
0200
0310
1000
0001
,
0100
0000
0000
0002
0000
0000
0000
0000
0000
0000
0000
0003
,
0000
0000
0000
1000
,
0000
0001
0000
0100
,
0000
0010
0001
0010
,
1000
0010
0001
0020
,
0230
0000
0000
0302
0000
0000
0023
0000
0000
0000
0000
0032
,
0000
0000
0000
0000
,
0000
0003
0010
1000
,
0001
0000
0010
0000
,
1000
0000
0010
0001
,
0010
0000
1000
0010
,
0001
0000
0010
0001
,
0010
0000
1000
0010
,
0020
0000
0030
2000
0000
3000
0200
0000
0300
0020
0000
0032
,
0000
0000
0000
0000
,
0000
0003
0000
0000
0000
0000
1000
0000
0000
0001
0000
0000
,
0001
0000
1000
0000
,
0001
0000
1000
0001
,
0010
0000
0100
0000
,
1000
0000
0010
0001
,
0010
0000
1000
0010
,
0001
0000
0010
0010
,
0010
0000
1000
1000
,
1000
0000
0001
1000
,
0001
0000
0100
0010
,
0100
0000
0010
0001
,
0010
0000
0100
1000
,
0100
0000
0010
0001
,
0010
0000
0100
1000
,
0100
0010
0001
0010
,
0200
0000
0300
0020
0000
0000
0000
0000
,
0000
0000
0000
0000
0000
0030
0000
0000
;

//---------------dance-single - Blank----------------
#NOTES:
     dance-single:
     Blank:
     Beginner:
     3:
     0.149,0.217,0.000,0.083,0.000:
0000
0000
0000
0000
,
0000
0000
0000
0000
,
0000
0000
0000
0000
,
0000
0000
0000
0000
,
0000
0000
0000
0000
,
0000
0000
0000
0000
,
0000
0000
0000
0000
,
0000
0000
0000
0000
,
0000
0000
1000
0000
,
0000
0000
0001
0000
,
0000
0000
1000
0000
,
0000
0000
0001
0000
,
0000
0000
0100
0000
,
0000
0010
0000
0000
,
0000
0000
1000
0000
,
0000
0000
0010
0000
,
0000
0000
0200
0000
,
0000
0000
0000
0000
,
0000
0000
0310
0000
,
0010
0020
0000
0000
,
0030
0000
0010
0000
,
0000
0000
0001
0000
,
0001
0000
0001
0000
,
0000
0000
0010
0000
,
0010
0000
0010
0000
,
0000
0000
1000
0000
,
1000
0000
1000
0000
,
0000
0000
0001
0000
,
0001
0000
0001
0000
,
0000
0000
0100
0000
,
0100
0000
0100
0000
,
0000
0000
0010
0000
,
0010
0000
0010
0000
,
0000
0000
1000
0000
,
1000
0000
1000
0000
,
0000
0000
0010
0000
,
0100
0000
0010
0000
,
0001
0000
0100
0000
,
0010
0000
1000
0000
,
0010
0020
0000
0000
,
0030
0000
0010
0000
,
0001
0000
1000
0000
,
0001
0000
0100
0000
,
0010
0020
0000
0000
,
0030
0000
1000
0000
,
0001
0000
1000
0000
,
0001
0000
0100
0010
,
0010
0020
0000
0000
,
0030
0000
1000
0000
,
0001
0000
1000
0000
,
0010
0000
0100
0000
,
0010
0000
1000
0000
,
0010
0000
0200
0000
,
0000
0000
0000
0000
,
0000
0300
0010
0000
,
0010
0000
0000
0000
,
0000
0000
1000
0000
,
0001
0000
0100
0000
,
0010
0000
1000
0000
,
0010
0000
0100
0000
,
0001
0000
1000
0000
,
0010
0000
0001
0000
,
1000
0000
0001
0000
,
0100
0000
0010
0000
,
1000
0000
0001
0000
,
0100
0000
0010
0000
,
0100
0000
0010
0000
,
0001
0000
1000
0000
,
0001
0000
1000
0000
,
0001
0000
0100
0000
,
0001
0000
0001
0000
,
1000
0000
0001
0000
,
0100
0000
0001
0000
,
0100
0000
0010
0000
,
1000
0000
0010
0000
,
0001
0000
0010
0000
,
1000
0000
0020
0000
,
0000
0000
0000
0030
,
0000
0000
2000
0000
,
0000
0000
0000
0000
,
3000
0000
0000
0000
,
0000
0000
0000
0000
,
0000
0000
0002
0000
,
0000
0000
0000
0000
,
0000
0003
1000
0000
,
0001
0200
0000
0000
,
0000
0000
0300
0000
;
