#TITLE:Bokura Wa Ima No Naka De;
#SUBTITLE:;
#ARTIST:u's;
#TITLETRANSLIT:;
#SUBTITLETRANSLIT:;
#ARTISTTRANSLIT:;
#GENRE:;
#CREDIT:CHMEX;
#BANNER:banner.png;
#BACKGROUND:BGI.png;
#LYRICSPATH:;
#CDTITLE:;
#MUSIC:Bokura Wa Ima No Naka De.mp3;
#OFFSET:0.000;
#SAMPLESTART:61.760;
#SAMPLELENGTH:12.000;
#SELECTABLE:YES;
#BPMS:0.000=196.000;
#STOPS:0.000=0.530
;
#BGCHANGES:0.000=BGA.avi=1.000=0=0=1=StretchNormal====,
99999=-nosongbg-=1.000=0=0=0 // don't automatically add -songbackground-
;
#KEYSOUNDS:;

//---------------dance-single - Blank----------------
#NOTES:
     dance-single:
     Blank:
     Hard:
     9:
     0.630,1.000,0.246,0.896,0.031:
0000
0000
0000
0000
,
0000
0000
0000
0000
,
0000
0000
0000
0000
,
0000
0000
0000
0000
,
0000
0000
0000
0000
,
0000
0000
0000
0000
,
0000
0000
0000
0000
,
0000
0000
0000
0000
,
0000
0000
0000
0000
,
0110
0000
0000
0000
0000
0000
0001
0010
,
0000
0000
0100
0000
0010
0000
0100
0002
,
0000
0003
0000
0000
0000
0000
0000
0000
0000
0000
0010
0000
0100
0000
0002
0000
,
0000
0003
0000
0000
0000
0000
0000
0000
0000
0000
0100
1000
0010
0000
0000
0000
,
0010
0000
1000
0100
0010
0100
0001
0010
,
0100
0010
0100
1000
0010
1000
0010
0100
,
0001
1000
0100
0001
1000
0010
0001
1000
,
0001
0100
0001
1000
0001
0100
0010
1000
,
0020
0000
0000
0030
0000
0100
0010
0100
,
0000
0101
0000
0202
0303
0000
0200
0300
,
0100
0000
0010
0000
0001
0000
2000
3000
0002
0003
1000
0000
0010
0000
2000
0000
,
3020
0230
0320
0031
0100
1000
0010
1000
,
0200
0000
0000
0000
0000
0000
2300
0000
0000
3000
0000
0000
0020
0000
0000
0000
0000
0000
0100
0000
0030
0000
0000
0000
1000
0000
0000
0000
0000
0000
0002
0000
0000
0000
0000
0000
0203
0000
0000
0000
0000
0000
0320
0000
0000
0000
0000
0000
,
1030
0100
0010
1000
0001
1000
0010
1000
,
0100
2000
3020
0230
0301
1000
0010
1000
,
0200
2300
3020
0230
0310
1000
0001
0100
,
0010
1000
0100
0010
1000
0100
0001
0110
,
0000
1010
0000
0110
0000
0010
0100
0000
,
0200
0300
2000
3100
0010
0001
0010
0100
,
0020
2030
3002
1003
0100
1000
0010
0100
,
0002
2003
3020
2030
3010
0200
0320
0032
,
1003
0010
0100
1000
0001
0100
0010
0000
,
0100
0000
0001
0000
0100
0000
0010
0100
,
0000
0000
0000
1000
0010
0100
0010
0001
,
0010
0000
0010
0200
0000
0000
0000
1310
,
0000
1010
0000
1000
0010
0000
0001
0200
,
0000
0300
0100
0010
0100
0000
0100
1000
,
0100
0000
0001
0020
0000
0030
0000
0100
,
0001
0000
0100
0000
0001
0010
0100
0020
,
0000
0030
0000
0001
0010
0000
0100
0010
,
0000
0000
0020
0000
1030
0000
0000
0100
,
1000
0010
0001
0010
0000
0010
0000
0200
,
0000
0300
0000
0000
0000
0000
0002
2003
,
3000
0000
0000
0000
0010
0000
0100
0000
0001
1000
0100
0000
0001
0000
0010
1000
,
0020
0032
1003
0010
0001
0010
0100
0010
,
0002
0203
0320
1030
0001
0010
0100
1000
,
0010
0100
0010
1000
0001
0010
0001
0020
,
0000
0000
0030
0000
0001
0000
0100
2000
,
0000
0000
0000
3000
0100
0000
0010
0002
,
0000
0003
0100
0000
0010
0000
0100
0020
,
0000
0000
0030
0000
0010
0100
0001
0101
,
0000
0110
0000
0100
1000
0100
0010
0001
,
0020
0000
0000
0030
0000
0000
0010
0200
,
0000
0300
0002
0000
0020
0033
0011
0000
,
0010
0000
0010
0100
0000
1000
0100
0220
,
0000
0000
0330
0000
0010
0000
1000
0100
,
0000
0000
0010
0000
0020
0030
0000
2100
,
3000
0000
0100
0000
0020
0030
0000
0002
,
0003
0000
0010
0000
0100
0000
1000
0200
,
0000
0000
0000
0300
0000
0000
1000
0000
0010
0000
0100
0000
0010
0000
0001
0000
,
0020
0000
0000
0030
0000
0000
0001
0020
,
0000
0030
0100
0000
1000
0000
0100
0000
,
0101
0000
0010
1200
0300
0010
0100
0002
,
0000
0000
0020
0033
0011
0000
0011
0100
,
0000
0000
1000
0000
0020
0030
0000
0202
,
0000
0000
0000
0303
0020
0000
0030
0000
0202
0000
0000
0000
0303
0000
0100
0000
,
1000
0000
0010
0001
0000
0100
0000
0012
,
0000
0000
0000
0000
0003
0000
0000
0000
0100
0010
0001
1000
0100
1000
0010
1000
,
0100
0010
1000
0010
0100
0001
0100
1000
,
0100
0010
0001
0100
0001
0100
0010
0001
,
0010
0100
1000
0010
0001
0020
1030
0100
,
0010
0001
0100
0020
0000
0000
0000
0030
,
1100
1000
0110
0010
,
0100
0000
0100
0020
0000
0030
0000
0000
,
0100
0000
0010
0000
0100
0000
0002
0000
0000
0000
0010
0003
0100
0000
0020
0000
,
0000
0000
0000
0000
0030
0100
1000
0200
,
0000
0000
0000
0000
0000
0000
0300
2020
,
0000
0000
0000
0000
0000
3030
0000
0220
,
0000
0000
0000
0000
0330
0000
0000
2020
,
0000
0000
0000
0000
0000
3032
0000
0000
,
0223
0000
0000
0000
0000
0330
0000
2020
,
0000
0000
0000
0000
3030
0000
0000
0202
,
0000
0000
0000
0000
0000
0000
0303
2000
,
0000
3000
0000
0001
0001
0010
0100
0010
,
0100
0000
1000
0200
0000
0000
0000
0000
,
0000
0000
0000
0000
,
0000
0000
0000
0000
0000
0020
0000
0000
,
0000
0000
0000
0000
0000
0030
0000
0020
,
0000
0000
0000
0000
0000
0032
0000
0000
,
0000
0000
0000
0000
0000
0000
0000
0000
0020
0003
0000
0000
0000
0000
0000
0000
,
0000
0000
0000
0000
,
0000
0000
0000
0000
,
0000
0000
0000
0000
,
0000
0330
0000
0000
;

//---------------dance-single - Hard----------------
#NOTES:
     dance-single:
     Hard:
     Challenge:
     12:
     0.776,1.000,0.430,0.904,0.105:
0000
0000
0000
0000
,
0000
0000
0000
0000
,
0000
0000
0000
0000
,
0000
0000
0000
0000
,
0000
0000
0000
0000
,
0000
0000
0000
0000
,
0000
0000
0000
0000
,
0000
0000
0000
0000
,
0000
0000
0000
0000
,
0110
0000
0000
0000
0000
0000
0001
0010
,
0000
0000
0100
0000
0010
0000
0100
0102
,
0000
0003
0000
0000
0000
0000
0000
0000
0000
0000
0010
0000
0100
0000
0102
0000
,
0000
0003
0000
0000
0000
0000
0000
0000
0000
0000
0100
1000
0020
0000
0030
0000
,
0010
0000
1000
0100
0010
0100
0001
0110
,
0100
0010
0100
1000
0010
1000
0010
0100
,
0101
1000
0100
0001
1000
0010
0001
1100
,
0001
0100
0001
1000
0001
0100
0010
1000
,
0120
0000
0100
0030
0100
0100
0010
0100
,
0000
0101
0000
0202
0303
0000
0200
0300
,
0100
0000
0010
0000
0001
0000
2000
3000
0002
0003
1000
0000
0110
0000
2000
0000
,
3020
0230
0320
0031
0100
1000
0110
1000
,
0200
0000
0000
0000
0000
0000
2300
0000
0000
3000
0000
0000
0020
0000
0000
0000
0000
0000
0100
0000
0030
0000
0000
0000
1000
0000
0000
0000
0000
0000
0002
0000
0000
0000
0000
0000
0203
0000
0000
0000
0000
0000
0320
0000
0000
0000
0000
0000
,
1030
0100
0010
1000
0001
1000
0110
1000
,
0100
2000
3020
0230
0301
1000
0110
1000
,
0200
2300
3020
0230
0310
1000
0110
0100
,
0010
1000
0100
0010
1000
0100
0001
0110
,
0000
0000
1010
0000
0000
0000
0110
0000
0000
0000
0010
0000
0100
0000
0100
1000
,
0200
0310
2000
3100
0010
0001
0010
0100
,
0020
2030
3002
1003
0100
1000
0010
0100
,
0002
2003
3020
2030
3010
0200
0320
0032
,
1003
0010
0100
1000
0001
0100
0010
0000
,
0100
0000
0001
0000
0100
0000
0010
0100
,
0000
0000
0000
1000
0010
0100
0010
0001
,
0010
0000
0010
0200
0000
0000
0000
1310
,
0000
1010
0000
1010
1000
0000
0100
0120
,
0000
0030
0100
0010
0100
0000
0100
1000
,
0100
0000
0001
0020
0000
0030
0000
0100
,
0001
0000
0100
0000
0001
0010
0100
0020
,
0000
0030
0000
0001
0010
0000
0100
0110
,
0000
0000
0020
0000
1030
0000
0000
0100
,
1000
0010
0001
0010
0000
0010
0000
0210
,
0000
0300
0000
0000
0000
0000
0002
2003
,
3000
0000
1000
0000
0001
0010
0100
0000
0001
1000
0001
0000
0010
0000
0010
1000
,
0020
0032
1003
0010
0001
0010
0100
0010
,
0002
0203
0320
1030
0001
0010
0100
1000
,
0010
0100
0010
1000
0001
0010
0001
0100
,
1000
0100
0001
0100
0010
0100
1000
0100
,
0010
0001
0010
0100
1000
0100
0010
0002
,
0013
0100
1000
0100
0010
0001
0100
0020
,
0000
0000
0030
0000
0010
0100
0001
0101
,
0000
0110
0000
0100
1000
0100
0010
0001
,
0020
0000
0000
0000
0030
0000
0010
0200
,
0000
0000
0300
0000
0002
0000
0000
0000
0020
0000
0000
0033
0011
0000
0000
0000
,
0010
0000
0001
0110
0000
0100
1000
0020
,
0000
0000
0000
0030
0100
0000
2100
0010
,
3000
0000
0001
0000
0020
0000
0030
1200
,
0000
0000
0000
0300
1000
0000
0000
0000
0200
0000
0000
0000
0300
0000
0022
0000
,
0033
0010
0010
0100
0100
1000
1000
0200
,
0000
0000
0000
0300
0000
0000
1000
0100
0010
0000
0100
0010
0100
0000
0001
0000
,
0020
0000
0000
0030
0000
0000
0001
0020
,
0000
0030
0100
0000
1000
0000
0100
0000
,
0101
0000
0010
1200
0300
0010
0100
0002
,
0000
0013
0011
0010
0011
0010
0011
0100
,
0000
0000
1000
0000
0020
0130
0010
0202
,
0000
0000
0313
1000
0020
0000
0030
0000
0101
0000
0010
0001
0200
0300
0100
0000
,
1000
0000
0100
0001
0010
0000
0001
0000
0010
1000
0100
0000
0010
0000
0012
0000
,
0000
0000
0010
0000
0013
0000
0010
0001
0100
0010
0001
1000
0100
1000
0010
1000
,
0100
0010
1000
0010
0100
0001
0100
1000
,
0100
0010
0001
0100
0001
0100
0010
0001
,
0010
0100
1000
0010
0001
0020
1030
0100
,
0010
0001
0100
0020
0000
0000
0000
0030
,
1100
1000
0110
0010
,
0100
0000
0000
0000
0100
0000
0020
0000
0000
0000
0031
0000
0100
0000
0010
1000
,
0100
0000
0010
0000
0100
0000
0002
0000
0000
0000
0010
0003
0100
0000
0020
0000
,
0000
0130
0010
1000
0100
0100
1000
0220
,
0000
0000
0330
0000
0010
1000
0010
0000
0001
0000
1000
0000
0001
0000
0220
0000
,
0000
0000
0330
0000
0001
1000
0100
0000
0010
0000
0100
0000
1000
0000
0220
0000
,
0000
0000
0000
0000
1330
0001
1000
0000
0100
0000
0010
0000
0220
0000
0000
0330
,
0001
1000
0001
0000
0100
0000
0010
0000
1000
0000
0100
0000
1002
0000
0000
0000
,
0223
0000
0000
0000
0331
1000
0001
0000
0010
0000
0100
0000
0010
0000
0220
0000
,
0000
0000
0330
0000
0002
1003
0001
0000
0100
0000
0010
0000
0100
0000
0220
0000
,
0000
0000
0000
0000
0331
1000
0001
0000
0100
0000
0010
0000
0100
0000
0220
0000
,
0000
0330
0000
0001
0001
0010
0100
0010
,
0100
0000
1000
0200
0000
0000
0000
0000
,
0000
0000
0000
0000
,
0000
0000
0000
0000
0000
0020
0000
0000
,
0000
0000
0000
0000
0000
0030
0000
0020
,
0000
0000
0000
0000
0000
0032
0000
0000
,
0000
0000
0000
0000
0000
0000
0000
0000
0020
0003
0000
0000
0000
0000
0000
0000
,
0000
0000
0000
0000
,
0000
0000
0000
0000
,
0000
0000
0000
0000
,
0000
0330
0000
0000
;

//---------------dance-single - Hard----------------
#NOTES:
     dance-single:
     Hard:
     Medium:
     8:
     0.475,0.527,0.114,0.632,0.000:
0000
0000
0000
0000
,
0000
0000
0000
0000
,
0000
0000
0000
0000
,
0000
0000
0000
0000
,
0000
0000
0000
0000
,
0000
0000
0000
0000
,
0000
0000
0000
0000
,
0000
0000
0000
0000
,
0000
0000
0000
0000
,
0110
0000
0000
0000
0000
0000
0001
0010
,
0000
0000
0100
0000
0010
0000
0100
0002
,
0000
0003
0000
0000
0000
0000
0000
0000
0000
0000
0010
0000
0100
0000
0002
0000
,
0000
0003
0000
0000
0000
0000
0000
0000
0000
0000
0100
0000
1000
0000
0000
0000
,
0200
0300
1000
0100
0000
0010
0000
0200
,
0000
0300
0010
0000
0100
0000
1000
0000
,
0200
0000
1300
0020
0000
0000
0130
0002
,
0000
0013
1000
0010
,
0021
0000
0000
0030
0000
0100
0010
0100
,
0000
0100
0000
0200
0300
0000
0020
0030
,
1000
0000
0010
0000
0100
0001
0100
0000
,
0010
0000
1000
0000
0010
1000
0100
0000
,
0010
0000
0100
0000
0010
0001
0100
0000
,
0010
0000
1000
0000
0010
0100
0010
0000
,
0001
0000
1000
0000
0010
1000
0001
0000
,
0100
0000
0010
0000
0100
0001
0100
0000
,
0010
0000
1000
0000
0001
0100
0010
0100
,
0000
0100
0000
0100
0000
0000
0100
0000
,
0010
0000
0100
0000
0001
1000
0010
0000
,
0100
0000
0001
0000
0010
0001
0010
0000
,
0001
0000
0100
0000
0010
1000
0010
0000
,
0100
0000
0010
0000
0001
0100
0010
0000
,
0100
0000
0001
0000
0100
0000
0010
0100
,
0000
0000
0000
0010
0100
0010
0001
0010
,
1000
0000
0010
0200
0000
0000
0300
0010
,
0000
0010
0000
0010
0001
0000
0001
0200
,
0000
0300
0010
0100
0010
0000
0100
1000
,
0100
0000
0010
0200
0000
0300
0000
0100
,
0010
0000
0001
0000
0010
0100
0010
0002
,
0000
0003
0000
0001
0010
0000
0100
0020
,
0000
0030
0020
0000
1030
0000
0000
0100
,
0010
0001
0010
0100
0000
0010
0000
0200
,
0000
0300
0000
0000
0000
0000
0002
2003
,
3000
0000
0000
0100
0002
0000
0013
0200
,
0000
0300
0010
0100
0010
0000
0100
0010
,
0100
0000
1000
0010
0000
0000
0000
0001
,
0020
0000
0030
0010
0000
1000
0001
0020
,
0000
0000
0030
0000
0001
0000
0100
2000
,
0000
0000
0000
3000
0100
0000
0010
0002
,
0000
0003
0100
0000
0010
0000
0100
0020
,
0000
0000
0030
0000
0010
0100
0001
0100
,
0000
0100
0000
0100
1000
0100
0010
0001
,
0020
0000
0000
0000
0000
0030
0010
0200
,
0000
0000
0302
0000
0020
0033
0011
0000
,
0001
0000
0010
0100
0000
1000
0010
0200
,
0000
0300
0000
0000
0100
0000
1000
0020
,
0030
0000
0001
0000
0020
0030
0000
0200
,
0300
0000
1000
0000
0200
0300
0000
0110
,
0000
0000
0020
0030
2000
3000
0010
0100
,
0000
0000
0000
0100
0010
0001
0010
0100
,
0020
0000
0000
0000
0030
0000
0001
0020
,
0000
0030
0100
0000
1000
0000
0100
0000
,
0101
0000
0010
0200
0300
0010
0100
0002
,
0000
0003
0000
0000
0100
0000
0001
0100
,
0000
0000
1000
0000
0020
0030
0000
0002
,
0000
0000
0000
0003
0020
0000
0030
0000
0002
0000
0000
0000
0003
0000
0100
0000
,
1000
0000
0010
0001
0000
0100
0000
0012
,
0000
0000
0003
0000
0100
0001
0010
0100
,
1000
0010
1000
0010
,
1010
0000
1000
0200
0000
0000
0300
0000
,
0010
1000
0001
0010
0000
0200
0000
0300
,
0010
1000
0001
0020
0000
0000
0000
0030
,
0010
0001
0010
0001
,
0010
0000
0100
0020
0000
0030
0000
0000
,
0100
0010
0100
0002
0003
0010
0100
0020
,
0000
0000
0000
0000
0030
0100
1000
0200
,
0000
0000
0000
0000
0000
0000
0300
2020
,
0000
0000
0000
0000
0000
3030
0000
0220
,
0000
0000
0000
0000
0330
0000
0000
2020
,
0000
0000
0000
0000
0000
3032
0000
0000
,
0223
0000
0000
0000
0000
0330
0000
2020
,
0000
0000
0000
0000
3030
0000
0000
0202
,
0000
0000
0000
0000
0000
0000
0303
2000
,
0000
3000
0000
0001
0001
0010
0100
0010
,
0100
0000
1000
0200
0000
0000
0000
0000
,
0000
0000
0000
0000
,
0000
0000
0000
0000
0000
0020
0000
0000
,
0000
0000
0000
0000
0000
0030
0000
0020
,
0000
0000
0000
0000
0000
0032
0000
0000
,
0000
0000
0000
0000
0000
0000
0000
0000
0020
0003
0000
0000
0000
0000
0000
0000
,
0000
0000
0000
0000
,
0000
0000
0000
0000
,
0000
0000
0000
0000
,
0000
0330
0000
0000
;

//---------------dance-single - Medium----------------
#NOTES:
     dance-single:
     Medium:
     Easy:
     5:
     0.247,0.324,0.000,0.237,0.000:
0000
0000
0000
0000
,
0000
0000
0000
0000
,
0000
0000
0000
0000
,
0000
0000
0000
0000
,
0000
0000
0000
0000
,
0000
0000
0000
0000
,
0000
0000
0000
0000
,
0000
0000
0000
0000
,
0000
0000
0000
0000
,
0200
0000
0000
0000
0000
0000
0300
0002
,
0000
0000
0000
0000
0003
0000
0000
0200
,
0000
0000
0000
0000
0000
0300
0000
0002
,
0000
0000
0003
0000
,
1000
0001
0100
0000
,
0001
0010
0010
0000
,
1000
0100
0100
0000
,
0100
0100
0010
0000
,
0020
0000
0000
0000
0000
0030
0000
0010
,
0000
0010
0000
0020
0000
0000
0030
0000
,
1000
0010
0100
0000
,
0010
1000
0010
0000
,
0010
0100
0010
0000
,
0010
1000
0010
0000
,
0001
1000
0010
0000
,
0100
0010
0100
0000
,
0010
0000
1000
0000
0001
0000
0000
0001
,
0000
0010
0000
0010
0000
0000
0100
0000
,
0010
0100
0000
0010
,
0100
0001
0000
0010
,
0001
0100
0000
0010
,
0100
0010
0000
0010
,
0100
0001
0000
0010
,
0001
1000
0100
0001
,
0010
0000
0200
0000
0000
0300
0000
0100
,
0000
0100
0000
0020
0000
0000
0000
0030
,
0100
0000
0001
0000
,
1000
0000
0010
0000
,
0100
0000
0010
0000
,
0001
0000
0010
0000
,
1000
0000
0010
0000
,
0010
0000
0000
0000
0001
0000
0000
0200
,
0000
0000
0000
0000
0300
0000
0000
0020
,
0030
0000
0000
0000
1000
0000
0000
0100
,
0000
0010
0000
1000
,
0000
0001
0000
0001
,
0000
1000
0000
1000
,
0000
0010
0000
0010
,
0000
0100
0000
0100
,
0000
0001
0000
0001
,
0000
1000
0000
0001
,
0000
0100
0000
0000
0000
0000
0000
0000
,
0002
0000
0000
0000
0000
0000
0003
2000
,
0000
0000
3010
0000
,
0001
0000
0000
1000
0000
0000
0000
0001
,
0000
0000
1000
0001
,
1000
0001
0100
0000
,
0001
1000
0001
0000
,
0010
0000
0000
0000
1000
0000
0000
0002
,
0000
0003
0000
0000
1000
0000
0001
0000
,
2000
0000
0000
0000
0000
0000
0000
3020
,
0000
0000
0230
0000
,
0301
0000
0000
0010
0000
0100
0000
1000
,
0000
0000
0010
0001
,
0010
0001
0010
0000
,
0001
0010
0010
0000
,
0001
0010
0100
0001
,
0000
0000
0010
1000
,
0001
1000
0001
1000
,
0001
1000
0000
0000
,
0001
0100
0001
0000
,
0010
1000
0010
0000
,
1000
0001
1000
0001
,
1000
0001
0000
0000
,
0010
0000
0000
0002
0000
0000
0003
2000
,
0000
0000
0000
0000
0000
0000
0000
3020
,
0000
0000
0000
0000
0000
0000
0030
2000
,
0000
0000
0000
0000
0000
0000
0000
3002
,
0000
0000
0000
0000
0000
0000
0000
0203
,
0000
0000
0000
0000
,
0302
0000
0000
0000
0000
0000
0000
2003
,
0000
0000
0000
0000
0000
0000
0000
3002
,
0000
0000
0000
0000
0000
0000
0000
0203
,
0000
0000
0000
0000
,
0320
0000
0000
0000
,
0000
0000
0000
0000
,
0000
0000
0000
0000
,
0000
0000
0000
0000
,
0000
0000
0000
0000
,
0000
0000
0000
0000
,
0000
0000
0000
0000
,
0000
0000
0000
0000
,
0000
0000
0000
0000
,
0000
0000
0000
0030
0000
0000
0000
0000
;

//---------------dance-single - Blank----------------
#NOTES:
     dance-single:
     Blank:
     Beginner:
     2:
     0.191,0.325,0.009,0.220,0.000:
0000
0000
0000
0000
,
0000
0000
0000
0000
,
0000
0000
0000
0000
,
0000
0000
0000
0000
,
0000
0000
0000
0000
,
0000
0000
0000
0000
,
0000
0000
0000
0000
,
0000
0000
0000
0000
,
0000
0000
0000
0000
,
0000
2000
0000
0000
0000
0000
0000
0000
,
0002
3000
0000
0000
0000
0000
0000
0003
,
2000
0000
0000
0000
0000
0000
0000
3000
,
0002
0000
0000
0000
,
0003
1000
0000
0001
,
0000
0010
0000
0010
,
0000
0100
1000
0010
,
0000
1000
0100
0001
,
0020
0000
0000
0000
0000
0000
0000
0130
,
0000
0010
0000
0200
0000
0000
0000
0300
,
0000
1000
0000
1000
,
0000
0001
0000
0001
,
0000
0100
0000
0100
,
0000
0010
0000
0010
,
0000
0100
0000
0100
,
0000
0001
0000
0001
,
0000
0000
0100
0000
0000
0000
0000
0010
,
0000
1000
0000
0010
0000
0000
0000
0000
,
0000
0001
0000
0001
,
0000
1000
0000
1000
,
0000
0001
0000
0001
,
0000
0100
0000
0100
,
0000
0010
0000
0010
,
0000
1000
0000
1000
,
0000
0001
0000
0001
,
0000
0100
0000
0020
,
0000
0000
0000
0030
,
0000
0000
0000
0000
,
0000
0000
0000
0000
,
0000
0000
0000
1000
0000
0000
0000
0020
,
0000
0000
0000
0000
0000
0030
0000
0000
,
0000
0000
0000
0000
,
0000
0000
0000
0000
,
0000
0000
0000
0000
1000
0000
0000
0002
,
0000
0000
0000
0003
,
0000
0001
0000
1000
,
0000
0001
0000
0100
,
0000
0001
0000
1000
,
0000
0001
0000
0100
,
0000
0010
0000
0001
,
0000
0000
0001
0000
0000
0000
0000
0010
,
0000
0010
0000
0000
0000
0000
0000
0000
,
2000
0000
0000
0000
0000
0000
0002
3000
,
0000
0000
0000
0003
1000
0000
0000
0000
,
0010
0000
0000
1000
0000
0000
0000
0010
,
0000
0000
0010
0000
,
0001
0000
1000
0000
,
1000
0000
0001
0000
,
0100
0000
0010
0000
,
0100
0000
0001
0000
,
0020
0000
0000
0000
0000
0000
0000
2030
,
0000
0000
3001
0000
,
0010
0000
0000
0100
0000
0000
0000
0020
,
0000
0000
0030
0000
,
1000
0000
0001
0000
,
0100
0000
0001
0000
,
1000
0000
0000
0000
0000
0001
0000
0200
,
0000
0000
0000
0000
0000
0000
0000
0300
,
0010
0010
0010
0000
,
1000
1000
1000
0000
,
0001
0001
0001
0000
,
1000
1000
1000
0000
,
0001
0001
0001
0000
,
0100
0100
0100
0000
,
0011
0000
0000
0010
0000
0000
0000
2000
,
0000
0000
0000
0000
0000
0000
0000
3000
,
0002
0000
0000
0000
0000
0000
0000
2003
,
0000
0000
0000
0000
0000
0000
0000
3020
,
0000
0000
0000
0000
0000
0000
0030
0200
,
0000
0000
0000
0000
,
0320
0000
0000
0000
0000
0000
0000
2000
,
0030
0000
0000
0000
0000
0000
0000
3002
,
0000
0000
0000
0000
0000
0000
0003
0200
,
0000
0000
0000
0000
,
0301
0000
0000
2000
0000
0000
0000
0000
,
0000
0000
0000
0000
,
0000
0000
0000
0000
,
0000
0000
0000
0000
,
0000
0000
0000
0000
,
0000
0000
0000
0000
,
0000
0000
0000
0000
,
0000
0000
0000
0000
,
0000
0000
0000
0000
,
0000
0000
0000
0000
0000
3000
0000
0000
;
