#TITLE:Bokura no LIVE Kimi to no LIFE;
#SUBTITLE:;
#ARTIST:u's;
#TITLETRANSLIT:;
#SUBTITLETRANSLIT:;
#ARTISTTRANSLIT:;
#GENRE:;
#CREDIT:CHMEX;
#BANNER:Bokura No Live Kimi To No Life.jpg;
#BACKGROUND:BGI.jpg;
#LYRICSPATH:;
#CDTITLE:;
#MUSIC:Bokura No Live Kimi To No Life.mp3;
#OFFSET:0.000;
#SAMPLESTART:76.520;
#SAMPLELENGTH:12.000;
#SELECTABLE:YES;
#BPMS:0.000=210.100,294.000=203.000,295.000=210.000;
#STOPS:0.000=0.220
;
#BGCHANGES:0.000=BGA BLKL.avi=1.000=0=0=0=StretchNoLoop====,
99999=-nosongbg-=1.000=0=0=0 // don't automatically add -songbackground-
;
#KEYSOUNDS:;

//---------------dance-single - Blank----------------
#NOTES:
     dance-single:
     Blank:
     Hard:
     9:
     0.651,0.830,0.186,0.709,0.042:
0000
0000
0000
0000
,
0000
0000
0000
0000
,
0000
0000
0000
0000
,
0000
0000
0000
0000
,
0000
0000
0000
0000
,
1000
0000
0100
0000
0101
0000
0000
0010
,
0000
0100
1010
0000
,
0010
0000
0001
0000
0110
0000
0000
0100
,
0000
0100
0010
0100
0010
0100
0010
0100
,
0002
0000
0000
0003
0000
0010
0000
1000
,
0000
0000
0020
0000
0000
0000
0031
0000
0100
0000
0001
0000
0000
0000
0000
0100
,
0010
0000
0010
0010
0000
0001
0010
0002
,
0000
0000
0000
0003
0010
0000
0000
0000
0010
0000
0100
0000
0010
0000
1000
0000
,
0200
0000
0000
0000
0000
0300
0000
0000
0000
0000
0020
0000
0000
0000
2030
0000
,
0000
0000
0000
0000
0000
0000
0000
0000
0000
3000
0000
0000
0010
0000
0000
0000
,
0100
1000
0100
0020
0030
0100
1000
0020
,
0000
0000
0030
0000
0000
0000
0100
0000
0000
0000
0000
0000
0001
0000
0000
0000
0000
0000
0020
0000
0000
0000
0000
0000
0000
0000
0000
0030
0000
0000
0001
0000
0000
0000
0000
0000
0020
0000
0000
0000
0000
0000
0030
0000
0000
0000
0000
0000
,
0202
0000
0000
0303
0000
1000
0000
0010
,
0000
0100
0000
0010
1000
0001
0000
0000
,
0020
0000
0001
0031
0000
0010
1000
0200
,
0000
0000
0000
0300
2000
3000
0010
0000
,
0100
0000
0001
0011
0000
1000
2200
0000
,
0000
3310
0001
0001
0010
0010
0100
0100
,
1010
0000
0010
2000
0000
0000
3000
0010
,
0000
0100
0000
0001
1000
0000
0010
0000
,
0101
0000
0010
1000
0000
0010
0000
0200
,
0000
0300
1000
0000
0010
0000
1000
0020
,
0000
0000
0000
0030
0000
0000
0010
0000
,
0100
0000
0001
0010
0000
1000
0000
0020
,
0000
0000
0000
0030
0000
0000
1000
0000
,
0010
0000
0100
0001
0000
0010
0000
2000
,
0000
0000
0100
3000
0100
0010
0100
0000
,
0100
1000
0010
0100
0010
1000
0001
0010
,
2002
3003
0010
0200
0000
0000
0000
0000
,
0000
0300
0000
0000
0000
0000
0010
1000
,
0001
0000
0010
0200
0000
0000
0300
0000
,
0000
0000
0010
0000
0100
0000
1000
0020
,
0000
0000
0000
0000
,
0000
0000
1030
0000
,
0010
1000
0101
0000
,
0000
0000
0001
1000
0001
0000
1000
0000
0001
0000
1000
0000
0001
0000
1000
0000
,
0202
0303
0001
1000
0000
0020
0000
0230
,
0000
0302
0000
0013
0000
1000
0000
0200
,
0000
0000
0000
0000
0000
0300
0010
0000
,
1000
0000
0001
0100
0000
0010
0000
2000
,
0000
0000
3000
0010
,
0100
0000
0010
0100
0000
0001
0000
0020
,
0000
0130
1000
0000
1000
0100
1000
0000
,
1000
0010
0001
0100
0010
1000
0100
1000
,
2020
3030
0100
1000
0000
0010
0000
0200
,
0000
0000
0000
0000
0300
0000
0010
1000
,
0001
0000
0010
0100
0000
0110
0000
0202
,
0000
0000
0303
0010
,
2000
0000
3000
1000
0100
1000
0100
0000
,
0010
0000
1000
0010
0000
0100
0000
0020
,
0000
0030
0110
0000
1000
0001
1000
0001
,
0100
0000
0001
1000
0001
0000
1000
0000
0001
0000
1000
0000
0001
0000
0100
0000
,
0020
0000
0000
0030
0010
0000
1000
0020
,
0000
0000
0130
0000
0001
0000
0010
0200
,
0000
0000
0000
0000
0000
0300
0000
0000
,
0000
0000
0000
0000
1000
0000
0100
0020
,
0000
0000
0030
0000
0001
0000
0010
0200
,
0000
0000
0310
0000
0001
0000
0010
2000
,
0000
0000
3000
0000
,
0200
0300
0020
0030
,
0002
0000
0010
0013
0000
0010
1000
0100
,
0001
0000
0001
1000
0001
0000
0001
1000
0001
0000
0001
1000
0001
0000
0000
0000
,
0110
0000
1000
0000
0010
0000
0100
0001
,
0000
0000
0010
0000
0100
0000
0010
2000
,
0000
3000
0010
0000
0100
0000
0010
0002
,
0000
0000
0013
0000
0010
0100
0001
0010
,
0100
0000
1000
0000
0010
0000
0100
0001
,
0000
0010
1000
0100
,
1000
0000
0010
0200
0000
0300
0010
0100
,
0000
0010
1000
0010
0100
0001
0200
0000
,
0320
0000
2030
0000
3010
0010
1000
0010
,
0000
0010
0100
0000
1000
0010
1000
0000
,
0010
0000
0100
0000
0001
0010
0100
0001
,
0000
0010
0100
0000
0010
0010
1000
0000
,
0010
0000
0100
0020
0000
0000
1030
0000
,
0010
0000
0100
0020
0000
0030
2000
0000
,
3002
0000
0000
0203
0000
0000
0320
0000
,
1030
0000
0000
0000
0100
0000
0001
1000
0001
0000
0001
1000
0001
0000
0001
1000
,
0001
0100
1000
0100
0010
0100
0001
0020
,
0000
1030
0100
0010
0001
0010
0100
0002
,
0000
0013
1000
0100
0010
0001
1000
0020
,
0000
0000
0000
0000
0000
0030
1000
0000
,
0010
0000
0100
0000
0001
0000
0010
2000
,
0000
3000
0010
0000
0100
0000
0001
0000
,
0010
0000
0001
0100
0000
1000
0100
0100
,
0000
1000
0100
1000
0100
0100
1000
0000
,
0200
0302
0203
0320
,
2030
3002
0103
0010
,
2002
0000
3003
0000
0220
0000
0330
2002
,
0000
0000
0000
3003
0010
0100
0010
0100
,
0002
0000
0000
0003
0020
0000
0000
0030
,
0020
0000
0030
0200
0000
0300
1000
0000
,
0001
0000
0100
0010
0000
1000
0010
1001
,
0000
1010
0110
0000
0000
0000
0000
0000
,
0010
0000
0010
0000
1000
0100
0010
1000
,
0010
0100
0001
0010
0100
1000
0010
0100
,
0010
0100
0001
0100
0010
0100
1000
0100
,
1000
0000
0100
0001
1000
0000
0100
0000
0010
0000
0001
0000
0010
0000
0100
0000
,
0002
0000
0003
0000
;

//---------------dance-single - Blank----------------
#NOTES:
     dance-single:
     Blank:
     Beginner:
     3:
     0.209,0.349,0.017,0.118,0.000:
0000
0000
0000
0000
,
0000
0000
0000
0000
,
0000
0000
0000
0000
,
0000
0000
0000
0000
,
0000
0000
0000
0000
,
0000
0000
1000
0000
,
0000
0000
0001
0000
,
0000
0000
1000
0000
,
0000
0000
0000
1000
,
0000
1000
0000
0001
,
0000
0001
0000
1000
,
0000
1000
0000
0100
,
0000
0001
0000
0200
,
0300
0000
0000
0100
,
0000
0100
0000
0001
,
0000
0010
0000
0010
,
0000
0100
0000
0001
,
0020
0030
0100
0000
,
0010
0000
0100
0000
,
0010
0000
0001
0000
,
0010
0000
0010
0000
,
1000
0000
0000
0020
,
0000
0030
0000
0000
,
1000
0000
0001
0000
,
0000
1000
0000
0000
,
0000
0001
0000
1000
,
0000
0001
0000
0100
,
0000
0010
0000
1000
,
0000
0010
0000
0100
,
0000
0010
0000
0100
,
0000
0100
0000
0001
,
0000
0001
0000
1000
,
0000
1000
0000
0010
,
0000
0020
0000
0030
,
0000
0000
0000
0000
,
0100
0000
2000
0000
,
3000
0000
0000
0000
,
0020
0000
0000
0000
,
0000
0000
0030
0000
,
0000
0000
0000
0000
,
0000
0000
0000
0000
,
0000
1000
0000
0010
,
0000
0001
0000
1000
,
0000
0010
0000
0100
,
0000
0010
0000
1000
,
0000
0001
0000
0100
,
0000
0010
0000
1000
,
0000
0100
0000
0100
,
0000
0001
0000
0001
,
0000
0020
0030
0000
,
0200
0000
0300
0000
,
0010
0000
0000
2000
,
0000
0000
3000
0000
,
0010
0000
0100
0000
,
0010
0000
0001
0000
,
0010
0000
1000
0000
,
0010
0000
0001
0010
,
0100
0000
0000
0000
,
0000
0000
0000
0000
,
0000
0000
0000
0000
,
0000
0000
0000
0000
,
0020
0000
0030
0000
,
0000
0000
0000
0000
,
0000
1000
0000
0001
,
0000
0100
0000
0010
,
0000
1000
0000
0010
,
0100
0010
0100
0010
,
1000
0001
0100
0010
,
0000
0010
0000
1000
,
0000
0001
0000
0100
,
0000
0010
0000
0100
,
0000
0010
0000
1000
,
0000
1000
0000
0001
,
0000
0001
0000
1000
,
0000
1000
0000
0001
,
0000
0001
0000
1000
,
0000
1000
0000
0010
,
0000
0010
0000
0100
,
0000
0100
0000
0010
,
0000
0010
0000
0100
,
0000
0010
0000
1000
,
0000
1000
0000
0010
,
0000
0100
0000
1000
,
0000
0001
0000
1000
,
0000
0100
0000
0010
,
0000
1000
0000
0010
,
0000
0100
0000
0010
,
0000
1000
0000
0010
,
0000
0100
0000
0010
,
0000
0001
0000
0010
,
0000
0010
0000
1000
,
0000
0010
0000
0100
,
0000
0010
0000
0100
,
0000
0010
0000
2000
,
0000
0000
3000
0000
,
0000
1000
0000
0001
,
0000
0100
0000
0010
,
0000
0200
0000
0310
,
0000
0000
0000
0000
,
0110
0000
0000
0000
,
0000
0000
0000
0000
,
0000
0000
0000
0000
,
0000
0000
0000
0000
,
0220
0000
0330
0000
;

//---------------dance-single - Hard----------------
#NOTES:
     dance-single:
     Hard:
     Challenge:
     12:
     0.833,0.961,0.312,0.743,0.046:
0000
0000
0000
0000
,
0000
0000
0000
0000
,
0000
0000
0000
0000
,
0000
0000
0000
0000
,
0000
0000
0000
0000
,
1000
0000
0100
0000
0101
0000
0000
0010
,
0000
0100
1010
0000
,
0010
0000
0001
0000
0110
0000
0000
0100
,
0000
0100
0010
0100
0001
1000
0001
0100
,
0220
0000
1330
0000
0100
0010
0010
1000
,
0100
0010
0001
0010
0100
0001
0100
1000
,
0010
0100
0010
0010
0100
0101
0010
0200
,
0000
0300
0100
0010
0001
0100
0010
1000
,
0100
0001
0010
0100
0010
0001
0010
0100
,
1000
0100
0001
0010
0100
0001
0010
1000
,
1100
1000
0100
0100
0010
0001
0010
0010
,
0100
1000
1000
0100
0010
0010
0001
0010
,
0210
0000
0000
0300
0010
1000
0100
0010
,
0001
0100
1000
0010
1000
0001
0100
0100
,
0020
0000
0031
0101
0000
0010
1000
0200
,
0000
0000
0000
0300
2000
0000
3010
0000
,
1100
0000
0001
0011
0000
1000
2200
0000
,
0000
3301
0001
0010
0010
0100
1000
1000
,
1010
0000
0010
2000
0000
0000
3000
0110
,
0000
0101
0000
0110
1100
0000
0110
0000
,
1001
0000
1000
0000
0010
0100
0010
0000
,
0010
0000
1000
0000
0010
0001
0100
0000
,
0010
0000
1000
0000
0100
1000
0010
0000
,
0100
0000
0001
0000
0010
0001
0100
0000
,
0010
0000
1000
0000
0010
1000
0001
0000
,
0100
0000
0010
0000
0001
0100
0010
0000
,
0100
0000
0010
0000
0100
0010
0100
0000
,
0100
1000
0010
0100
0010
1000
0001
0010
,
2002
3003
0010
0200
0000
0000
0000
0000
,
0020
0330
0200
2300
3000
0000
0010
1000
,
0001
0000
0010
0200
0000
0000
0020
0030
,
0020
0330
0010
0000
0100
0010
1000
0020
,
0200
0000
0000
0000
,
0000
0000
1331
0000
,
0010
1000
0101
0000
,
0000
0000
0001
1000
0001
0000
1000
0000
0001
0000
1000
0000
0001
0000
1000
0000
,
0202
0303
0001
1000
0100
0020
0001
0230
,
1000
0302
0100
0013
0010
0100
1000
0100
,
0010
1000
0010
0100
0010
0001
0010
1000
,
0100
0010
0001
0100
0100
0010
0010
1000
,
0100
0001
0010
0100
0010
0100
0010
0001
,
0100
1000
0010
0100
0010
0001
0100
0010
,
0002
0100
1000
0003
1000
0100
1000
0000
,
1000
0010
0001
0100
0010
1000
0100
1000
,
2020
3030
0100
1000
0000
0010
0000
0200
,
0000
0000
0000
0000
0300
0000
0010
1000
,
1001
0000
0010
0100
0000
0110
0000
0202
,
0000
0003
0002
0300
0203
0000
0301
0000
0010
0000
1000
0000
0010
0000
0100
0000
,
2000
0000
3000
1000
0100
1000
0100
0000
,
0010
0000
1000
0010
0000
0100
0000
0020
,
0000
0030
0110
0000
1000
0001
1000
0001
,
0100
0000
0001
1000
0001
0000
1000
0000
0001
0000
1000
0000
0001
0000
0100
0000
,
0020
0000
0000
0030
0010
0000
1000
0020
,
0000
0000
0130
0000
0001
0000
0010
0200
,
0000
0000
0000
0000
0000
0300
0000
0000
,
0020
0030
0200
0300
1000
0000
0100
0020
,
0000
0000
0030
0000
0001
0000
0010
0200
,
0000
0000
0310
0000
0001
0001
0010
0010
,
0210
0000
0000
0300
,
0200
0300
0020
0030
,
0002
0000
0010
0013
0000
0010
1000
0100
,
0001
0000
0010
1000
0010
0000
0100
0010
0100
0000
0010
0100
0010
0000
0100
0001
,
0100
0010
1000
0100
0010
0010
0100
1001
,
0010
0100
0010
0001
0100
0100
0010
2000
,
0100
3001
0010
0010
0100
0100
0010
0002
,
0000
0010
0103
0000
0010
0100
0001
0010
,
0010
0100
1000
0100
0010
0001
0100
0001
,
0100
0010
0010
0100
0010
0100
0001
0100
,
0110
0000
0001
0200
0000
0000
1300
0000
,
0100
0001
0010
0000
0100
1000
0010
0000
,
0200
0320
2030
3020
,
2030
3200
0320
0032
,
0023
0000
0130
0000
0001
0010
0100
0001
,
0000
0010
0100
0000
0010
0010
1000
0000
,
0010
0000
0100
0020
0000
0000
1030
0000
,
0010
0000
0100
0020
0000
0030
2000
0000
,
3002
0000
0000
0203
0000
0000
0320
0000
,
1030
0000
0000
0000
0010
0000
0100
1000
0100
0000
0100
0001
0100
0000
0100
1000
,
0100
0010
0100
1000
0010
0100
0001
0020
,
0100
1030
0100
0010
0001
0010
0100
0002
,
0100
0013
1000
0100
1000
0001
1000
0020
,
0000
0100
0001
0030
0001
0100
0010
0000
,
0010
1000
0100
0010
0001
0100
0010
2000
,
0100
3001
0010
0100
0100
0010
0001
1000
,
0010
0100
0001
0100
0010
1000
0100
0100
,
0000
1000
0100
1000
0100
0100
1000
0000
,
0200
0302
0203
0320
,
2030
0000
3002
0000
0103
0010
0010
0001
,
2002
0000
3013
0010
0110
0010
0010
2002
,
0000
0003
0002
3003
0020
0130
0010
0100
,
0002
0000
1000
0003
0020
0000
0001
0030
,
0020
1000
0230
0010
,
0302
0000
0103
0010
0000
1000
0010
1001
,
0000
0110
1001
0000
0000
0100
0010
0000
,
0010
0000
0010
0000
1000
0100
0010
1000
,
0010
0000
0100
0000
0001
0000
0010
0000
0100
0001
1000
0000
0010
0000
0100
0000
,
0010
0100
0001
0100
0010
0100
1000
0100
,
1000
0000
0100
0001
1000
0000
0100
0000
0010
0000
0001
0000
0010
0000
0100
0000
,
0220
0000
0330
0000
;

//---------------dance-single - Hard----------------
#NOTES:
     dance-single:
     Hard:
     Medium:
     7:
     0.528,0.785,0.118,0.810,0.000:
0000
0000
0000
0000
,
0000
0000
0000
0000
,
0000
0000
0000
0000
,
0000
0000
0000
0000
,
0000
0000
0000
0000
,
0000
0000
0001
0000
,
0000
0000
1000
0000
,
0000
0000
0100
0000
,
0000
0000
0000
0000
0000
0000
0010
0100
,
0002
0000
0000
0003
0000
1000
0000
0100
,
0000
0020
0000
0000
0000
0000
0030
0000
,
0100
0000
0010
0010
0000
0001
0010
0002
,
0000
0000
0000
0003
0010
0000
0000
0000
0010
0000
0100
0000
0010
0000
1000
0000
,
0200
0000
0000
0000
0000
0300
0000
0000
0000
0000
0020
0000
0000
0000
2030
0000
,
0000
0000
0000
0000
0000
0000
0000
0000
0000
3000
0000
0000
0010
0000
0000
0000
,
0100
1000
0100
0020
0030
0100
1000
0020
,
0000
0000
0030
0000
0000
0000
0100
0000
0000
0000
0000
0000
0001
0000
0000
0000
0000
0000
0020
0000
0000
0000
0000
0000
0000
0000
0000
0030
0000
0000
0001
0000
0000
0000
0000
0000
0020
0000
0000
0000
0000
0000
0030
0000
0000
0000
0000
0000
,
0202
0000
0000
0303
0000
1000
0000
0010
,
0000
0200
0000
0000
0000
0000
0000
0300
,
0020
0000
0031
0001
0000
0010
1000
0200
,
0000
0000
0000
0300
2000
3000
0010
0000
,
0100
0000
0001
0010
0000
1000
0200
0000
,
0000
0000
0000
0000
0300
0010
0100
0010
,
2000
3000
0010
2000
0000
0000
3000
0010
,
0000
0100
0000
0001
1000
0000
0010
0000
,
0110
0000
0010
1000
0000
0010
0000
0200
,
0000
0300
1000
0000
0010
0000
1000
0020
,
0000
0000
0000
0030
0000
0000
0010
0000
,
0100
0000
0001
0010
0000
1000
0000
0020
,
0000
0000
0000
0030
0000
0000
1000
0000
,
0010
0000
0100
0001
0000
0010
0000
2000
,
0000
0000
0000
0000
0000
0000
0000
3000
,
0100
1000
0010
0000
0010
0001
0100
0000
,
2002
3003
0010
0200
0000
0000
0000
0000
,
0000
0300
0000
0000
0000
0000
0010
1000
,
0001
0000
0010
0200
0000
0000
0300
0000
,
0000
0000
0010
0000
0100
0000
1000
0020
,
0000
0000
0000
0000
,
0000
0000
1130
0000
,
0000
0000
0101
0000
,
0000
1000
0001
1000
0001
1000
0001
1000
,
0002
0003
0001
1000
0000
0020
0000
0230
,
0000
0302
0000
0013
0000
1000
0000
0200
,
0000
0000
0000
0000
0000
0300
0010
0000
,
1000
0000
0001
0100
0000
0010
0000
2000
,
0000
0000
3000
0010
,
0100
0000
0010
0100
0000
0001
0000
0020
,
0000
0000
0000
0030
,
1000
0010
0001
0000
0010
1000
0100
0000
,
2020
3030
0100
1000
0000
0010
0000
0200
,
0000
0000
0000
0000
0300
0000
0010
1000
,
0001
0000
0010
0100
0000
0010
0000
0202
,
0000
0000
0303
0010
,
2000
0000
3000
0200
0000
0000
0300
0000
,
0010
0000
1000
0010
0000
0100
0000
0020
,
0000
0000
0000
0000
,
0030
1000
0001
1000
0001
1000
0001
0100
,
0020
0000
0000
0030
0010
0000
1000
0020
,
0000
0000
0130
0000
0001
0000
0010
0200
,
0000
0000
0000
0000
0000
0300
0000
0000
,
0000
0000
0000
0000
1000
0000
0100
0020
,
0000
0000
0030
0000
0001
0000
0010
0200
,
0000
0000
0310
0000
0001
0000
0010
2000
,
0000
0000
3000
0000
,
0200
0300
0020
0030
,
0002
0000
0010
0013
0000
0010
1000
0100
,
0001
1000
0001
1000
0001
1000
0001
0000
,
0110
0000
1000
0000
0010
0000
0100
0001
,
0000
0000
0010
0000
0100
0000
0010
2000
,
0000
3000
0010
0000
0100
0000
0010
0002
,
0000
0000
0013
0000
0010
0100
0001
0000
,
0100
0000
1000
0000
0010
0000
0100
0001
,
0000
0010
1000
0100
,
1000
0000
0010
0200
0000
0300
0010
0100
,
0010
0000
1000
0010
0100
0000
0200
0000
,
0320
0230
0302
0203
,
0310
0100
1000
0010
,
0200
0302
0023
2030
,
3020
0000
0130
0000
1000
0010
1000
0000
,
0010
0000
0100
0020
0000
0000
1030
0000
,
0010
0000
0100
0020
0000
0030
2000
0000
,
3002
0000
0000
0203
0000
0000
0320
0000
,
2030
0000
0000
3000
0200
0000
0301
1000
,
0010
0000
0100
0000
1000
0000
0001
0020
,
0000
0030
0100
0000
0001
0000
0100
0002
,
0000
0003
1000
0000
0010
0000
1000
0020
,
0000
0000
0000
0000
0000
0030
1000
0000
,
0010
0000
0100
0000
0001
0000
0010
2000
,
0000
3000
0010
0000
0100
0000
0001
0000
,
0010
0000
0001
0200
0000
0000
0000
0000
,
0000
0300
0000
0000
0001
0000
1000
0000
,
0200
0302
0203
0320
,
2030
3002
0103
0010
,
2002
0000
3003
0000
0220
0000
0330
2002
,
0000
0000
0000
3003
0010
0100
0010
0100
,
0002
0000
0000
0003
0020
0000
0000
0030
,
0020
0000
0030
0200
0000
0300
1000
0000
,
0001
0000
0100
0010
0000
1000
0010
0100
,
0000
0010
0010
0000
0000
0010
0100
0000
,
0110
0110
0000
0000
,
0000
0000
0000
0000
,
0000
0000
0000
0000
,
0000
0000
0000
0000
0010
0100
0000
0000
,
0220
0000
0000
0330
0000
0000
0000
0000
;

//---------------dance-single - Medium----------------
#NOTES:
     dance-single:
     Medium:
     Easy:
     5:
     0.247,0.349,0.025,0.338,0.000:
0000
0000
0000
0000
,
0000
0000
0000
0000
,
0000
0000
0000
0000
,
0000
0000
0000
0000
,
0000
0000
0000
0000
,
0000
0000
1000
0000
,
0000
0000
0001
0000
,
0000
0000
1000
0000
,
0000
0010
0000
0000
,
0110
1000
0000
0100
,
0000
0010
0000
0001
,
0000
0020
0030
1000
,
0000
0100
0000
0010
,
0000
0001
0000
0010
,
0000
0010
0000
0001
,
0020
0000
0030
0200
0000
0300
0000
2000
,
0000
0000
3000
0200
0000
0300
0020
0000
,
0032
0000
0000
0003
0000
0000
1000
0000
,
0000
0001
0000
1000
,
0000
0001
0000
1000
,
0000
0001
0000
0100
,
0010
0000
0000
2000
,
0000
0000
0000
0000
0000
3000
0000
0000
,
1000
0000
0000
0020
0000
0000
0030
0010
,
0000
0000
0000
0010
0000
0000
0010
0000
,
0010
1000
0000
0001
,
0000
1000
0000
0010
,
0000
0100
0000
0010
,
0000
1000
0000
0100
,
0000
0100
0000
0010
,
0000
0100
0000
0010
,
0000
0100
0000
0010
,
0000
0001
0000
1000
,
0020
0000
0030
0000
,
0000
0000
0000
0020
,
0030
2000
0000
0000
,
0000
3000
0010
0000
,
0200
0000
0000
0000
,
0000
0000
0300
0000
,
0000
0000
0000
0000
,
0000
0000
0000
0000
,
0000
1000
0000
0001
,
0000
0100
0000
0001
,
0000
1000
0000
0010
,
0000
0100
0000
0010
,
0000
0100
0000
0010
,
0000
1000
0000
0010
,
0000
0100
0000
0010
,
0000
0001
0000
0020
,
0200
0030
0300
0000
1000
0000
0000
0000
,
0001
0000
0100
0000
,
0020
0000
0000
2030
0000
0000
0000
3020
,
0000
0000
0030
0000
,
0200
0000
0000
0000
0320
0000
0000
0030
,
2000
0000
0000
0000
3002
0000
0000
0203
,
0000
0000
0000
0000
,
0300
0000
0000
0000
0000
0000
0000
2000
,
0000
0000
0000
3000
0000
0000
0000
0002
,
0000
0000
0000
0000
0003
0000
0000
0200
,
0000
0000
0000
0300
,
0000
0000
0010
0000
,
0002
0000
0000
0000
0003
0000
0000
2000
,
0000
0000
0000
0000
3000
0000
0000
0002
,
0000
0000
0000
0000
0000
0003
0000
0000
,
0200
0000
0320
0000
,
0230
0000
0000
0000
,
0310
0000
0001
0000
,
1000
0000
0010
0000
,
0100
0000
0001
0000
,
1000
0000
0001
0000
,
0100
0000
0010
0000
,
1000
0000
0010
0000
,
0100
0000
0001
0000
,
1000
0000
0000
0000
0020
0000
0000
0030
,
0000
0000
0100
0000
,
0001
0000
1000
0000
,
0010
0000
0100
0000
,
0010
0000
0001
0000
,
0010
0000
0010
0000
,
0100
0000
0010
0000
,
0001
0000
0010
0000
,
2000
0000
0000
0010
0000
0000
0000
0000
,
0001
0000
0010
3000
,
0100
0000
0010
0000
,
0001
0000
0010
0000
,
0100
0000
0100
0000
,
0010
0000
0010
0000
,
1000
0000
0100
0000
,
0010
0000
0100
0000
,
0001
0000
0100
0000
,
0010
0000
1000
0000
,
0010
0000
0100
0000
,
0010
0000
0001
0000
,
0020
0000
0000
0030
0200
0300
0000
0020
,
0000
0030
0000
0000
,
0000
1000
0000
0001
,
0000
0100
0000
0010
,
0000
1000
0000
0020
,
0000
0030
0100
0000
0000
0000
0000
0000
,
0110
0000
0000
0000
,
0000
0000
0000
0000
,
0000
0000
0000
0000
,
0000
0000
0000
0000
,
0220
0000
0000
0330
0000
0000
0000
0000
;

//---------------dance-double - Easy----------------
#NOTES:
     dance-double:
     Easy:
     Easy:
     5:
     0.252,0.393,0.034,0.355,0.000:
00000000
00000000
00000000
00000000
,
00000000
00000000
00000000
00000000
,
00000000
00000000
00000000
00000000
,
00000000
00000000
00000000
00000000
,
00000000
00000000
00000000
00000000
,
00000000
00000000
10000000
00000000
,
00000000
00000000
00010000
00000000
,
00000000
00000000
10000000
00000000
,
00000000
00010000
00000000
00000000
,
00110000
01000000
00000000
00100000
,
00000000
00010000
00000000
00001000
,
00000000
00020000
00030000
01000000
,
00000000
00010000
00000000
00001000
,
00000000
00000100
00000000
00001000
,
00000000
00001000
00000000
00000100
,
00002000
00000000
00003000
00020000
00000000
00030000
00200000
00000000
,
00300000
00002000
00000000
00003000
00000000
00000200
00000000
00000300
,
00020020
00000000
00000000
00030030
00010000
00000000
00000000
00000000
,
00000010
00000000
00010000
00000000
,
00000010
00000000
00010000
00000000
,
00000001
00000000
00000100
00000000
,
00000010
00000000
00000000
00000200
00000000
00000300
00002000
00000000
,
00000000
00000000
00000000
00000000
00000000
00003000
00000000
00000000
,
00001000
00000000
00000000
00000020
00000000
00000000
00000030
00000010
,
00000000
00000000
00000000
00000010
00000000
00000000
00000010
00000000
,
00000100
00010000
00000000
00000010
,
00000000
00010000
00000000
00000100
,
00000000
00001000
00000000
00000100
,
00000000
00010000
00000000
00001000
,
00000000
00010000
00000000
00001000
,
00000000
00010000
00000000
00001000
,
00000000
00010000
00000000
00001000
,
00000000
00000100
00000000
00100000
,
00020000
00000000
00030000
00000000
,
00000000
00000000
00000000
00020000
,
00030000
02000000
00000000
00000000
,
00000000
03000000
00010000
00000000
,
02000000
00000000
00000000
00000000
,
00000000
00000000
03000000
00000000
,
00000000
00000000
00000000
00000000
,
00000000
00000000
00000000
00000000
,
00000000
10000000
00000000
00010000
,
00000000
01000000
00000000
00010000
,
00000000
10000000
00000000
00100000
,
00000000
00100000
00000000
00010000
,
00000000
00100000
00000000
00010000
,
00000000
01000000
00000000
00010000
,
00000000
00100000
00000000
00010000
,
00000000
00000100
00000000
00002000
,
00020000
00003000
00030000
00000000
00100000
00000000
00000000
00000000
,
00000100
00000000
00010000
00000000
,
00002000
00000000
00000000
00003000
00200000
00000000
00000000
00302000
,
00000000
00000000
00003000
00000000
,
00002000
00000000
00000000
00000000
00003200
00000000
00000000
00000300
,
00020000
00000000
00000000
00000000
00030020
00000000
00000000
00002030
,
00000000
00000000
00000000
00000000
,
00003000
00000000
00000000
00000000
00000000
00000000
00000000
00020000
,
00000000
00000000
00000000
00030000
00000000
00000000
00000000
00000020
,
00000000
00000000
00000000
00000000
00000030
00000000
00000000
00000200
,
00000000
00000000
00000000
00000300
,
00000000
00000000
00000010
00000000
,
00000002
00000000
00000000
00000000
00000003
00000000
00000000
00002000
,
00000000
00000000
00000000
00000000
00003000
00000000
00000000
00000002
,
00000000
00000000
00000000
00000000
00000000
00000003
00000000
00000000
,
00002000
00000000
00003200
00000000
,
00002300
00000000
00000000
00000000
,
00003100
00000000
00000010
00000000
,
00010000
00000000
00000100
00000000
,
00010000
00000000
00000100
00000000
,
00100000
00000000
00000100
00000000
,
00010000
00000000
00001000
00000000
,
00100000
00000000
00001000
00000000
,
00100000
00000000
00001000
00000000
,
01000000
00000000
00000000
00000000
00020000
00000000
00000000
00030000
,
00000000
00000000
00100000
00000000
,
00001000
00000000
01000000
00000000
,
00100000
00000000
01000000
00000000
,
00100000
00000000
00010000
00000000
,
00100000
00000000
00100000
00000000
,
01000000
00000000
00100000
00000000
,
00001000
00000000
00010000
00000000
,
02000000
00000000
00000000
00010000
00000000
00000000
00000000
00000000
,
00001000
00000000
00010000
03000000
,
00100000
00000000
00010000
00000000
,
00000100
00000000
00001000
00000000
,
00010000
00000000
00010000
00000000
,
00001000
00000000
00001000
00000000
,
00100000
00000000
00010000
00000000
,
00000100
00000000
00001000
00000000
,
00000010
00000000
00001000
00000000
,
00000100
00000000
00010000
00000000
,
00000100
00000000
00001000
00000000
,
00000010
00000000
00000001
00000000
,
00000020
00000000
00000000
00000030
00000200
00000300
00000000
00000020
,
00000000
00000030
00000000
00000000
,
00000000
00001000
00000000
00000001
,
00000000
00000100
00000000
00000010
,
00000000
00010000
00000000
00000200
,
00000000
00000300
00001000
00000000
00000000
00000000
00000000
00000000
,
00001100
00000000
00000000
00000000
,
00000000
00000000
00000000
00000000
,
00000000
00000000
00000000
00000000
,
00000000
00000000
00000000
00000000
,
00002200
00000000
00000000
00003300
00000000
00000000
00000000
00000000
;

//---------------dance-double - Medium----------------
#NOTES:
     dance-double:
     Medium:
     Medium:
     7:
     0.528,0.785,0.118,0.810,0.000:
00000000
00000000
00000000
00000000
,
00000000
00000000
00000000
00000000
,
00000000
00000000
00000000
00000000
,
00000000
00000000
00000000
00000000
,
00000000
00000000
00000000
00000000
,
00000000
00000000
00010000
00000000
,
00000000
00000000
10000000
00000000
,
00000000
00000000
01000000
00000000
,
00000000
00000000
00000000
00000000
00000000
00000000
00010000
00100000
,
00002000
00000000
00000000
00003000
00000000
01000000
00000000
00100000
,
00000000
00020000
00000000
00000000
00000000
00000000
00030000
00000000
,
00100000
00000000
00010000
00010000
00000000
00001000
00010000
00002000
,
00000000
00000000
00000000
00003000
00001000
00000000
00000000
00000000
00001000
00000000
00010000
00000000
00001000
00000000
00100000
00000000
,
00020000
00000000
00000000
00000000
00000000
00030000
00000000
00000000
00000000
00000000
00002000
00000000
00000000
00000000
00203000
00000000
,
00000000
00000000
00000000
00000000
00000000
00000000
00000000
00000000
00000000
00300000
00000000
00000000
00001000
00000000
00000000
00000000
,
00010000
00100000
00010000
00002000
00003000
00010000
00100000
00002000
,
00000000
00000000
00003000
00000000
00000000
00000000
00001000
00000000
00000000
00000000
00000000
00000000
00000010
00000000
00000000
00000000
00000000
00000000
00000200
00000000
00000000
00000000
00000000
00000000
00000000
00000000
00000000
00000300
00000000
00000000
00000010
00000000
00000000
00000000
00000000
00000000
00000200
00000000
00000000
00000000
00000000
00000000
00000300
00000000
00000000
00000000
00000000
00000000
,
00002020
00000000
00000000
00003030
00000000
00010000
00000000
00000100
,
00000000
00002000
00000000
00000000
00000000
00000000
00000000
00003000
,
00000200
00000000
00000310
00000010
00000000
00000100
00010000
00002000
,
00000000
00000000
00000000
00003000
00002000
00003000
00000010
00000000
,
00000100
00000000
00000001
00000010
00000000
00001000
00000200
00000000
,
00000000
00000000
00000000
00000000
00000300
00000010
00000100
00000010
,
00002000
00003000
00000010
00002000
00000000
00000000
00003000
00000010
,
00000000
00001000
00000000
00000010
00010000
00000000
00000100
00000000
,
00001100
00000000
00000100
00010000
00000000
00000100
00000000
00002000
,
00000000
00003000
00010000
00000000
00000100
00000000
00010000
00000200
,
00000000
00000000
00000000
00000300
00000000
00000000
00000100
00000000
,
00010000
00000000
00000100
00001000
00000000
00100000
00000000
00002000
,
00000000
00000000
00000000
00003000
00000000
00000000
00100000
00000000
,
00001000
00000000
00010000
00000100
00000000
00001000
00000000
00200000
,
00000000
00000000
00000000
00000000
00000000
00000000
00000000
00300000
,
00010000
00100000
00001000
00000000
00001000
00000100
00010000
00000000
,
02002000
03003000
00010000
00200000
00000000
00000000
00000000
00000000
,
00000000
00300000
00000000
00000000
00000000
00000000
00010000
01000000
,
00001000
00000000
00010000
00200000
00000000
00000000
00300000
00000000
,
00000000
00000000
00010000
00000000
00100000
00000000
01000000
00020000
,
00000000
00000000
00000000
00000000
,
00000000
00000000
01130000
00000000
,
00000000
00000000
01010000
00000000
,
00000000
10000000
00010000
10000000
00010000
10000000
00010000
10000000
,
00020000
00030000
00010000
10000000
00000000
00200000
00000000
02300000
,
00000000
03020000
00000000
00130000
00000000
10000000
00000000
02000000
,
00000000
00000000
00000000
00000000
00000000
03000000
00010000
00000000
,
01000000
00000000
00001000
00100000
00000000
00010000
00000000
02000000
,
00000000
00000000
03000000
00010000
,
00100000
00000000
00010000
00100000
00000000
00001000
00000000
00020000
,
00000000
00000000
00000000
00030000
,
00100000
00001000
00000100
00000000
00001000
00100000
00010000
00000000
,
00202000
00303000
00010000
00100000
00000000
00001000
00000000
00020000
,
00000000
00000000
00000000
00000000
00030000
00000000
00001000
00100000
,
00000100
00000000
00001000
00010000
00000000
00001000
00000000
00020200
,
00000000
00000000
00030300
00000100
,
00020000
00000000
00030000
00002000
00000000
00000000
00003000
00000000
,
00000100
00000000
00010000
00000100
00000000
00001000
00000000
00000200
,
00000000
00000000
00000000
00000000
,
00000300
00010000
00000010
00010000
00000010
00010000
00000010
00001000
,
00000020
00000000
00000000
00000030
00000010
00000000
00001000
00000020
,
00000000
00000000
00000130
00000000
00000001
00000000
00000010
00000200
,
00000000
00000000
00000000
00000000
00000000
00000300
00000000
00000000
,
00000000
00000000
00000000
00000000
00001000
00000000
00000100
00000020
,
00000000
00000000
00000030
00000000
00000001
00000000
00000010
00000200
,
00000000
00000000
00000310
00000000
00000001
00000000
00000010
00002000
,
00000000
00000000
00003000
00000000
,
00002000
00003000
00000200
00000300
,
00000020
00000000
00000100
00000130
00000000
00000100
00010000
00001000
,
00000010
00010000
00000010
00010000
00000010
00010000
00000010
00000000
,
00001100
00000000
00010000
00000000
00000100
00000000
00001000
00000010
,
00000000
00000000
00001000
00000000
00010000
00000000
00001000
00200000
,
00000000
00300000
00001000
00000000
00010000
00000000
00001000
00000200
,
00000000
00000000
00001300
00000000
00001000
00010000
00000100
00000000
,
00010000
00000000
00100000
00000000
00001000
00000000
00010000
00000100
,
00000000
00010000
01000000
00100000
,
01000000
00000000
00010000
00200000
00000000
00300000
00010000
00100000
,
00010000
00000000
01000000
00010000
00100000
00000000
00200000
00000000
,
00320000
00230000
00302000
00203000
,
00310000
00100000
01000000
00010000
,
02000000
03020000
00230000
20300000
,
30200000
00000000
01300000
00000000
10000000
00100000
10000000
00000000
,
00100000
00000000
01000000
00200000
00000000
00000000
10300000
00000000
,
00100000
00000000
01000000
00200000
00000000
00300000
20000000
00000000
,
30020000
00000000
00000000
02030000
00000000
00000000
03200000
00000000
,
20300000
00000000
00000000
30000000
02000000
00000000
03010000
10000000
,
00010000
00000000
00100000
00000000
01000000
00000000
00001000
00020000
,
00000000
00030000
00100000
00000000
00001000
00000000
00100000
00002000
,
00000000
00003000
01000000
00000000
00010000
00000000
01000000
00020000
,
00000000
00000000
00000000
00000000
00000000
00030000
01000000
00000000
,
00001000
00000000
00010000
00000000
00000100
00000000
00001000
00200000
,
00000000
00300000
00001000
00000000
00010000
00000000
00000100
00000000
,
00001000
00000000
00000100
00020000
00000000
00000000
00000000
00000000
,
00000000
00030000
00000000
00000000
00000100
00000000
00100000
00000000
,
00002000
00003020
00002030
00003200
,
00020300
00030020
00001030
00000100
,
00020020
00000000
00030030
00000000
00002200
00000000
00003300
00020020
,
00000000
00000000
00000000
00030030
00000100
00001000
00000100
00001000
,
00000002
00000000
00000000
00000003
00000020
00000000
00000000
00000030
,
00000020
00000000
00000030
00000200
00000000
00000300
00001000
00000000
,
00000001
00000000
00000100
00000010
00000000
00001000
00000010
00000100
,
00000000
00000010
00000010
00000000
00000000
00000010
00000100
00000000
,
00001100
00001100
00000000
00000000
,
00000000
00000000
00000000
00000000
,
00000000
00000000
00000000
00000000
,
00000000
00000000
00000000
00000000
00000100
00001000
00000000
00000000
,
00002200
00000000
00000000
00003300
00000000
00000000
00000000
00000000
;

//---------------dance-double - Hard----------------
#NOTES:
     dance-double:
     Hard:
     Hard:
     9:
     0.651,0.830,0.186,0.709,0.042:
00000000
00000000
00000000
00000000
,
00000000
00000000
00000000
00000000
,
00000000
00000000
00000000
00000000
,
00000000
00000000
00000000
00000000
,
00000000
00000000
00000000
00000000
,
10000000
00000000
01000000
00000000
01010000
00000000
00000000
00100000
,
00000000
01000000
10100000
00000000
,
00100000
00000000
00010000
00000000
01100000
00000000
00000000
01000000
,
00000000
00100000
00010000
00100000
00010000
00100000
00010000
00100000
,
00002000
00000000
00000000
00003000
00000000
00010000
00000000
01000000
,
00000000
00000000
00020000
00000000
00000000
00000000
00031000
00000000
00100000
00000000
00001000
00000000
00000000
00000000
00000000
00100000
,
00010000
00000000
00010000
00010000
00000000
00001000
00010000
00002000
,
00000000
00000000
00000000
00003000
00001000
00000000
00000000
00000000
00001000
00000000
00010000
00000000
00001000
00000000
00100000
00000000
,
00020000
00000000
00000000
00000000
00000000
00030000
00000000
00000000
00000000
00000000
00002000
00000000
00000000
00000000
00203000
00000000
,
00000000
00000000
00000000
00000000
00000000
00000000
00000000
00000000
00000000
00300000
00000000
00000000
00001000
00000000
00000000
00000000
,
00010000
00100000
00010000
00002000
00003000
00010000
00100000
00002000
,
00000000
00000000
00003000
00000000
00000000
00000000
00001000
00000000
00000000
00000000
00000000
00000000
00000010
00000000
00000000
00000000
00000000
00000000
00000200
00000000
00000000
00000000
00000000
00000000
00000000
00000000
00000000
00000300
00000000
00000000
00000010
00000000
00000000
00000000
00000000
00000000
00000200
00000000
00000000
00000000
00000000
00000000
00000300
00000000
00000000
00000000
00000000
00000000
,
00002020
00000000
00000000
00003030
00000000
00010000
00000000
00000100
,
00000000
00001000
00000000
00000100
00010000
00000010
00000000
00000000
,
00000200
00000000
00000010
00000310
00000000
00000100
00010000
00002000
,
00000000
00000000
00000000
00003000
00002000
00003000
00000010
00000000
,
00000100
00000000
00000001
00000011
00000000
00001000
00002200
00000000
,
00000000
00003310
00000001
00000001
00000010
00000010
00000100
00000100
,
00001010
00000000
00000010
00002000
00000000
00000000
00003000
00000010
,
00000000
00001000
00000000
00000010
00010000
00000000
00000100
00000000
,
00001010
00000000
00000100
00010000
00000000
00000100
00000000
00002000
,
00000000
00003000
00010000
00000000
00000100
00000000
00010000
00000200
,
00000000
00000000
00000000
00000300
00000000
00000000
00000100
00000000
,
00010000
00000000
00000100
00001000
00000000
00100000
00000000
00002000
,
00000000
00000000
00000000
00003000
00000000
00000000
00100000
00000000
,
00001000
00000000
00010000
00000100
00000000
00001000
00000000
00200000
,
00000000
00000000
00010000
00300000
00010000
00001000
00010000
00000000
,
00100000
01000000
00010000
00100000
00010000
01000000
00001000
00010000
,
02002000
03003000
00010000
00200000
00000000
00000000
00000000
00000000
,
00000000
00300000
00000000
00000000
00000000
00000000
00010000
01000000
,
00001000
00000000
00010000
00200000
00000000
00000000
00300000
00000000
,
00000000
00000000
00100000
00000000
01000000
00000000
10000000
00200000
,
00000000
00000000
00000000
00000000
,
00000000
00000000
10300000
00000000
,
00100000
10000000
01010000
00000000
,
00000000
00000000
00010000
10000000
00010000
00000000
10000000
00000000
00010000
00000000
10000000
00000000
00010000
00000000
10000000
00000000
,
00202000
00303000
00001000
01000000
00000000
00020000
00000000
00230000
,
00000000
00302000
00000000
00013000
00000000
01000000
00000000
00200000
,
00000000
00000000
00000000
00000000
00000000
00300000
00010000
00000000
,
01000000
00000000
00001000
00100000
00000000
00010000
00000000
02000000
,
00000000
00000000
03000000
00001000
,
00010000
00000000
00001000
00010000
00000000
00000100
00000000
00002000
,
00000000
00013000
00100000
00000000
00100000
00010000
00100000
00000000
,
00100000
00001000
00000100
00010000
00001000
00100000
00010000
00100000
,
00020200
00030300
00001000
00010000
00000000
00000100
00000000
00002000
,
00000000
00000000
00000000
00000000
00003000
00000000
00000100
00010000
,
00000010
00000000
00000100
00001000
00000000
00001100
00000000
00002020
,
00000000
00000000
00003030
00000100
,
00002000
00000000
00003000
00001000
00000100
00001000
00000100
00000000
,
00000010
00000000
00001000
00000010
00000000
00000100
00000000
00000020
,
00000000
00000030
00000110
00000000
00001000
00000001
00001000
00000001
,
00000100
00000000
00000001
00001000
00000001
00000000
00001000
00000000
00000001
00000000
00001000
00000000
00000001
00000000
00000100
00000000
,
00000200
00000000
00000000
00000300
00000100
00000000
00010000
00000200
,
00000000
00000000
00001300
00000000
00000010
00000000
00000100
00002000
,
00000000
00000000
00000000
00000000
00000000
00003000
00000000
00000000
,
00000000
00000000
00000000
00000000
00010000
00000000
00001000
00000200
,
00000000
00000000
00000300
00000000
00000010
00000000
00000100
00002000
,
00000000
00000000
00003100
00000000
00000010
00000000
00000100
00020000
,
00000000
00000000
00030000
00000000
,
00020000
00030000
00002000
00003000
,
00000200
00000000
00001000
00001300
00000000
00001000
00100000
00010000
,
00000100
00000000
00000100
00100000
00000100
00000000
00000100
00100000
00000100
00000000
00000100
00100000
00000100
00000000
00000000
00000000
,
00011000
00000000
00100000
00000000
00001000
00000000
00010000
00000100
,
00000000
00000000
00010000
00000000
00100000
00000000
00010000
02000000
,
00000000
03000000
00010000
00000000
00100000
00000000
00010000
00002000
,
00000000
00000000
00013000
00000000
00010000
00100000
00001000
00010000
,
00100000
00000000
01000000
00000000
00010000
00000000
00100000
00001000
,
00000000
00100000
10000000
01000000
,
10000000
00000000
00100000
02000000
00000000
03000000
00100000
01000000
,
00000000
00100000
10000000
00100000
01000000
00010000
02000000
00000000
,
03200000
00000000
20300000
00000000
30100000
00100000
10000000
00100000
,
00000000
00010000
00100000
00000000
01000000
00010000
01000000
00000000
,
00010000
00000000
00100000
00000000
00001000
00010000
00100000
00001000
,
00000000
00010000
00100000
00000000
00010000
00010000
01000000
00000000
,
00010000
00000000
00100000
00020000
00000000
00000000
01030000
00000000
,
00001000
00000000
00010000
00002000
00000000
00003000
00200000
00000000
,
00300200
00000000
00000000
00020300
00000000
00000000
00032000
00000000
,
00103000
00000000
00000000
00000000
00010000
00000000
00000100
00100000
00000100
00000000
00000100
00100000
00000100
00000000
00000100
00100000
,
00000100
00010000
00100000
00010000
00001000
00010000
00000100
00002000
,
00000000
00103000
00010000
00001000
00000100
00001000
00010000
00000200
,
00000000
00001300
00100000
00010000
00001000
00000100
00100000
00002000
,
00000000
00000000
00000000
00000000
00000000
00003000
00010000
00000000
,
00000100
00000000
00001000
00000000
00000010
00000000
00000100
00020000
,
00000000
00030000
00000100
00000000
00001000
00000000
00000010
00000000
,
00000100
00000000
00000010
00001000
00000000
00010000
00001000
00001000
,
00000000
00001000
00000100
00001000
00000100
00000100
00001000
00000000
,
00000200
00000302
00000203
00000320
,
00002030
00003002
00000103
00000010
,
00002002
00000000
00003003
00000000
00000220
00000000
00000330
00002002
,
00000000
00000000
00000000
00003003
00000100
00001000
00000100
00001000
,
00000020
00000000
00000000
00000030
00000200
00000000
00000000
00000300
,
00000200
00000000
00000300
00002000
00000000
00003000
00010000
00000000
,
00000010
00000000
00001000
00000100
00000000
00010000
00000100
00010010
,
00000000
00101000
00011000
00000000
00000000
00000000
00000000
00000000
,
00001000
00000000
00001000
00000000
00100000
00010000
00001000
00100000
,
00001000
00010000
00000100
00001000
00010000
00100000
00001000
00010000
,
00001000
00010000
00000100
00010000
00001000
00010000
00100000
00010000
,
01000000
00000000
00100000
00001000
01000000
00000000
00100000
00000000
00010000
00000000
00001000
00000000
00010000
00000000
00100000
00000000
,
00002000
00000000
00003000
00000000
;
