#TITLE:Beat in Angel;
#SUBTITLE:;
#ARTIST:Hoshizora Rin & Nishikino Maki;
#TITLETRANSLIT:;
#SUBTITLETRANSLIT:;
#ARTISTTRANSLIT:;
#GENRE:;
#CREDIT:;
#BANNER:banner.png;
#BACKGROUND:BGI.png;
#LYRICSPATH:;
#CDTITLE:;
#MUSIC:Beat in Angel.mp3;
#OFFSET:0.000;
#SAMPLESTART:61.984;
#SAMPLELENGTH:15.000;
#SELECTABLE:YES;
#BPMS:0.000=150.000;
#STOPS:;
#BGCHANGES:0.000=BGA.avi=1.000=1=0=1=StretchNormal==CrossFade==,
99999=-nosongbg-=1.000=0=0=0 // don't automatically add -songbackground-
;
#KEYSOUNDS:;

//---------------dance-double - I. Berg----------------
#NOTES:
     dance-double:
     I. Berg:
     Challenge:
     11:
     0.927,0.853,0.215,0.197,1.000:
00000000
00000000
00000000
00000000
,
00001000
00010000
00001000
00010000
00001000
00010000
00001000
00010000
00001000
01000000
00010000
00000000
00100000
00001000
00010000
00000000
,
00000100
00010000
00000000
00010000
00000000
00010000
00000100
00000010
00000001
00000100
00000010
00000000
00010000
00001000
00010000
00000000
,
00001000
00100000
00000000
00100000
00010000
00100000
01000000
10000000
00010000
00100000
00010000
00000000
10000000
00100000
00000000
01000000
,
00000000
01000000
00000000
01000000
00000000
01000000
00010000
10000000
00010000
00100000
00010000
00100000
00001000
00010000
00001000
00010000
,
00000100
00001000
00000100
00001000
00000010
00000100
00000001
00000010
00000100
00010000
00001000
00000000
00010000
00001000
00010000
00000000
,
00001000
00010000
00000000
00010000
00000000
00010000
00001000
01000000
00010000
01000000
00100000
00000000
10000000
00100000
10000000
00000000
,
00010000
00100000
00000000
00100000
00001000
00010000
00000100
00001000
00000010
00010000
00001000
00000000
00100000
00010000
01000000
00000000
,
00100000
01000000
00000000
01000000
00000000
01000000
00001000
00100000
00010000
01000000
00010000
00000000
00100000
00001000
00100000
00000000
,
00000100
00010000
00000100
00000000
00001000
00000010
00001000
00000000
00000001
00000000
00000010
00000000
00000100
00000000
00010000
00000000
,
00001000
00000000
01000000
00100000
01000000
00000000
00010000
01000000
00010000
00000000
10000000
00000000
00100000
00000000
01000000
00000000
,
01010000
00000000
00001100
00000000
00011000
00001000
00010000
00000100
,
00000010
00000000
00000001
00000010
00000001
00000000
00001000
00000010
00001000
00000000
00000100
00010000
00001000
00010000
00001000
01000000
,
00010000
00000000
00000000
00000000
00110000
00000000
00010000
00100000
01000000
00000000
10000000
00000000
00010000
00000000
01000000
00000000
,
00100000
00000000
01000000
00001000
00010000
00000000
00000100
00010000
00001000
00000000
00100000
00001000
01000000
00010000
00100000
00001000
,
01000000
00000000
00000000
00000000
01010000
00000000
00010000
01000000
00001000
00000000
00010000
00000000
00000010
00000000
00001000
00000000
,
00000001
00000000
00010000
00000100
00001000
00000000
00000100
00010000
00001000
00000000
00100000
00000000
00010000
00000000
10000000
00000000
,
00010000
01000000
00001000
00010000
00000020
00000000
00100030
00002000
,
00000000
00000000
00000000
00000000
00013000
00000000
00000000
00000000
00001000
00000000
00010000
00000100
00100000
00010000
00000000
10000000
,
00100000
01000000
01010000
00010000
00110000
00100000
00001000
00100000
,
00001000
00000000
01000000
00001000
00010000
00000000
00000100
00010000
00001000
00000000
00010000
00001000
00100000
00010000
00100000
00001000
,
00010000
00000100
00001000
00000100
00010000
00001000
00100000
00010000
00100000
00000000
00001000
00000000
00010000
00000000
00000100
00000000
,
00001000
00000000
00000010
00010000
00001000
00000000
00100000
00001000
00010000
00000000
00001000
01000000
00010000
01000000
00001000
00010000
,
00000100
00010000
00001000
01000000
00010000
01000000
00001000
00010000
00000010
00000000
00000100
00000000
00000001
00000000
00020000
00000000
,
00030010
00000000
00100000
00001000
00010000
00000000
00000010
00010000
00001000
00000000
00010000
00000000
00001000
00000000
00100000
00010000
,
00100000
01000000
10000000
01000000
00100000
00001000
00010000
00000100
00001000
00000000
00000010
00000000
00000100
00000000
00000001
00000000
,
00000010
00000000
00000100
00010000
00001000
00000000
00011000
00000000
00000000
00000000
00001000
00010000
00000100
00010000
00001000
00100000
,
00010000
00000000
00000000
00000000
00110000
00000000
00000000
00000000
00001010
00000000
00000010
00000000
00001000
00000000
00000001
00000010
,
00000100
00000000
00010000
00000000
00001000
00000000
10000000
00010000
01000000
00000000
00001000
00000000
00100000
00000000
00001000
00010000
,
00000100
00000000
00001000
00000000
00000100
00000000
00010000
00001000
01000000
00000000
00100000
00000000
01000000
00000000
00010000
01000000
,
00010000
00000000
00100000
00000000
00001000
00000000
00010000
00000100
00001000
00000000
00000001
00000000
00000100
00000000
00000010
00000100
,
00000001
00000000
00001000
00000000
00000100
00000000
00020000
00000000
00000000
00000000
00031000
00000000
00010000
00000000
00001000
00100000
,
00010000
00000000
01000000
00000000
01000000
00000000
00100000
10000000
00010000
00000000
00100000
00000000
00100000
00000000
00001000
00010000
,
00000100
00000000
00001000
00000000
00001000
00000000
00000010
00001000
00000001
00000000
00001000
00000000
00000100
00000000
00010100
00000000
,
00000000
00000000
00101000
00000000
00001000
00000000
00010000
00001000
00010000
00000010
00000100
00000010
00001000
00000100
00010000
00001000
,
00100000
00010000
01000000
00100000
10000000
01000000
00100000
00001000
00000000
00000000
00000000
00101000
00000000
00000000
00011000
00000000
,
00000000
00000000
00000000
00000000
00000000
00000000
00000000
00000000
00010000
00000100
00001000
00000000
00000010
00000000
00001000
00000001
,
00001000
00000001
00000010
00000000
00000100
00000000
00010000
00001000
00100000
00000000
00010000
00000000
10000000
00000000
00100000
10000000
,
00100000
10000000
00100000
00000000
01000000
00000000
00001000
00100000
00001000
00000000
00010000
00000000
00001000
00000000
00010000
00000100
,
00010000
00000100
00010000
00000000
00000010
00000000
00001000
00000010
00001000
00000000
00000100
00000000
00010000
00000000
00001000
00010000
,
00001000
00010000
00001000
00000000
00010000
00000000
00001000
00100000
00010000
00000000
10000000
00000000
01000000
00000000
00100000
00001000
,
00100000
00001000
00010000
00000000
00001000
00000000
00010000
00000100
00001000
00000000
00000100
00000000
00001000
00000000
00000001
00000010
,
00000001
00000010
00000100
00000000
00010000
00000000
00001000
01000000
00010000
00000000
00100000
00000000
00010000
00000000
00100000
00001000
,
00100000
00001000
00010000
00000000
00000100
00000000
00001000
00000010
00000100
00000000
00000001
00001000
00000000
00000100
00000000
00010000
,
00001000
00000000
10000000
00000000
10010000
00000000
00010000
00000000
10000000
01000000
00100000
00010000
00100000
00001000
00010000
00001000
,
01000000
00010000
01000000
00001000
00010000
00000010
00001000
00000010
00000100
00000001
00000010
00000100
00000010
00000001
00001000
00000100
,
00010000
00000000
00010100
00000000
00010100
00000000
00000100
00010000
00001000
00100000
00010000
10000000
01000000
00100000
00001000
00010000
,
00000100
00001000
00000010
00000100
00000001
00001000
00000200
00000000
00000000
00000000
00200300
00000000
00000000
00000000
00302000
00000000
,
00000000
00000000
00013000
00001000
00100000
00000000
00010000
00000000
20000000
00000000
30020000
00000000
20030000
00000000
30200000
00000000
,
00000000
02300000
00000000
03002000
00000000
00203000
00302000
00023000
,
00032000
00000000
00203000
00000000
01300000
01100000
00000000
00110000
,
00000000
00000000
00011000
00000000
00000000
00000000
00001200
00000000
00000000
00000000
00001300
00000010
00001000
00000010
00001000
00000001
,
00010000
00000000
00000000
00000000
00011000
00000000
00000000
00000000
00001000
01000000
00010000
00000000
00100000
00001000
00010000
00000000
,
00000100
00010000
00000000
00010000
00000000
00010000
00000100
00000010
00000001
00000100
00000010
00000000
00010000
00001000
00010000
00000000
,
00001000
00100000
00000000
00100000
00010000
00100000
01000000
10000000
00010000
00100000
00010000
00000000
10000000
00100000
00000000
01000000
,
00000000
01000000
00000000
01000000
00000000
01000000
00010000
10000000
00010000
00100000
00010000
00100000
00001000
00010000
00001000
00010000
,
00000100
00001000
00000100
00001000
00000010
00000100
00000001
00000010
00000100
00010000
00001000
00000000
00010000
00001000
00010000
00000000
,
00001000
00010000
00000000
00010000
00000000
00010000
00001000
01000000
00010000
01000000
00100000
00000000
10000000
00100000
10000000
00000000
,
00010000
00100000
00000000
00100000
00001000
00010000
00000100
00001000
00000010
00010000
00001000
00000000
00100000
00010000
01000000
00000000
,
00100000
01000000
00000000
01000000
00000000
01000000
00001000
00100000
00010000
01000000
00010000
00000000
00100000
00001000
00100000
00000000
,
00000100
00010000
00000100
00000000
00001000
00000010
00001000
00000000
00000100
00010000
00001000
00100000
00000000
00001000
00000000
00010000
,
00000000
00000100
00000010
00000001
00000100
00000010
00001000
00000100
00000000
00000000
00020200
00000000
00000000
00000000
00000000
00000000
,
00000000
00000000
00000000
00000000
00000000
00000000
00000000
00000000
00000000
00000000
00000000
00000000
00000300
00030000
00000000
00000000
;

//---------------dance-single - Loak----------------
#NOTES:
     dance-single:
     Loak:
     Hard:
     10:
     0.737,0.980,0.169,0.459,0.590:
0000
0000
0000
0000
,
0000
0000
0000
0000
,
0000
0000
0000
0000
,
0000
0000
0000
0000
0000
0000
0000
0000
0000
0000
0000
0000
1000
0001
1000
0001
,
1000
0001
1000
0001
1000
0100
1000
0000
0001
0100
0001
0000
0100
0010
0000
0010
,
0000
0010
1000
0001
1000
0100
1000
0000
0001
0010
0001
0000
1000
0010
0000
0010
,
1000
0010
0100
0001
1000
0001
0010
0000
0100
1000
0000
0001
0000
0001
0000
0001
,
0000
0001
1000
0010
1000
0100
0010
0001
1000
0001
0100
0010
0100
0001
1000
0100
,
0010
0100
1000
0010
1000
0010
0100
0000
0001
0100
0001
0000
1000
0001
0000
0001
,
0000
0001
0010
0100
1000
0010
1000
0000
0001
0100
0001
0000
1000
0100
0000
0100
,
0000
0100
0010
0001
1000
0001
0100
0000
0010
1000
0001
0000
0010
0100
0000
0100
,
0000
0100
1000
0001
1000
0001
0100
0000
0001
1000
0100
0000
0010
0001
1000
0000
,
0010
1000
0001
0000
1000
0000
0100
0000
1000
0000
0010
0000
0100
0000
0001
1000
,
0001
0000
1000
0001
0010
0000
0100
0000
1000
0000
0001
0000
2002
0000
3003
0000
,
0220
0330
2002
3003
0010
0000
0100
0000
,
0010
0001
0010
0011
,
0110
0100
0010
0100
,
0100
1000
0010
2000
,
3002
0203
0320
0230
,
0320
1030
0000
0001
1000
0010
1000
0100
,
0010
0001
0200
0000
0310
2000
0000
0000
,
0000
0000
3100
0000
0010
0001
0001
1000
,
0001
0100
0010
0100
0001
1000
0001
0010
,
0100
1000
0001
0100
1000
0010
0100
0100
,
0001
2000
0000
3001
0010
0100
1000
0001
,
0010
0001
1000
0100
0010
0200
0000
0301
,
1000
0200
0000
0310
0001
2000
0000
3010
,
0100
0002
0000
1003
0100
0020
0100
0000
,
1030
0002
0000
0100
0003
0010
1000
0001
,
1000
0000
0100
0000
0000
0000
0010
0100
0010
0100
0010
0100
0002
0000
0003
0000
,
2020
3030
0220
0300
0100
0000
1030
0000
,
0001
0010
0000
0100
0000
1000
0000
0001
,
0000
1000
0010
0000
0100
0020
0000
0130
,
0001
1000
0100
0010
0000
0001
0000
1000
,
0000
0000
0020
0000
0000
0000
0130
0000
0001
0000
1000
0001
0010
0000
0100
0000
,
1000
0001
0200
0000
0310
1000
0001
0010
,
0100
0010
1000
0010
1000
0100
0000
0010
,
0000
0000
0001
0000
0000
0000
0100
0000
0010
0000
1000
0001
1000
0000
0010
0000
,
0100
0000
0010
0000
1010
0000
0000
1001
0000
0000
0011
0000
0001
0000
0000
0000
,
1000
0000
0000
0000
0020
0000
0000
0000
0230
0000
0000
0000
0301
0100
0001
0000
,
1000
0100
0000
0010
0100
1000
0001
1000
,
0010
0100
0000
0001
0000
1000
0000
0001
,
0010
0100
0000
1000
0010
0000
0110
0000
,
0101
0000
0001
0000
0020
0000
0000
0000
0230
0000
0000
0000
1300
0100
1000
0000
,
0010
0100
0000
0001
1000
0010
1000
0001
,
0010
0100
0000
1000
0000
0001
1000
0010
,
0000
0000
0100
0000
0000
0000
0010
0100
0001
0100
0000
0010
1000
0000
0001
0000
,
0010
0100
1000
0000
0001
0100
0000
0001
,
0000
0010
0000
0100
1000
0001
0100
0000
,
0010
0000
1000
0000
0010
0100
0000
0001
,
0000
1000
0000
0200
0000
0302
0003
2000
,
0010
3000
0100
0000
0001
0000
1000
0000
0001
0000
0100
0000
0000
0000
0010
0000
,
0000
1000
0000
0100
0010
0001
1000
0000
,
0010
0000
0110
0101
0000
1001
0000
1100
,
0000
0000
2002
0003
3002
2003
3002
2003
3002
2003
3002
2003
3002
0000
0000
0003
,
1000
0000
0000
0000
0001
0100
0001
0000
1000
0100
1000
0000
0001
0010
0000
0010
,
0000
0010
0100
1000
0001
1000
0001
0000
1000
0010
1000
0000
0001
0100
0000
0100
,
1000
0100
0010
1000
0001
1000
0100
0000
0010
0001
0000
1000
0000
1000
0000
1000
,
0000
1000
0001
0100
0001
0010
0100
1000
0001
1000
0001
0100
0010
1000
0001
1000
,
0100
0010
0001
1000
0010
0100
0010
0000
1000
0010
1000
0000
0001
1000
0000
1000
,
0000
1000
0100
0010
0001
0100
0001
0000
1000
0010
1000
0000
0001
0010
0000
0010
,
1000
0010
0100
1000
0001
1000
0010
0000
0100
0001
1000
0000
0100
0010
0000
0010
,
0000
0010
0001
1000
0001
1000
0010
0000
1000
0001
0010
0000
0100
1000
0001
0000
,
0100
0001
1000
0000
0100
0001
0100
0010
0000
0100
0000
0100
0000
0100
1000
0100
,
0001
0100
1000
0000
0000
0000
2002
0000
0000
0000
0000
0000
0000
0000
0000
0000
,
0000
0000
0000
3003
0000
0000
0000
0000
;

//---------------dance-single - Loak----------------
#NOTES:
     dance-single:
     Loak:
     Medium:
     8:
     0.474,0.490,0.037,0.300,0.005:
0000
0000
0000
0000
,
0000
0000
0000
0000
,
0000
0000
0000
0000
,
0000
0000
0000
0004
,
0000
0000
1003
0100
0001
0010
1000
0001
,
1000
0000
0001
1000
0001
1000
0100
0010
,
0100
0000
1000
0100
0001
0010
1000
0001
,
1000
0000
0001
0010
0001
0100
0010
1000
,
0001
1000
0010
1000
0100
1000
0100
0010
,
0100
0000
0010
1000
0100
0010
1000
0001
,
1000
0000
0001
1000
0100
1000
0001
1000
,
0001
0000
0010
1000
0001
0100
1000
0001
,
1000
0100
0010
0000
0001
0000
0100
0010
,
0100
0001
1000
0000
0001
0000
1001
0000
,
0110
1001
0010
0100
,
0000
2000
0000
3001
1000
0010
0100
0000
,
0010
1000
0001
1000
,
0000
0020
0000
0031
0010
0100
1000
0000
,
0001
0200
0320
0230
,
0320
1030
0000
0001
1000
0010
1000
0100
,
0010
0001
0200
0000
0310
2000
0000
0000
,
0000
0000
3001
0000
1000
0020
0000
0130
,
0001
1000
0000
0100
0010
0001
1000
0001
,
0010
0100
1000
0000
0010
0100
0000
0010
,
1000
0002
0000
1003
0010
0100
0001
0010
,
0001
1000
0020
0000
0130
0010
0000
1000
,
0001
0020
0000
0130
1000
0002
0000
0103
,
0010
2000
0000
3001
0010
0200
0310
0000
,
0001
2000
0000
3010
0000
0100
0001
1000
,
0001
0010
0000
0100
0010
0100
1000
0000
,
0001
0200
0000
0300
,
0010
0100
0000
0001
0000
1000
0000
0100
,
0000
0000
1000
0000
0010
0002
0000
0003
,
0000
0000
1000
0001
0000
0100
0000
0010
,
0000
2000
0000
3000
0000
0002
0000
0003
,
0000
0010
0200
0000
0300
2000
0000
3000
,
0000
0000
0001
1000
0000
0001
0000
0100
,
0000
0010
0000
0100
0002
0000
0000
0000
,
0000
0000
0000
0000
1003
0000
0000
0100
0000
0000
0010
0000
0001
0000
0000
0000
,
1000
0020
0230
0300
,
0000
0001
0000
1000
0001
0010
0100
0000
,
1000
0001
0000
0100
0000
0010
0000
1000
,
0001
0010
0000
0100
1000
0000
0001
0000
,
1000
0010
0200
0000
0302
0000
0003
0000
,
0000
1000
0000
0100
0010
0001
0010
0100
,
0000
1000
0000
0001
0000
0010
0001
1000
,
0000
0010
0000
0100
0002
0000
0000
0000
,
0003
0000
1000
0000
0100
1000
0000
0001
,
0000
0100
0000
0010
1000
0001
0010
0000
,
0100
0000
1000
0000
0010
0100
0000
0001
,
0000
1000
0000
0200
0000
0000
0300
0000
,
0000
1000
0010
1000
0001
0100
0000
0010
,
0000
1000
0000
0100
0010
0001
1000
0000
,
0010
0000
0100
0001
0000
1000
0000
0100
,
0000
0020
0000
0000
0000
0030
0001
0000
,
0100
0000
0001
0100
1000
0010
0100
0001
,
0010
0000
0100
0010
0001
0100
1000
0001
,
1000
0000
0010
0001
0100
0010
0001
1000
,
0001
0000
1000
0001
1000
0001
0100
0010
,
0001
0000
1000
0001
0100
0010
1000
0001
,
0100
0000
1000
0001
0100
0010
0100
1000
,
0001
0000
1000
0001
1000
0100
0010
0100
,
0010
0000
0010
0010
1000
1000
0001
0001
,
1000
1000
0010
0000
0000
0000
0000
0001
,
1000
0000
0000
2002
0000
0000
0000
0000
,
0000
0000
0000
3003
0000
0000
0000
0000
;

//---------------dance-single - Loak----------------
#NOTES:
     dance-single:
     Loak:
     Easy:
     5:
     0.243,0.248,0.047,0.094,0.000:
0000
0000
0000
0000
,
0000
0000
0000
0000
,
0000
0000
0000
0000
,
0000
0000
0000
4000
,
0000
3001
0100
0010
,
0000
0010
1000
0001
,
0000
0010
0001
0010
,
0100
0010
0100
0001
,
1000
0001
0100
0010
,
0000
1000
0001
0100
,
0000
0010
0001
0010
,
0000
0100
0010
0001
,
0010
0020
0000
0000
,
0000
0000
0030
1001
,
0110
0001
1000
0001
,
0000
0010
1000
0001
,
0100
0000
0010
0001
,
0000
1000
0010
0100
,
0001
0020
2000
0000
,
3030
0100
0000
0001
,
0000
1000
0000
0010
,
0000
0100
0010
1000
,
0001
0010
0001
0000
,
1000
0000
0010
1000
,
0001
0010
0001
0000
,
1000
0000
0001
0000
,
0100
0000
1000
0000
,
0010
0000
0100
0000
,
1000
0000
0001
0000
,
0400
0000
0300
0110
,
1001
0010
0100
0010
,
0001
0000
1000
0000
,
0001
0000
0100
0000
,
0010
0100
0010
1000
,
0002
0000
0000
0000
0200
0003
0000
0000
,
0000
0000
0020
0300
0000
0000
0230
0000
,
0000
0300
1000
0000
0000
0000
0001
0000
,
0100
0010
1000
0001
,
1000
0001
0000
0000
,
0000
1000
0001
0000
,
1000
0000
0001
0010
,
0001
0000
1000
0000
,
0001
0000
0010
0100
,
1000
0010
0001
0010
,
1000
0000
0100
0010
,
0001
0010
0100
0000
,
0001
0000
1000
0001
,
0100
0010
1000
0000
,
0001
0000
1000
0000
,
0010
0000
1000
0000
,
0001
0000
0100
0000
,
0010
0000
1000
0000
,
0001
0000
1000
0000
,
0001
0100
0010
1000
,
0002
0000
0003
1000
,
1000
0001
0100
0010
,
0000
0010
1000
0001
,
0000
0010
0001
0010
,
0100
0010
0100
0001
,
1000
0001
0100
0010
,
0000
1000
0001
0100
,
0000
0010
0001
0010
,
0000
0100
0010
0001
,
0010
0000
0000
0000
,
0000
0000
0000
0220
0000
0000
0000
0000
,
0000
0000
0000
0000
,
0000
0330
0000
0000
;

//---------------dance-single - Loak----------------
#NOTES:
     dance-single:
     Loak:
     Beginner:
     3:
     0.209,0.250,0.009,0.122,0.000:
0000
0000
0000
0000
,
0000
0000
0000
0000
,
0000
0000
0000
0000
,
0000
0000
0000
0001
,
0000
1000
0000
0001
,
0000
0010
0000
0100
,
0000
1000
0000
0001
,
1000
0001
1000
0001
,
1000
0010
0000
0100
,
0000
1000
0000
0001
,
0000
0100
0000
0010
,
0100
0010
0100
0001
,
0010
0100
0000
0001
,
0000
0010
0000
0100
,
0010
1000
0000
0001
,
0000
1000
0000
0010
,
0000
0100
0000
0001
,
0000
0100
0000
0020
,
2030
3020
0230
0300
,
0000
1000
0000
0100
,
0000
0010
0000
0001
,
0000
1000
0000
0001
,
1000
0001
1000
0000
,
0001
0000
1000
0000
,
0010
0000
1000
0000
,
0001
0000
0100
0000
,
0001
0000
0010
0000
,
0001
0000
1000
0000
,
0001
0000
1000
0000
,
0100
0001
0010
0200
,
0010
0002
0000
0303
,
0001
0000
1000
0000
,
0010
0000
1000
0000
,
0100
0000
0010
0000
,
1000
0000
0001
0000
,
1000
0000
0100
0000
,
0010
0000
0001
0000
,
1000
0000
0010
0100
,
0100
1000
0000
0001
,
0100
0001
0020
0030
,
1000
0000
0001
0000
,
0100
0000
0001
0000
,
0010
0000
0100
0010
,
1000
0002
0003
0000
,
1000
0000
0010
0000
,
0100
0000
0001
0000
,
0100
0000
0010
0000
,
1000
0000
0001
0000
,
0010
0000
0100
0000
,
1000
0000
0010
0000
,
1000
0000
0001
0000
,
1000
0000
0100
0000
,
0010
0000
0001
0000
,
1000
0000
0002
0000
0013
0000
0020
0030
,
0020
0000
0000
0000
0000
0030
0000
0000
,
0001
0000
1000
0000
,
0001
0000
0100
0000
,
0010
0000
1000
0000
,
0001
1000
0001
1000
,
0001
0100
0010
0000
,
0100
0000
0010
0000
,
0001
0000
1000
0000
,
0010
0100
0010
0100
,
0001
0000
0000
0000
,
0000
0000
0000
2002
0000
0000
0000
0000
,
0000
0000
0000
0000
,
0000
0000
0000
3003
;

//---------------dance-single - Kurosan & Loak----------------
#NOTES:
     dance-single:
     Kurosan & Loak:
     Challenge:
     12:
     0.842,0.869,0.131,0.253,0.819:
0000
0000
0000
0000
,
0000
0000
0000
0000
,
0000
0000
0000
0000
,
0000
0000
0000
0000
0000
0000
0000
0000
0000
0000
0000
0000
1000
0001
1000
0001
,
1000
0001
1000
0001
1000
0010
1000
0000
0001
0010
0001
0000
0100
0010
0000
0010
,
0000
0010
1000
0001
1000
0100
1000
0000
0001
0100
0001
0000
1000
0010
0000
0010
,
1000
0010
0100
0001
1000
0001
0010
0000
0100
1000
0000
0001
0000
0001
0000
0001
,
0000
0001
1000
0010
1000
0100
0010
0001
1000
0010
1000
0001
0100
0001
1000
0001
,
0010
1000
0010
0001
1000
0001
0100
0000
0010
0100
0010
0000
1000
0001
0000
0001
,
0000
0001
0010
0100
1000
0010
1000
0000
0001
0100
0001
0000
1000
0100
0000
0100
,
0010
0100
1000
0001
1000
0001
0100
0000
0010
1000
0001
0000
0100
0010
0000
0010
,
0000
0010
0001
1000
0001
1000
0010
0000
1000
0001
0010
0000
0100
1000
0001
0000
,
0100
0001
1000
0000
0100
0000
0010
0000
0001
0000
0010
0000
0100
0000
1000
0001
,
1000
0000
0010
1000
0010
0000
0100
0000
0001
0000
1000
0000
1002
0000
0000
0003
,
2020
0000
3030
0000
0220
0000
0330
0000
1000
0000
0001
0000
0001
0100
0010
0000
,
0001
0000
1000
0000
0010
0000
0100
0000
1000
0000
0100
0000
0001
0010
0100
0000
,
0100
0000
0010
0100
0001
0000
1000
0000
0100
0000
0010
0000
0010
0001
1000
0000
,
0100
0001
0010
1000
0010
1000
0010
0100
,
0001
1000
0200
0000
1000
0300
0020
0000
,
0130
2000
3000
0100
0001
1000
0001
0010
,
0100
0010
0002
0000
1003
0020
0000
0130
,
0000
0000
0001
0000
0000
0000
1000
0001
1000
0100
0000
0100
0010
0000
0001
0000
,
1000
0001
1001
1000
0010
1000
0001
0100
,
0100
0001
0100
0000
1000
1000
0000
0020
,
2030
0000
3200
0000
1300
0000
0100
0000
0010
0000
0001
0000
0100
0000
0001
0100
,
0001
0000
1000
0100
0010
0000
0002
0000
0103
0000
0020
0000
0030
0000
0100
0000
,
0001
0000
0001
0000
0010
0000
0100
0000
0001
0000
0100
0000
0010
0000
1000
0001
,
0010
0000
0100
0010
0001
0000
1000
0000
0010
0000
1000
0000
0100
0000
0001
0100
,
0010
0000
0001
0010
0100
0000
1000
0000
0010
0000
0100
0000
1000
0000
0010
0000
,
0100
0000
0000
0001
0000
0000
0000
0000
0000
1000
0001
1000
0001
1000
0001
1000
0001
1000
0200
0000
0000
0000
0000
0000
,
0320
0000
0000
0000
0031
0000
1000
0000
0100
0000
1000
0001
1000
0000
0010
0000
,
0100
0000
0001
0100
0001
0000
1000
0000
0100
0000
0010
0001
0010
0000
0100
0000
,
1000
0000
0001
1000
0001
0000
0100
0000
0010
0000
1000
0010
1000
0000
0100
0000
,
1000
0000
0001
1000
0001
0000
0100
0000
0000
0000
0010
0000
0000
0000
1000
0000
,
0000
0000
1001
0000
0000
0000
0001
0000
1000
0000
0001
0010
0001
0000
1000
0000
,
0100
0000
1000
0001
1000
0000
0001
0000
0100
0000
0010
0100
0010
0000
1000
0000
,
0100
0000
1000
0001
1000
0000
0010
0000
1000
0000
0100
0000
0000
0000
0010
0000
,
0000
0000
0001
0000
0000
0000
1000
0000
0010
0100
0001
0100
0010
1000
0001
1000
,
0100
0010
0001
1000
0001
0000
0000
1001
0000
0000
0011
0000
0010
0000
0000
0000
,
0100
0000
0000
0000
1000
0010
1000
0000
0001
0000
0010
0100
1000
0100
0010
0000
,
0001
0000
1000
0010
1000
0000
0001
0000
0100
0000
0001
1000
0100
1000
0001
0000
,
0010
0000
0001
0100
0010
0000
1000
0000
0001
0000
1000
0010
0100
0010
1000
0000
,
0100
0000
0010
0001
1000
0000
0001
0000
0100
0000
0001
0000
0101
0000
0000
0000
,
0110
0000
0010
0000
2000
0000
0000
0000
3002
0000
0000
0000
0013
0100
0010
0000
,
0001
0000
1000
0001
1000
0000
0100
0000
1000
0000
0010
0100
0001
0100
0010
0000
,
1000
0000
0001
0100
0001
0000
0010
0000
0100
0000
1000
0100
0010
0100
1000
0000
,
0001
0000
0100
0010
1000
0000
0010
0000
0100
0001
0000
1000
0001
0000
0010
0000
,
0020
0100
1031
0100
0010
0100
0001
0010
,
1000
0010
0100
0010
0001
0010
0200
0000
,
0010
0300
0001
0010
1000
0010
0100
0010
,
0001
0000
0010
0000
0200
0000
0000
0000
0010
0000
0000
0000
0301
0000
0010
1000
,
0100
0010
0001
0010
0200
1300
0100
0010
,
0100
0001
0010
0100
0001
0010
2000
0000
,
3001
0000
0100
0001
0000
1001
0000
0011
,
0000
0000
0000
0110
0000
0000
0000
0000
0000
0100
1000
0100
1000
0100
1000
0100
1000
0100
2000
0000
0000
0000
3000
0000
,
0100
0000
0000
0000
0001
0100
0001
0000
1000
0100
1000
0000
0010
0100
0000
0100
,
0000
0100
0001
1000
0100
0010
0100
0000
1000
0001
1000
0000
0010
0100
0000
0100
,
0010
0100
0001
1000
0001
0010
0001
0000
1000
0100
0000
1000
0000
1000
0000
1000
,
0000
1000
0001
1000
0100
1000
0001
0100
0010
1000
0010
0100
0001
0010
0001
0100
,
1000
0100
0001
0010
0100
1000
0100
0000
0010
0001
0010
0000
0100
1000
0000
1000
,
0000
1000
0010
1000
0001
0100
0001
0000
1000
0010
1000
0000
0001
0010
0000
0010
,
0100
1000
0001
1000
0100
0010
0100
0000
1000
0001
0100
0000
0010
0100
0000
0100
,
0000
0100
0001
1000
0001
0100
0001
0000
0100
0010
0100
0000
0010
1000
0010
0000
,
1000
0001
1000
0000
0001
0010
0100
1000
0000
0001
0000
0100
0000
0010
0001
1000
,
0001
0010
0100
1000
0000
0000
2002
0000
0000
0000
0000
0000
0000
0000
0000
0000
,
0000
0000
0000
0000
,
0000
3003
0000
0000
;
