#TITLE:Baby Maybe Koi no Button;
#SUBTITLE:;
#ARTIST:u's;
#TITLETRANSLIT:;
#SUBTITLETRANSLIT:;
#ARTISTTRANSLIT:;
#GENRE:;
#CREDIT:;
#BANNER:banner.png;
#BACKGROUND:BGI.png;
#LYRICSPATH:;
#CDTITLE:;
#MUSIC:Baby Maybe Koi no Button.mp3;
#OFFSET:-0.008;
#SAMPLESTART:65.147;
#SAMPLELENGTH:12.000;
#SELECTABLE:YES;
#BPMS:0.000=135.000;
#STOPS:0.000=0.400
;
#BGCHANGES:0.000=bg.avi=1.000=0=0=0=StretchNoLoop====,
99999=-nosongbg-=1.000=0=0=0 // don't automatically add -songbackground-
;
#KEYSOUNDS:;

//---------------dance-single - Easy----------------
#NOTES:
     dance-single:
     Easy:
     Beginner:
     3:
     0.169,0.195,0.000,0.047,0.000:
0000
0000
0000
0000
,
0000
0000
0000
0000
,
0000
0000
0001
0000
,
0000
0000
1000
0000
,
0001
0100
0001
0000
,
1000
0000
0100
0000
,
0010
0001
0010
0000
,
0100
0000
1000
0000
,
0010
0100
0010
0000
,
0100
0000
0000
0001
0000
0000
0000
0000
,
0000
0000
1000
0000
,
0000
0000
0001
0000
,
0000
0000
0010
0000
,
0100
0000
1000
0000
,
0001
0000
1000
0000
,
0001
0000
1000
0000
,
0010
0001
0010
0100
,
0010
0000
0002
0000
0000
0000
0000
0003
,
0000
0000
0001
0000
,
0000
0000
1000
0000
,
0000
0000
0010
0000
,
0100
0000
0001
0000
,
1000
0000
0001
0000
,
1000
0000
0100
0000
,
0010
1000
0001
0010
,
0100
0020
0000
0030
,
0000
0000
0001
0000
,
1000
0000
0001
0000
,
1000
0000
0100
0000
,
0010
0000
0100
0000
,
0010
0000
0001
0000
,
0000
0000
1000
0000
,
0000
0000
0010
0000
,
0000
0000
0100
0000
,
0000
0000
0001
0000
,
0000
0000
1000
0001
,
1000
0001
0100
0010
,
0001
0000
1000
0001
,
1000
0000
0010
0000
,
0100
0000
1000
0100
,
0001
1000
0020
0000
,
0030
0100
0020
0000
,
0030
1000
0001
0000
,
0010
0000
0100
0000
,
1000
0000
0001
1000
,
0001
0000
0020
0000
,
0130
0000
0001
0000
,
1000
0000
0100
0001
,
0010
0001
1000
0000
,
0010
0000
0100
0000
,
0001
0000
1000
0001
,
0100
0010
0000
0000
,
0000
0000
1000
0000
,
0001
0000
1000
0000
,
0100
0010
1000
0000
,
0010
0000
0001
0000
,
0010
0100
1000
0000
,
0010
0000
0001
0000
,
1000
0010
0100
0000
,
0010
0000
0000
0001
0000
0000
0000
0000
,
1000
0000
0000
0000
;

//---------------dance-single - Medium----------------
#NOTES:
     dance-single:
     Medium:
     Easy:
     4:
     0.218,0.223,0.000,0.037,0.000:
0000
0000
0000
0000
,
0000
0000
0000
0000
,
0000
0000
0001
0000
,
0001
0000
1000
0100
,
0010
0001
1000
0000
,
0010
0000
0010
0100
,
0001
1000
0100
0000
,
0100
0000
0010
0001
,
1000
0010
0100
0000
,
0100
0000
0000
0001
0000
0000
0000
0000
,
1000
0010
0001
0000
,
0010
0000
0100
0000
,
1000
0000
0001
0000
,
1000
0000
0010
0000
,
0100
0000
0001
1000
,
0001
0000
1000
0100
,
1000
0000
0100
0010
,
0100
0010
0000
0000
,
0000
0000
0001
0000
,
1000
0000
0001
0000
,
0100
0000
0010
0000
,
1000
0000
0001
0000
,
0010
0000
0100
1000
,
0100
0000
0010
0001
,
0010
0000
0001
1000
,
0001
1000
0000
0000
,
0000
0010
0100
0000
,
0001
0000
1000
0000
,
0100
0000
0010
0000
,
0001
0000
1000
0000
,
0010
0000
0100
0001
,
1000
0000
0001
1000
,
0100
0010
0020
0000
,
0032
0000
0203
0000
,
0310
0001
0200
0000
,
0000
0000
0000
0300
0001
0000
1000
0000
,
0001
1000
0100
0010
,
0100
0000
1000
0001
,
1000
0000
0001
0100
,
0001
0010
1000
0010
,
1000
0000
0001
0000
,
0010
0000
0100
0000
,
1000
0000
0001
0000
,
1000
0000
0001
1000
,
0001
0100
0010
1000
,
0010
0000
0100
0001
,
0100
0000
0001
1000
,
0001
1000
0010
0100
,
0010
0000
0001
0000
,
1000
0000
0010
0000
,
0100
0000
1000
0001
,
1000
0001
0010
0100
,
1000
0001
1000
0010
,
1000
0000
0001
0100
,
0010
1000
0001
1000
,
0001
0000
0010
0100
,
1000
0001
1000
0010
,
1000
0000
0010
0100
,
0001
1000
0001
0010
,
0001
0000
0000
0010
0000
0000
0100
0000
,
1000
0000
0000
0000
;

//---------------dance-single - Hard----------------
#NOTES:
     dance-single:
     Hard:
     Medium:
     7:
     0.389,0.446,0.000,0.112,0.000:
0000
0000
0000
0000
,
0000
0000
0000
0000
,
0000
0000
0001
0001
,
1000
0001
0000
0100
0000
0100
0010
0000
,
1000
0100
0010
0010
,
0001
0010
0000
0100
0000
1000
0001
0100
,
0001
0010
0100
0100
,
0001
0100
0000
1000
0000
1000
0001
0000
,
0100
0010
1000
1000
,
0001
1000
0000
0100
0000
0010
0001
0000
,
0020
0000
0030
0000
0000
0001
1000
0001
,
0010
0000
0100
1000
0001
1000
0010
0200
,
0000
0300
0000
0001
1000
0000
0100
0000
,
1000
0000
0010
0000
0100
0001
1000
0001
,
0010
0100
1000
0001
1000
0001
0000
0010
,
0100
0010
0000
0001
1000
0001
0000
0100
,
0010
0100
0001
1000
0001
0000
0010
0000
,
0100
0000
1000
0000
0001
1000
0001
0100
,
0010
1000
0001
0010
0100
0010
0001
1000
,
0010
0000
0100
0001
0100
0010
1000
0020
,
0000
0030
0000
1000
0100
0000
0010
0000
,
0100
0000
0001
0000
0001
1000
0010
1000
,
0100
0010
0001
1000
1000
0001
0000
1000
,
1000
0010
0000
1000
1000
0100
0000
0010
,
0001
1000
0001
0100
0010
0000
1000
0000
,
0001
2000
0000
0000
,
3000
0001
0010
0100
2000
0000
3000
0000
,
0001
0100
0010
0100
0002
0000
0003
1000
,
0001
0000
0000
0010
0100
0000
1000
0000
,
0001
0000
1000
0000
0010
0000
0000
1000
,
0001
0000
0000
0000
0100
0000
0001
1000
,
0001
0000
0010
0001
0010
0000
0100
0000
,
1000
0000
0010
0000
0200
0000
0000
0301
,
1000
0001
0010
0100
2000
0000
0000
3000
,
0001
1000
0010
1000
0002
0000
0000
0000
,
0000
0003
0010
0100
,
1000
0001
1000
0001
,
0100
0000
0000
0001
0000
0001
0010
0000
,
0100
0000
0000
1000
0000
1000
0001
1000
,
0100
0010
0100
0010
0001
0010
0001
0010
,
0100
1000
0010
0100
,
0001
1000
0001
0010
,
0100
0000
0000
1000
0001
0100
0001
1000
,
0100
0000
0010
0000
0001
0000
0000
1000
,
0010
0000
0100
0001
,
1000
0000
0000
0100
0000
0100
0010
0000
,
0001
0000
0000
1000
0000
1000
0010
1000
,
0001
1000
0001
1000
0100
0010
0100
1000
,
0001
0000
0000
0100
0001
0010
0100
0010
,
0001
2000
0000
3010
0100
0010
0100
0001
,
1000
0002
0000
0003
0000
0010
0100
1000
,
0001
1000
0010
0100
0000
0000
0001
0000
,
1000
0000
0001
0010
0000
0200
0000
0000
,
0000
0000
0000
0000
,
0000
0300
0000
0000
0100
0000
0100
0000
,
0010
1000
0000
0001
0000
0010
0100
1000
,
0001
0100
0010
0010
,
1000
0010
0000
0100
0000
0100
0001
0000
,
1000
0001
0010
0010
,
0001
0100
0000
0010
0000
1000
0001
0000
,
0100
0000
0000
0000
;

//---------------dance-single - Expert----------------
#NOTES:
     dance-single:
     Expert:
     Hard:
     8:
     0.628,0.616,0.205,0.502,0.167:
0000
0000
0000
0000
,
0000
0000
0000
0000
,
0000
0000
1000
1000
,
0010
0100
0000
0010
0000
0001
0010
0000
,
0100
1000
0010
0001
,
0100
0000
0010
0000
0000
0000
0001
0000
0000
0000
0010
0000
0100
0000
1000
0001
,
0010
0100
1000
0010
0100
0010
0001
0100
0010
0000
0000
0000
0100
0000
0000
0000
,
0010
0100
0000
1000
0000
0100
0010
0000
,
0001
0010
0100
1000
,
0010
0100
0000
1010
0000
0001
0100
0010
,
0020
0030
0010
0000
0100
1000
0001
0010
,
0200
0000
0000
0300
1000
0000
0010
0000
0100
0000
0001
0000
1000
0000
0002
0000
,
0000
0000
0000
0003
0000
0000
1000
0000
0020
0000
0000
0000
0230
0000
0000
0300
,
0002
0000
0023
0000
0130
1000
0001
1000
,
0200
0300
0020
0030
0001
0000
1000
0000
0010
0000
0100
0000
00M0
0000
1000
0000
,
0010
0100
00M0
1000
0100
0010
0M00
1000
,
0100
0010
0001
1000
1001
1000
1010
0010
,
1010
1000
1001
0001
0010
0100
1000
0001
,
1000
0010
0100
0001
0010
0001
1000
0001
1000
0000
0010
0000
0100
0000
0001
0000
,
0010
0100
1000
0010
0100
0010
1000
0100
,
0010
1000
0001
1000
0020
0000
0032
0000
,
0023
0000
0000
0000
0230
0000
0000
0000
1300
0000
0010
0000
0400
0300
0004
0003
,
0020
0030
0100
0000
1000
0000
0001
1000
0010
0000
0100
0000
0001
0000
0010
0100
,
1000
0000
0010
0000
0100
0000
0001
1000
0001
0000
0100
0000
0010
0000
1000
0000
,
0200
0300
0010
0000
0001
0000
0010
0000
0110
0000
0010
0000
0011
0000
0001
0000
,
1001
0000
1000
0000
1010
0000
1000
0000
0001
0000
0010
0100
1000
0000
0010
0000
,
0100
0001
1000
0001
2000
3020
0230
0302
1003
0000
0000
0000
0001
0000
0000
0000
,
1000
0100
0010
0001
2000
0000
3000
0001
,
0200
0300
0000
0000
0000
0000
0001
0000
2000
0000
0000
0000
3200
0000
0000
0000
,
0320
0000
0000
0000
0032
0000
0000
0000
0023
0000
0000
0000
0030
0000
0100
1000
,
0002
0000
0000
0000
1003
0000
0010
0100
0001
0000
0000
0000
0100
0000
0010
0000
,
0001
0000
1000
0010
1000
0000
1001
0000
,
0110
0000
0011
0000
1100
1000
0001
1000
,
0010
0100
0001
0010
1100
0000
1001
0001
,
1000
0010
0100
0001
1000
0010
1000
0100
,
1000
0000
0010
0000
1000
0001
1000
0001
0100
0000
0000
0000
0001
0000
0000
0000
,
1000
0000
0000
0000
0010
0000
0000
0000
2000
3000
0010
0000
0200
0300
0001
0000
,
2000
3000
0100
0000
0010
0000
0002
0003
1000
0000
0020
0030
0200
0300
0001
0000
,
0020
0030
0100
0000
1000
0000
0002
0000
1003
0000
0010
0000
0100
0000
0100
0000
,
0001
0000
1000
0000
0100
0000
0010
0000
0002
0003
2000
3000
0020
0030
0200
0300
,
0002
0003
2000
3000
0020
0030
0100
0000
0002
0000
0000
0000
1000
0000
0003
0000
,
0201
0000
0010
0300
1200
0000
0010
0300
,
0201
0000
0000
0000
0310
0000
1000
0001
0100
0000
0001
0000
0010
0000
0100
0000
,
2000
0000
3001
0000
0100
0000
0010
0100
0001
0000
0010
0000
0100
0000
0010
0001
,
0010
0100
1000
0001
1000
0010
0100
0001
1000
0000
0010
0000
0100
0000
0001
0000
,
0010
0000
0100
0000
1000
0000
0001
0000
1000
0000
0020
0030
0200
0300
0001
0000
,
2000
3000
0100
0000
0010
0000
0002
0003
1000
0000
0010
0000
0010
0000
1000
0000
,
1000
0100
0010
0001
1000
0010
1000
0001
,
0010
0000
0100
0000
1000
0000
0001
1000
0010
0000
0100
0000
0001
0000
0010
0000
,
0100
0000
2000
0000
0000
0000
3010
0100
0001
0000
0010
0000
0100
0000
1000
0000
,
0001
0000
2000
0000
0000
0000
3100
0000
0010
0000
0001
0000
1000
0000
0001
1000
,
0010
0100
0010
1010
0000
1001
1001
0000
,
0000
1000
0010
0010
,
0100
0010
0000
1000
0000
0001
0010
0000
,
0100
0010
0001
0100
,
0010
0000
0100
0000
0000
0000
0010
0000
0000
0000
1000
0000
0100
0000
0010
0001
,
1000
0001
0010
0100
1000
0010
0100
0001
1000
0000
0000
0000
0001
0000
0000
0000
,
0100
0010
0000
1000
0000
0100
0010
0000
,
0001
0100
0010
1000
,
0100
0010
0000
1001
0000
0010
0100
0000
,
0002
0003
0000
0000
;

//---------------dance-single - Loak1----------------
#NOTES:
     dance-single:
     Loak1:
     Challenge:
     10:
     0.646,0.616,0.381,0.409,0.205:
0000
0000
0000
0000
,
0000
0000
0000
0000
,
0000
0000
0001
0001
,
1000
0001
0000
0100
0000
0100
0010
0000
,
1000
0100
0010
0010
,
0001
0000
0010
0000
0000
0000
0100
0000
0000
0000
1000
0010
0001
1000
0100
0001
,
1000
0001
0010
0100
1000
0001
1000
0001
0100
0000
0000
0000
0100
0000
0000
0000
,
0010
0100
0000
0001
0000
0001
1000
0000
,
0100
0010
0001
0001
,
1000
0001
0010
0110
0000
0100
1000
0100
,
0020
0030
0110
0000
0001
1000
0010
1000
,
0200
0000
0310
1000
0001
1000
0010
0200
,
0000
0000
0000
0300
0000
0000
0000
0000
0000
0010
0000
0000
0102
0000
0000
0000
0003
0000
0021
0000
0000
0000
0030
0000
,
0210
0000
0000
0000
0000
0000
0000
0000
0300
0000
0000
0000
1200
0000
0000
0000
0000
0000
0000
0000
0000
0000
0000
0000
0301
0000
0000
0000
0000
0000
1000
0000
0000
0000
0000
0000
0010
0000
0000
0000
0000
0000
2000
0000
0000
3000
0000
0000
,
0200
0300
0010
0000
0001
0000
1000
0000
0001
0000
0100
0000
001M
0000
1000
0000
,
0001
0100
001M
1000
0100
0010
0M01
1000
,
0100
0010
0001
1000
0012
0003
0120
0030
,
1200
0300
2002
3003
0001
1000
0100
0010
,
0001
1000
0010
1000
0100
0010
0001
1000
0001
0000
0100
0000
0010
0000
1000
0000
,
0100
0010
0001
1000
0010
0100
0001
0100
,
0010
1000
0001
0010
0210
0300
0102
0003
,
0021
0030
0210
0000
0310
1000
0001
1000
,
0100
0000
0010
0000
0001
0000
1000
0010
1000
0000
0001
0000
0010
0000
0100
1000
,
0100
0000
0010
0000
0001
0000
1000
0010
1000
0000
0001
0000
0010
0000
0100
0000
,
1000
0001
0100
0010
0210
0300
2100
3000
,
0120
0030
0202
0303
0100
0010
1010
0100
,
1000
0010
0100
0010
1000
0001
0010
0001
0200
0000
0000
0000
0300
0000
0000
0000
,
0010
1000
0001
0010
0200
0000
0000
1300
,
0002
0000
0003
0100
0020
0000
2030
0000
,
3002
0000
0000
0000
0023
0000
0000
0000
0230
0000
0000
0000
0000
0000
1300
0001
,
2000
0000
0000
0000
3010
0000
0100
0001
1000
0000
0000
0000
0100
0000
0010
0000
,
0001
0000
1000
0010
0110
0000
0101
0000
,
0110
0000
1100
0000
2001
0000
0000
0100
,
0100
0010
0010
3001
1002
0000
0000
0000
,
0103
0000
0010
0000
1000
0000
0010
0000
0100
0010
0001
0100
1000
0010
0001
0100
,
1000
0100
0010
0001
1000
0010
1000
0001
0010
0000
0000
0000
0100
0000
0000
0000
,
1000
0000
0001
0000
0110
0010
1000
0001
,
0110
0001
1000
0100
0110
0001
0100
0001
,
0101
0100
1000
0001
0100
0001
1000
0001
,
0010
0100
0010
0001
1000
0010
0100
0001
,
1000
0001
0100
0001
0020
0000
0131
0000
,
0022
0000
0000
0000
0000
0000
0000
0000
0000
0033
0000
0000
0001
0000
0000
0000
0000
0000
0000
0000
0000
0000
0000
0000
0220
0000
0000
0000
0000
0000
0000
0000
0330
0000
0000
0000
1010
0000
0000
0000
0000
0000
0000
0000
0000
0000
0000
0000
,
0200
0000
0000
0300
0010
0000
0001
1000
0100
0000
1000
0000
0001
0000
0100
0000
,
0010
0000
0100
0000
1000
0000
0100
0010
0002
0000
0010
0000
0100
0000
0013
0000
,
0100
1000
0001
1000
0010
0100
0001
0100
0010
0000
1000
0000
0001
0000
0100
0000
,
1001
0010
0100
1000
0101
1000
0010
1000
,
0101
0010
0100
1000
0010
1000
0001
0100
,
0001
0010
0100
1000
0001
0100
0010
1000
,
0100
0000
1000
0000
0001
0000
0010
0100
1000
0000
0001
0000
1000
0000
0010
0000
,
0010
0000
0100
0000
0001
0000
1000
0100
0010
0000
0001
0000
1000
0000
0001
0000
,
0001
0000
0100
0000
0010
0000
1000
0000
1001
0000
0001
0000
0010
0000
0100
1000
,
0010
0001
1000
0010
0000
1010
1002
0000
,
0023
0000
0000
0030
0110
0000
1000
0000
0001
0000
0000
0000
0001
0000
0000
0000
,
0100
0001
0000
1000
0000
1000
0100
0000
,
0010
0001
0100
0010
,
0001
0000
0100
0000
0000
0000
0010
0000
0000
0000
1000
0100
0010
0001
0100
0010
,
1000
0001
1000
0010
1000
0100
0010
0001
0100
0000
0000
0000
0010
0000
0000
0000
,
0100
1000
0000
0100
0000
0100
0010
0000
,
0001
0010
0001
0100
,
1000
0100
0010
0011
0000
0001
1000
0000
,
0020
0030
0000
0000
;
