#TITLE:Arifureta kanashiminohate;
#SUBTITLE:;
#ARTIST:Eli Ayase;
#TITLETRANSLIT:;
#SUBTITLETRANSLIT:;
#ARTISTTRANSLIT:;
#GENRE:;
#CREDIT:CHMEX;
#BANNER:Arifureta kanashiminohate.jpg;
#BACKGROUND:background10.png;
#LYRICSPATH:;
#CDTITLE:;
#MUSIC:Arifureta kanashiminohate.mp3;
#OFFSET:0.000;
#SAMPLESTART:61.740;
#SAMPLELENGTH:12.000;
#SELECTABLE:YES;
#BPMS:0.000=164.020;
#STOPS:;
#BGCHANGES:0.000=Arifureta kanashiminohate.avi=1.000=0=0=1=StretchNormal====,
99999=-nosongbg-=1.000=0=0=0 // don't automatically add -songbackground-
;
#KEYSOUNDS:;

//---------------dance-single - Blank----------------
#NOTES:
     dance-single:
     Blank:
     Hard:
     7:
     0.466,0.575,0.270,0.463,0.039:
0000
0000
0000
0000
,
0000
0000
0000
0000
,
0000
2000
0000
0000
,
0000
0000
0000
3001
,
0200
0020
0000
0000
0000
0000
0000
0000
,
0000
0000
0000
0000
0000
0000
0000
0000
0000
0000
0000
0330
0001
0000
0000
0000
,
0020
2000
0000
0000
0000
0000
0000
0000
,
0000
0000
0000
0000
0000
3030
0001
0000
,
0200
0020
0000
0000
0000
0000
0000
0000
,
0000
0000
0000
0000
,
0330
2000
0000
0000
,
0000
0000
3000
0010
,
0200
0002
0000
0000
0000
0000
0000
0000
,
0000
0000
0303
0010
,
2000
0200
0000
0000
0000
0000
0000
0000
,
0000
0000
3300
0001
,
0020
0200
0000
0000
0000
0000
0000
0000
,
0000
0000
0000
0000
,
2330
0000
3100
0000
0001
0100
0010
0000
,
0000
0100
1000
0010
1000
0000
0000
0000
,
0010
0100
0001
0000
0010
2000
0000
3010
,
0000
0200
0300
1000
0010
0000
0000
0000
,
0000
0000
0100
0010
,
0000
1000
0100
1000
0010
0000
0000
0100
,
0001
0010
1000
0000
0100
0020
0000
0030
,
0000
1000
0010
1000
0001
0000
0101
0000
,
0010
1000
0100
0000
0010
0000
1010
0000
,
0000
0100
0001
0100
0010
0000
1001
0000
,
0010
0100
0010
1100
,
0000
0100
0010
0100
0001
0000
1001
0000
,
0010
1000
0100
0000
0010
0000
1010
0000
,
0000
0100
0001
0100
0010
0000
1010
0000
,
0001
0010
0100
1010
,
0010
0000
0000
0100
0000
0000
0010
0000
0000
2000
0000
0000
3200
0000
0000
0000
0300
0000
0000
0000
0000
0200
0000
0000
,
0300
0220
0000
0000
,
0000
0000
0000
0000
,
0000
2330
0000
0000
,
3000
0000
1000
0000
0100
0010
0000
0100
,
0000
0002
0000
0000
,
0000
0000
0000
0000
,
0003
0000
0000
0000
,
0000
0000
2000
0000
0000
0000
3100
1100
,
0000
0000
2020
3030
0010
0100
0010
1000
,
0010
0100
0020
0030
0200
0310
0000
0000
,
0010
1000
0100
0000
0100
0010
0000
0001
,
0000
0010
0000
1000
0200
0000
0000
0000
,
0010
0300
0110
0000
1000
0100
0010
0100
,
0001
0010
0200
0000
0310
1000
0000
0000
,
2000
3000
0100
0000
0001
0200
0000
0000
,
0300
0000
0010
1000
0010
0000
0000
0000
1100
0000
1000
0000
0000
0000
0100
0000
,
0110
0000
0000
0000
1000
0001
0100
0010
,
0010
0100
2000
3000
0010
0001
0000
0000
,
0010
0001
0010
0000
0001
0020
0000
0230
,
0000
0000
0000
0320
0000
0000
0000
0000
0000
0130
0000
0000
2000
0000
0000
0000
0000
0000
3100
0000
0000
0000
0001
0000
,
0000
0000
0010
0000
0000
0000
0200
0000
0000
0000
0000
0000
0010
0000
0000
0320
0000
0000
0000
0000
0000
0030
0000
0000
,
0010
0001
0000
0000
0010
0000
0100
0000
,
0010
0000
0100
0000
1000
0200
0000
0000
,
0000
0000
0000
0000
0000
0000
0000
0000
0300
0000
0010
0001
0100
0000
0010
0000
,
1000
0100
1001
1000
0100
1000
0200
0300
,
0000
0100
0010
0100
0010
0000
0000
0011
,
0000
0011
0000
0001
0010
0001
0010
0000
,
0000
0010
0001
0010
0001
0000
0000
0110
,
0110
0110
0000
1000
0100
1000
0100
0000
,
0000
1000
0100
1000
0100
0000
0000
0110
,
0000
0110
2000
0000
0000
3000
1200
0000
,
0000
0300
0120
0000
0000
0030
0021
0030
,
2010
3000
1100
0000
0100
0000
0010
0000
,
0100
0010
0000
0002
0103
0000
0010
0000
,
0010
0002
0203
0300
0010
0000
0020
0000
,
0130
0000
0002
0000
0010
0000
0000
0000
0020
0000
0003
0000
0200
0030
0000
0000
,
1300
1000
1010
0000
0001
0000
0110
0000
,
0001
0010
0100
1000
0010
0000
1100
0000
,
2000
0100
0020
0000
0000
3030
1001
0000
,
0100
0000
0010
0000
1000
0000
0010
0000
0100
0000
0010
0001
1000
0000
0100
0000
,
0010
1000
0202
0000
0000
0000
0000
0000
,
0000
0000
0000
0000
,
0303
0010
0010
1000
,
0001
0100
0010
1000
0100
1000
1010
0000
,
0001
0100
0010
0000
0010
0000
1001
0000
,
0010
0100
0010
1000
0001
0010
1010
0000
,
0010
0100
0001
0000
0001
0000
1010
0000
,
0100
1000
0010
0100
0001
0010
1001
0000
,
0010
0100
0110
0000
1000
0000
1010
0000
,
0001
0100
0010
1000
0001
0010
0101
0000
,
0010
1000
0100
0000
0010
0000
1001
0000
,
0010
0100
0001
0010
0100
1000
1010
0000
,
0001
0100
0010
0000
0010
0000
0101
0000
,
0010
1000
0001
0010
0100
1000
1010
0000
,
0001
0100
0010
0000
0001
0000
0110
0000
,
0001
1000
0010
0100
0010
0001
0010
1000
,
2000
0010
3000
0000
2000
0010
3000
0000
2000
0010
0000
0000
0000
0000
3000
0000
2000
0010
0000
3000
0000
0000
0000
0000
0000
0000
0000
0000
0000
0000
0000
0000
,
0000
0000
0000
0000
,
0000
0000
1000
0001
0100
0000
0010
0000
1000
0000
0010
0000
1100
0000
0000
0000
,
0010
1000
0001
0100
0010
0100
0001
0000
,
0010
1000
0000
0000
0100
0010
0001
0000
,
0010
2000
3000
0200
0300
1000
0000
0010
,
0200
0000
0000
0300
0110
0000
0101
0000
,
0010
1000
0010
0001
0010
0100
1000
0000
,
0100
0010
0000
0000
0001
0000
0010
0000
,
1000
0000
0002
0000
0000
0000
0000
0000
0000
0000
0000
0000
0003
0000
0100
0001
,
0100
0010
0100
0001
0010
0100
2020
3030
,
0100
0010
0100
0001
0010
0010
2000
0000
,
3200
2300
3000
0000
0001
0100
0020
0000
,
0130
0010
0000
0001
0000
0010
0000
1000
,
0020
0000
0000
0030
0000
0000
0001
0000
0000
0000
0010
0000
0000
0000
0100
0000
0000
0000
0020
0000
0000
0000
0000
0000
,
0031
0020
0000
0000
1030
0020
0000
0000
,
0031
0010
0100
1000
,
0010
0200
0000
0000
0000
0310
0000
0001
,
1000
0000
0010
0001
0100
0000
0010
0000
1000
0000
0100
0000
0020
0000
0000
0000
,
0000
0000
0000
0000
,
0000
0030
0001
0000
0100
0020
0000
0000
,
0000
0000
0000
2030
,
0000
0000
3010
0000
0100
0002
0000
0000
,
0000
0000
0000
0000
0000
0003
2000
0000
,
0000
0000
3010
0000
0100
0020
0000
0000
,
0000
0000
0000
0000
0000
0000
0000
0030
;

//---------------dance-single - Hard----------------
#NOTES:
     dance-single:
     Hard:
     Medium:
     5:
     0.314,0.474,0.033,0.226,0.019:
0000
0000
0000
0000
,
0000
0000
0000
0000
,
0000
2000
0000
0000
0000
0000
0000
0000
,
0000
0000
0000
0000
0000
0000
0000
3000
,
0000
0002
0000
0000
0000
0000
0000
0000
,
0000
0000
0000
0003
,
0000
2000
0000
0000
0000
0000
0000
0000
,
0000
0000
3000
0000
,
0000
0002
0000
0000
0000
0000
0000
0000
,
0000
0000
0000
0000
0000
0000
0000
0003
,
0000
2000
0000
0000
0000
0000
0000
0000
,
0000
0000
0000
0000
0000
0000
0000
3000
,
0000
0002
0000
0000
0000
0000
0000
0000
,
0000
0000
0000
0000
0000
0000
0000
0003
,
0000
2000
0000
0000
0000
0000
0000
0000
,
0000
0000
0000
0000
,
3000
0002
0000
0000
0000
0000
0000
0000
,
0000
0000
0000
0000
0000
0003
0000
0000
,
0000
0000
0000
0000
0001
0100
0010
0000
,
0000
0100
1000
0100
2000
3000
0000
0000
,
0010
0100
0001
0000
0010
0100
0000
0001
,
0000
1000
0000
1000
0020
0000
0000
0030
,
0000
0000
0100
0010
,
0000
1000
0010
0100
2000
0000
3000
0001
,
0010
0100
1000
0000
0100
0020
0000
0030
,
0000
0000
0000
0000
,
0000
0000
0010
0001
,
0000
0010
1000
0010
0100
0000
0000
0000
,
0100
1000
0010
0000
0001
0010
0000
0100
,
0000
1000
0000
0010
0200
0000
0000
0000
,
0300
0000
0010
0001
,
0000
0100
0010
0001
0010
0000
0000
0100
,
0000
1000
0010
0000
0100
2000
0000
0000
,
3000
0000
0100
0000
0010
0001
0000
0200
,
0000
0300
0020
0000
0000
0000
0000
0000
,
0000
0000
0000
0000
,
0000
0030
2000
0000
0000
0000
0000
0000
,
3000
0000
1000
0000
0100
0010
0000
0100
,
0000
0002
0000
0000
,
0000
0000
0000
0000
,
0000
0003
0000
0000
0000
0000
0000
0000
,
0000
0000
2000
0000
0000
3000
0100
1000
,
0000
0000
0000
0000
0010
1000
0100
0010
,
0001
0100
0010
0000
1000
0100
0000
0000
,
0010
1000
0001
0000
0100
0010
0000
0100
,
0000
0001
0000
0010
2000
0000
0000
0000
,
3010
0000
0001
0000
0010
0100
1000
0010
,
0100
0001
0010
0000
0100
0010
0000
0000
,
0010
0000
0001
0000
0010
0200
0000
0000
,
0300
0000
0010
0000
0100
1000
0000
0100
,
0010
0000
0000
0000
0010
0100
0100
1000
,
0010
0001
0010
0000
0100
0100
0000
0000
,
0100
0010
0100
0000
0001
0010
0000
0100
,
0000
0000
0000
1000
0000
0000
0000
0000
0000
0010
0000
0000
0001
0000
0000
0000
0000
0000
0010
0000
0000
0000
0100
0000
,
0000
0000
1000
0000
0000
0000
0100
0000
0000
0000
0000
0000
0010
0000
0000
0001
0000
0000
0000
0000
0000
0000
0000
0000
,
0010
0100
0000
0000
0010
0000
0001
0000
,
0010
0000
1000
0000
0010
0200
0000
0000
,
0000
0000
0000
0000
,
0300
0000
0000
0001
0010
0001
0010
0000
,
0000
0001
0010
0001
0010
0000
0000
0010
,
0000
0010
0000
0100
0010
0100
0010
0000
,
0000
0010
0100
0010
0100
0000
0000
0010
,
0000
0010
0000
0100
0010
0100
0010
0000
,
0000
0100
0010
0100
0010
0000
0100
0000
,
0000
0100
2000
0000
0000
3000
0200
0000
,
0000
0300
0020
0000
0000
0030
0200
0000
,
2300
3100
0010
0001
,
0010
1000
0000
0100
0010
0000
0001
0000
,
0010
0100
0010
0000
0010
0000
1000
0000
,
0010
0010
0000
0000
0010
0000
1000
0000
,
0100
0010
0001
0010
,
1000
0010
0000
0100
0001
0000
0010
0000
,
0100
0010
0002
0000
0000
0000
0000
0003
,
0000
0200
0000
0300
0000
0020
0000
0030
,
0000
0202
0000
0000
0000
0000
0000
0000
,
0000
0000
0000
0000
0000
0000
0000
0303
,
0010
1000
0100
1000
,
0100
1000
0001
0100
,
0010
0100
0001
0100
,
0010
0100
0001
0010
,
0001
0010
0001
0010
,
0100
0001
0010
0001
,
0100
0110
0001
0100
,
0010
0100
0010
0100
,
0010
0100
0010
0100
,
0100
0010
1000
0100
,
0010
0100
0010
1000
,
0010
0100
1000
0100
,
0010
0000
0100
0000
0001
0000
0100
0100
,
0001
0100
0001
0100
0001
0100
0001
1010
,
1000
1000
2000
3000
1000
0000
0000
0000
,
0000
0000
0000
0000
,
0000
0000
0000
0000
,
0010
1000
0010
0100
0001
0010
0100
0000
,
1000
0010
0000
0000
0001
0010
0100
0000
,
1000
0010
0000
0100
0000
0010
0000
0001
,
0020
0000
0030
0000
,
0010
1000
0001
0010
0100
1000
0010
0000
,
0010
0100
0000
0000
0010
1000
0001
0000
,
0010
0200
0000
0000
0300
0000
1100
0000
,
0000
1100
0000
0000
1100
0000
0000
0000
,
0010
0100
0001
0010
0100
1000
0010
0000
,
0001
0010
0000
0000
0100
1000
0010
0000
,
0001
0010
0000
0100
0000
1000
0010
0100
,
0010
0000
0000
0010
0000
0001
0000
0010
0000
0100
0000
0000
,
1000
0100
0000
0000
0010
0100
0000
0000
,
1000
0010
0001
0010
,
0100
2000
0000
0000
0000
0000
0000
0000
,
0000
0000
0000
0000
0000
3000
2000
0000
,
0000
0000
0000
0000
,
0000
0000
3000
0000
0000
0002
0000
0000
,
0000
0000
0000
0000
,
0000
0000
0000
0000
0000
2000
0003
0000
,
0000
0000
0000
0000
,
0000
0000
0000
0000
0000
0002
3000
0000
,
0000
0000
0000
0000
0000
0000
2000
0003
,
0000
0000
0000
0000
,
0000
0000
0000
3000
,
00M0
0M00
00M0
000M
,
M000
0000
0000
00M0
0000
0000
M000
0000
,
0000
000M
0000
0000
0M00
0000
0000
0000
00M0
0000
0000
0000
,
0M00
0000
0000
00M0
,
0000
0000
0000
0M00
;

//---------------dance-single - Medium----------------
#NOTES:
     dance-single:
     Medium:
     Easy:
     4:
     0.213,0.308,0.011,0.132,0.006:
0000
0000
0000
0000
,
0000
0000
0000
0000
,
0000
0000
0000
0000
,
0000
0000
0000
0000
,
0000
0000
0000
0000
,
0000
0000
0000
0000
,
0000
0000
0000
0000
,
0000
0000
0000
0000
,
0000
0000
0000
0000
,
0000
0000
0000
0000
,
0000
0000
0000
0000
,
0000
0000
0000
0000
,
0000
0000
0000
0000
,
0000
0000
0000
0000
,
0000
0000
0000
0000
,
0000
0000
0000
0000
,
0000
0000
0000
0000
,
0000
0000
0000
0000
,
0000
0000
0001
0010
,
0000
0100
0000
2000
3000
0000
0000
0000
,
0010
0000
0001
0000
0010
0000
0000
0010
,
0000
1000
0000
0020
0000
0000
0000
0030
,
0000
0000
0100
0010
,
0000
1000
0000
0200
0000
0300
0000
0001
,
0000
0100
0000
0000
0200
0000
0300
0000
,
0000
0000
0000
0000
,
0000
0000
0010
0001
,
0000
0010
0000
0010
0000
0000
0000
0000
,
0100
0000
0010
0000
0001
0000
0000
0100
,
0000
1000
0000
0010
0200
0000
0000
0000
,
0300
0000
0010
0001
,
0000
0100
0000
0001
0000
0000
0000
0100
,
0000
1000
0000
0000
0000
2000
0000
0000
,
3000
0000
0100
0000
0010
0000
0000
0200
,
0000
0300
0020
0000
0000
0000
0000
0000
,
0000
0000
0000
0000
,
0000
0030
2000
0000
0000
0000
0000
0000
,
3000
0100
0010
0000
,
0010
0002
0000
0000
,
0000
0000
0000
0000
,
0000
0003
0000
0000
0000
0000
0000
0000
,
0000
0000
2000
0000
0000
3000
0100
1000
,
0000
0000
0001
0010
,
0100
0001
0000
0100
,
0000
1000
0000
0010
,
0100
0001
0010
2000
,
3000
0010
0001
0010
,
1000
0100
0010
0100
,
0000
0010
1000
0010
,
0000
0000
0010
0000
0100
1000
0000
0100
,
0010
0000
0001
0100
,
1000
0001
0100
0100
,
0000
0100
0100
0010
,
0100
1000
0010
0100
,
1000
0100
0010
0001
,
0000
0100
0010
0001
,
0010
1000
0200
0000
,
0000
0000
0000
0000
,
0000
0300
0000
0000
0010
0000
1000
0000
,
0000
0010
0010
0100
,
0000
0010
0001
0010
,
0000
0100
0100
0010
,
0000
1000
1000
0100
,
0000
0010
0010
0100
,
0000
0000
0200
0000
0000
0300
0020
0000
,
0000
0030
0002
0000
0000
0003
0020
0000
,
0230
2300
3100
0010
,
0000
1000
0010
0100
,
0000
0001
0001
0010
,
0000
1000
0100
1000
,
0000
0010
0010
0100
,
0000
0010
0001
0010
,
0000
0010
0001
0010
,
0000
0000
0200
0300
0000
0000
0020
0000
,
0030
0202
0000
0000
,
0000
0000
0000
0000
,
0000
0303
0010
1000
,
0000
0010
0001
0100
,
0000
0010
0010
1000
,
0000
0010
0100
0001
,
0000
0010
0010
1000
,
0000
0100
0100
0010
,
0001
0010
0000
1000
,
0000
0010
0100
0001
,
0000
0010
1000
0010
,
0000
0100
0010
0100
,
1000
0100
0100
0010
,
0000
0001
0010
0001
,
0000
0100
0010
1000
,
0010
0000
0001
0000
0100
0001
0100
0001
,
1000
1000
2000
3000
1000
0000
0000
0000
,
0000
0000
0000
0000
,
0000
1000
0001
1000
,
0010
1000
0000
0010
,
0100
0001
0000
0010
,
0010
1000
0000
0010
,
0100
0001
0010
1000
,
0010
1000
0000
0001
,
0100
0010
0000
0010
,
0001
0100
0000
0010
,
1000
0000
0011
0000
,
0010
0100
0000
0010
,
1000
0001
0000
0100
,
0100
0010
0000
0001
,
0010
0001
0001
0010
,
0001
0010
0000
0100
,
1000
0100
0000
0010
,
0001
0010
0000
0100
,
0010
0001
0010
1000
,
0000
0000
0000
0000
,
0000
0000
0000
0000
,
0000
0000
0000
0000
,
0000
0000
0000
0000
,
0000
0000
0000
0000
,
0000
0000
0000
0000
,
0000
0000
0000
0000
,
0000
0000
0000
0000
,
0000
0000
0000
0000
,
0000
00M0
0000
0M00
0000
00M0
0000
0000
,
M000
0000
00M0
0000
,
0000
0000
0000
0000
0000
0000
0000
0000
0000
0000
0000
0M00
0000
0000
0000
0000
0000
0000
0000
00M0
0000
0000
0000
0000
,
0000
0M00
0000
0000
0000
0000
0000
00M0
,
0000
0000
0000
000M
0000
0000
0000
0M00
,
0000
0000
0000
0000
0000
0000
0000
00M0
;

//---------------dance-single - Hard----------------
#NOTES:
     dance-single:
     Hard:
     Challenge:
     10:
     0.565,0.663,0.364,0.634,0.077:
0000
0000
0000
0000
,
0000
0000
0000
0000
,
0000
0000
0000
0100
2000
0000
0000
0000
0100
0000
0010
0000
0000
0000
0010
0000
,
0000
0000
0020
0000
0000
0030
3001
0000
,
0200
0000
0020
0000
0000
0000
0000
0030
0001
0000
0010
0000
0000
0000
0001
0000
,
0000
0000
0000
0000
0020
0000
0000
0000
0000
0000
0030
0300
0001
0000
0000
0000
,
0020
2000
0000
0000
3100
1000
0000
0100
,
0000
0000
2000
0000
0000
3030
0001
0000
,
0200
0020
0000
0000
0031
0010
0000
0001
,
0000
0000
0020
0030
0020
0030
0020
0030
,
0020
0000
0331
0100
2000
0000
0000
0000
0100
0000
0010
0000
0000
0000
0010
0000
,
0000
0002
3003
0010
,
0200
0002
0000
0000
0013
0001
0000
0010
,
0000
0000
0020
0000
0000
0330
0010
0000
,
2000
0200
0000
0300
0010
0001
0000
0010
,
0000
0000
0200
0000
0000
3300
0001
0000
,
0020
0200
0000
0300
1000
0100
0000
1000
,
0000
0200
0000
0000
,
2330
3000
1100
0000
0001
0100
0010
0000
,
0000
0100
1000
0010
1000
0000
0100
0000
,
0010
0100
0001
0000
0010
2000
0000
3010
,
0000
0200
0300
1000
0020
0000
0030
0000
,
0000
0000
0100
0010
,
0000
1000
0100
1000
0010
0000
0000
0100
,
0001
0010
1000
0000
0100
0020
0000
0030
,
0000
1000
0010
1000
0001
0000
0101
0000
,
0010
1000
0100
0000
0010
0000
1010
0000
,
0000
0100
0001
0100
0010
0000
1001
0000
,
0010
0100
0010
1100
,
0000
0100
0010
0100
0001
0000
1001
0000
,
0010
1000
0100
0000
0010
0000
1010
0000
,
0000
0100
0001
0100
0010
0000
1010
0000
,
0001
0010
0100
1010
,
0010
0000
0000
0100
0000
0000
0010
0000
0000
2000
0000
0000
3200
0000
0000
0000
0300
0000
0000
0000
0000
0200
0000
0000
,
0300
2200
0000
0000
,
0000
0000
0000
0000
0000
3000
0300
0000
2000
3200
0320
0032
0000
0000
0000
0003
,
0000
0022
0000
0000
,
0000
0000
0000
0033
1000
0000
0000
0000
0100
0000
0010
0000
0000
0000
0100
0000
,
0000
0002
0000
0000
,
0000
0000
0000
0000
0000
0000
0003
0002
0023
0230
2300
0000
0000
0000
0000
0000
,
0000
3000
2000
0000
0000
0000
0000
0000
,
3000
0000
2000
0000
0000
0000
3100
1100
,
0000
0000
2020
3030
0010
0100
0010
1000
,
0010
1010
0020
0030
0200
0310
0000
0000
,
0010
1000
0100
0000
0100
0010
0000
0001
,
0000
0010
0000
1000
0200
0000
0000
0000
,
0010
0300
0110
0000
1000
0100
0010
0100
,
0001
0010
0200
0000
0310
1000
0000
0000
,
2000
3000
0100
0000
0001
0200
0000
0000
,
0300
0000
0010
1000
0010
0000
0000
0000
1100
0000
1000
0000
0000
0000
0100
0000
,
0110
0000
0001
1000
0001
0000
0000
0000
1000
0000
0001
0000
0100
0000
0010
0000
,
0010
0100
2000
3000
0010
0001
0000
0000
,
0010
0001
0010
0000
0001
0020
0000
0230
,
0000
0000
0000
0320
0000
0000
0000
0000
0000
0130
0000
0000
2000
0000
0000
0000
0000
0000
3100
0000
0000
0000
0001
0000
,
0000
0000
0010
0000
0000
0000
0200
0000
0000
0000
0000
0000
0010
0000
0000
0320
0000
0000
0000
0000
0000
0030
0000
0000
,
0010
0001
0000
0000
0010
0000
0100
0000
,
0010
0000
0100
0000
1000
0200
0000
0000
,
0000
0000
0010
0000
0000
0000
1000
0000
0300
0000
0010
0001
0100
0000
0010
0000
,
1000
0100
1001
0100
1100
0100
2100
3000
,
0000
0100
0110
0100
0120
0030
0000
0011
,
0010
0011
0000
0001
0010
0001
0020
0030
,
0000
0010
0001
0010
0002
0003
0000
0110
,
0110
0110
0000
1000
1100
1000
1200
0300
,
0000
1000
1100
1000
1200
0300
0000
0110
,
0000
0110
2000
0000
0000
3000
1200
0000
,
0000
0300
0120
0000
0000
0030
0021
0030
,
2010
3000
1100
0000
0100
0000
0010
0000
,
0100
0010
0000
0002
0103
0000
0010
0000
,
0010
0002
0203
0300
0110
0000
0120
0000
,
0130
0000
0002
0000
0010
0000
0000
0000
0020
0000
0003
0000
0200
0030
0000
0000
,
1310
1000
1010
0000
0001
0000
0110
0000
,
0001
0010
0100
1000
0010
0000
1100
0000
,
2000
0100
0010
0000
0100
3000
1001
0000
,
0100
0000
0010
0000
1000
0000
0010
0000
0100
0000
0010
0001
1000
0000
0100
0000
,
0010
1000
0202
0000
0000
0000
0000
0000
,
0000
0000
0000
0000
,
0303
0010
0010
1000
,
0001
0100
0010
1000
0100
1000
1010
0000
,
0001
0100
0010
0000
0010
0000
1001
0000
,
0010
0100
0010
1000
0001
0010
1010
0000
,
0010
0100
0001
0000
0001
0000
1010
0000
,
0100
1000
0010
0100
0001
0010
1001
0000
,
0010
0100
0110
0000
1000
0000
1010
0000
,
0001
0100
0010
1000
0001
0010
0101
0000
,
0010
1000
0100
0000
0010
0000
1001
0000
,
0010
0100
0001
0010
0100
1000
1010
0000
,
0001
0100
0010
0000
0010
0000
0101
0000
,
0010
1000
0001
0010
0100
1000
1010
0000
,
0001
0100
0010
0000
0001
0000
0110
0000
,
0001
1000
0010
0100
0010
0001
0010
1000
,
2000
0010
3000
0000
2000
0010
3000
0000
2000
0010
0000
0000
0000
0000
3000
0000
2000
0010
0000
3000
0000
0000
0000
0000
0000
0000
0000
0000
0000
0000
0000
0000
,
0000
0000
0000
0000
,
0000
0000
1000
0001
0100
0000
0010
0000
1000
0000
0010
0000
1100
0000
0000
0000
,
0010
1000
0001
0100
0010
0100
0001
0000
,
0010
1000
0000
0000
0100
0010
0001
0000
,
0010
2000
3000
0200
0300
1000
0000
0010
,
0200
0000
0000
0300
0110
0100
0101
0000
,
0010
0110
0010
0001
0010
0100
1000
0000
,
0100
0010
0000
0000
0001
0000
0010
0000
,
1000
0000
0002
0000
0000
0000
0000
0000
0000
0000
0000
0000
0003
0000
0100
0001
,
0100
0010
0100
0001
0010
0100
2020
3030
,
0100
0010
0100
0001
0010
0010
2000
0000
,
3200
2300
3000
0000
0001
0100
0020
0000
,
0130
0010
0000
0001
0000
0010
0000
1000
,
0020
0000
0000
0030
0000
0000
0001
0000
0000
0000
0010
0000
0000
0000
0100
0000
0000
0000
1020
0000
0000
0000
0000
0000
,
0031
0020
0000
0000
1030
0020
0000
0000
,
0031
0010
0100
1000
,
0010
0200
0000
0000
0000
0310
0000
0001
,
1000
0000
0010
0001
0100
0000
0010
0000
1000
0000
0100
0000
0020
0000
0000
0000
,
0100
1000
0000
0100
0000
0000
2000
0000
,
0000
3030
0001
0000
0100
0020
0000
0000
,
0100
1000
0000
0100
0000
0000
2030
0000
,
0000
0000
3010
0000
0100
0002
0000
0000
,
0010
0100
0000
0100
0000
0000
2000
0000
,
0003
0000
3010
0000
0100
0020
0000
0000
,
0100
0000
0000
1000
0000
0000
0000
0000
0000
0000
0000
0100
0000
0000
0000
0000
0000
0000
0000
0000
0000
0030
0000
0210
,
0000
0000
0000
0000
0000
0000
0000
0002
0000
0000
0000
0000
0000
0003
0000
0020
0000
0000
0000
0000
0000
0000
0000
0330
,
0000
0000
0000
0000
0000
0000
0000
0000
0000
0000
0000
0000
0000
0000
0000
0000
0000
0000
0000
0000
0000
0000
0000
1000
,
0000
0100
0000
0010
0000
0001
0000
0010
0000
0002
0000
0000
0000
0000
0000
0000
0000
0000
0000
0000
0000
0000
0000
0000
,
0000
0000
0000
0000
,
0000
0003
0000
0000
0000
0000
0000
0000
;

//---------------dance-single - Easy----------------
#NOTES:
     dance-single:
     Easy:
     Beginner:
     2:
     0.119,0.237,0.000,0.061,0.000:
0000
0000
0000
0000
,
0000
0000
0000
0000
,
0000
0000
0000
0000
,
0000
0000
0000
0000
,
0000
0000
0000
0000
,
0000
0000
0000
0000
,
0000
0000
0000
0000
,
0000
0000
0000
0000
,
0000
0000
0000
0000
,
0000
0000
0000
0000
,
0000
0000
0000
0000
,
0000
0000
0000
0000
,
0000
0000
0000
0000
,
0000
0000
0000
0000
,
0000
0000
0000
0000
,
0000
0000
0000
0000
,
0000
0000
0000
0000
,
0000
0000
0000
0000
,
0000
0000
0100
0000
,
0001
0010
0000
0000
,
2000
3000
0000
0000
0100
0000
0010
0000
,
0000
0010
0010
1000
,
0000
0000
0100
0000
,
0010
0010
0000
1000
,
0200
0300
0001
0000
,
0020
0000
0030
0000
,
0000
0000
0000
0100
,
0000
0000
0001
0010
,
0000
0000
0100
0000
,
0000
0000
0100
1000
,
0010
0100
0000
0010
,
0000
0000
0000
0100
,
0001
0000
0100
1000
,
0000
2000
0000
0000
,
0000
3020
0000
0000
,
0000
0000
0000
0000
,
0000
0000
0030
0000
,
0000
0000
0000
0000
,
0000
0200
0000
0000
0000
0000
0000
0000
,
0000
0000
0000
0000
,
0000
0300
0000
0000
0000
0000
0000
0000
,
0000
0000
0000
1000
,
0000
0000
0001
0000
,
0010
0000
0100
0000
,
0001
0000
0010
0000
,
0001
0000
0100
0000
,
0001
0000
1000
0000
,
0010
0000
1000
0000
,
0100
0000
0000
0000
2000
0000
0000
3000
,
0000
0000
0000
0000
1000
0000
0000
0010
,
0000
0000
0001
0000
,
1000
0000
0010
0000
,
0001
0000
0100
0000
,
0010
0000
0010
0000
,
1000
0000
0001
0000
,
0100
0010
0100
0001
,
0010
2000
0000
0000
,
0000
0000
0000
0000
,
3000
1000
0000
0000
,
0000
0001
0000
0000
,
0000
0100
0000
0000
,
0000
0001
0000
0000
,
0000
1000
0000
0000
,
0000
0010
0000
0000
,
0010
0000
1000
0000
,
0010
0000
0100
0010
,
0010
0000
1000
0000
,
0000
0000
0001
0010
,
0000
0000
0100
0000
,
0000
0010
0001
0000
,
0000
0000
1000
0000
,
0000
0000
0001
0010
,
0000
0000
1000
0000
,
0000
0001
0000
1000
,
0000
0020
0000
0000
,
0000
0000
0000
0000
,
0000
0000
0000
0000
0000
0030
0000
0000
,
1000
0000
0001
0000
,
0100
0000
0001
0000
,
1000
0000
0001
0000
,
0100
0000
0001
0000
,
0010
0000
0001
0010
,
0001
0000
0010
0000
,
1000
0000
0010
0000
,
0100
0000
0010
0000
,
0001
0010
0010
0000
,
1000
0000
0010
0000
,
0100
0000
0010
0000
,
0001
0000
0010
0000
,
0100
0000
0010
0010
,
0010
0020
0000
0030
,
0000
0000
0000
0000
,
0000
0000
0000
0000
,
1000
0000
0000
0000
,
0001
0000
0000
0000
,
0100
0000
0000
0000
,
0001
0000
0000
0000
,
1000
0000
0000
0000
,
0010
0000
0000
0000
,
0100
0000
0000
0000
0000
0000
0000
0001
,
0000
0001
0000
0000
,
1000
0000
0000
0000
,
0001
0000
0000
0000
,
0100
0000
0000
0000
,
0001
0000
0000
0000
,
1000
0000
0000
0000
,
0001
0000
0100
0000
,
0010
0000
0100
0000
,
0010
0000
1000
0200
,
0000
0000
0000
0000
,
0000
0300
0000
0000
,
0000
0000
0000
0000
,
0000
0000
0000
0000
,
0000
0000
0000
0000
,
0000
0000
0000
0000
,
0000
0000
0000
0000
,
0000
0000
0000
0000
,
0000
0000
0000
0000
,
0000
0M00
0000
0000
0000
0000
0000
0000
,
0000
0000
0000
0000
,
0000
0000
0000
0000
0000
0000
0000
0M00
,
0000
0000
0000
0000
0000
00M0
0000
0000
,
0000
000M
0000
0000
0000
0M00
0000
0000
;

//---------------dance-double - Easy----------------
#NOTES:
     dance-double:
     Easy:
     Easy:
     4:
     0.233,0.305,0.011,0.215,0.014:
00000000
00000000
00000000
00000000
,
00000000
00000000
00000000
00000000
,
00000000
20000000
00000000
00000000
00000000
00000000
00000000
00000000
,
00000000
00000000
00000000
00000000
00000000
00000000
00000000
30000000
,
00020000
00000000
00000000
00000000
,
00000000
00000000
00000000
00030000
,
20000000
00000000
00000000
00000000
,
00000000
00000000
30000000
00000000
,
00002000
00000000
00000000
00000000
,
00000000
00000000
00000000
00000000
00000000
00000000
00000000
00003000
,
00000000
02000000
00000000
00000000
00000000
00000000
00000000
00000000
,
00000000
00000000
00000000
00000000
00000000
00000000
00000000
03000000
,
00002000
00000000
00000000
00000000
,
00000000
00000000
00000000
00000000
00000000
00000000
00000000
00003000
,
02000000
00000000
00000000
00000000
,
00000000
00000000
00000000
00000000
,
03002000
00000000
00000000
00000000
,
00000000
00000000
00000000
00000000
00000000
00003000
00000000
00000000
,
00000000
00000000
00000100
00001000
,
00000000
00010000
00000000
00200000
00300000
00000000
00000000
00000000
,
00001000
00000000
00000100
00000000
00001000
00000000
00000000
00001000
,
00000000
00100000
00000000
00002000
00000000
00000000
00000000
00003000
,
00000000
00000000
00001000
00000100
,
00000000
00010000
00000000
00002000
00000000
00003000
00000000
00000010
,
00000000
00001000
00000000
00000000
00002000
00000000
00003000
00000000
,
00000000
00000000
00000000
00000000
,
00000000
00000000
00000100
00000010
,
00000000
00000010
00000000
00000010
00000000
00000000
00000000
00000000
,
00000100
00000000
00000010
00000000
00000001
00000000
00000000
00000100
,
00000000
00001000
00000000
00000010
00000200
00000000
00000000
00000000
,
00000300
00000000
00000010
00000001
,
00000000
00001000
00000000
00000010
00000000
00000000
00000000
00001000
,
00000000
00010000
00000000
00000000
00000000
00020000
00000000
00000000
,
00030000
00000000
00001000
00000000
00000100
00000000
00000000
00002000
,
00000000
00003000
00000200
00000000
00000000
00000000
00000000
00000000
,
00000000
00000000
00000000
00000000
,
00000000
00000300
00200000
00000000
00000000
00000000
00000000
00000000
,
00300000
00010000
00001000
00000000
,
00001000
00000200
00000000
00000000
,
00000000
00000000
00000000
00000000
,
00000000
00000300
00000000
00000000
00000000
00000000
00000000
00000000
,
00000000
00000000
00200000
00000000
00000000
00300000
00010000
00100000
,
00000000
00000000
00001000
00010000
,
00100000
00001000
00000000
00100000
,
00000000
01000000
00000000
00010000
,
00100000
00001000
00010000
02000000
,
03000000
00100000
00010000
00100000
,
10000000
01000000
00100000
01000000
,
00000000
00000000
00100000
00000000
00000000
00200000
00000000
00000000
,
00000000
00300000
00100000
00000000
01000000
10000000
00000000
01000000
,
00010000
00000000
00001000
00100000
,
01000000
00001000
00100000
00100000
,
00000000
00100000
00100000
00010000
,
00100000
00000000
00000000
00000000
00000000
00000000
01000000
00000000
00000000
00000000
00000000
00000000
00010000
00000000
00000000
00000000
00000000
00000000
00000000
00010000
00000000
00000000
00000000
00100000
,
00000000
00000000
00000000
00100000
00000000
00000000
00000000
00020000
00000000
00000000
00000000
00030000
00001000
00000000
00000000
00000100
00000000
00000000
00000000
00000000
00000000
00000000
00000000
00000000
,
00001000
00010000
00000000
00000000
00001000
00000000
00000100
00000000
,
00001000
00100000
00020000
00000000
,
00000000
00000000
00000000
00000000
,
00000000
00030000
00000000
00000000
00001000
00000000
00100000
00000000
,
00000000
00000100
00000100
00001000
,
00000000
00000100
00000010
00000100
,
00000000
00001000
00001000
00000100
,
00000000
00010000
00010000
00001000
,
00000000
00000010
00000010
00000100
,
00000000
00000000
00000200
00000000
00000000
00000300
00000020
00000000
,
00000000
00000030
00000002
00000000
00000000
00000003
00000020
00000000
,
00000230
00002300
00003100
00000010
,
00000000
00010000
00000100
00001000
,
00000000
00000010
00000010
00000100
,
00000000
00010000
00001000
00010000
,
00000000
00000100
00000100
00001000
,
00000000
00001000
00000100
00001000
,
00000000
00001000
00000100
00001000
,
00000000
00000000
00020000
00030000
00000000
00000000
00002000
00000000
,
00003000
00020200
00000000
00000000
,
00000000
00000000
00000000
00000000
,
00000000
00030300
00010000
01000000
,
00000000
00010000
00001000
00100000
,
00000000
00010000
00010000
01000000
,
00000000
00010000
00100000
00001000
,
00000000
00100000
00100000
10000000
,
00000000
01000000
01000000
00100000
,
00010000
00100000
00000000
10000000
,
00000000
00100000
01000000
00010000
,
00000000
00010000
01000000
00010000
,
00000000
00100000
00010000
00100000
,
01000000
00100000
00100000
00010000
,
00000000
00001000
00010000
00001000
,
00000000
00010000
00001000
00100000
,
00001000
00000000
00000100
00000000
00010000
00000100
00010000
00000100
,
00100000
00100000
00100000
00200000
00300000
00100000
00000000
00000000
,
00000000
00000000
00000000
00000000
,
00000000
00000000
00000000
00000000
,
00001000
00100000
00000000
00001000
,
00001000
00000000
00000000
00000010
00000000
00000000
00000100
00000000
,
00000100
00010000
00000000
00000100
,
00001000
00000010
00000100
00010000
,
00000100
00010000
00000000
00000010
,
00000100
00000010
00000000
00000010
,
00000001
00000100
00000000
00000010
,
00001000
00000000
00000011
00000000
,
00000010
00000100
00000000
00000010
,
00010000
00000010
00000000
00001000
,
00001000
00000100
00000000
00000010
,
00000100
00000010
00000010
00000100
,
00000010
00000100
00000000
00001000
,
00100000
00010000
00000000
00001000
,
00000100
00001000
00000000
00010000
,
00001000
00000100
00001000
00200000
,
00000000
00000000
00000000
00000000
,
00000000
00000000
00000000
00000000
00300000
00000200
00000000
00000000
,
00000000
00000000
00000000
00000000
,
00000000
00000000
00002300
00000000
,
00000000
00000000
00000000
00000000
,
00000000
00000000
00000000
00000000
00000000
00003200
00000000
00000000
,
00000000
00000000
00000000
00000000
00000000
00000000
00000000
00200000
,
00000000
00000000
00000000
00000000
,
00000000
00000000
00000000
00000000
00000000
00300300
00000000
00000000
,
00000000
000M0000
00000000
00M00000
00000000
000M0000
00000000
00000000
,
0M000000
00000000
000M0000
00000000
,
00000000
00000000
00000000
00000000
00000000
00000000
00000000
00000000
00000000
00000000
00000000
00M00000
00000000
00000000
00000000
00000000
00000000
00000000
00000000
000M0000
00000000
00000000
00000000
00000000
,
00000000
00M00000
00000000
00000000
00000000
00000000
00000000
000M0000
,
00000000
00000000
00000000
000M0000
00000000
00000000
00000000
0M000000
;

//---------------dance-double - Medium----------------
#NOTES:
     dance-double:
     Medium:
     Medium:
     5:
     0.311,0.474,0.033,0.232,0.019:
00000000
00000000
00000000
00000000
,
00000000
00000000
00000000
00000000
,
00000000
20000000
00000000
00000000
00000000
00000000
00000000
00000000
,
00000000
00000000
00000000
00000000
00000000
00000000
00000000
30000000
,
00000000
00020000
00000000
00000000
00000000
00000000
00000000
00000000
,
00000000
00000000
00000000
00030000
,
00000000
20000000
00000000
00000000
00000000
00000000
00000000
00000000
,
00000000
00000000
30000000
00000000
,
00000000
00002000
00000000
00000000
00000000
00000000
00000000
00000000
,
00000000
00000000
00000000
00000000
00000000
00000000
00000000
00003000
,
00000000
02000000
00000000
00000000
00000000
00000000
00000000
00000000
,
00000000
00000000
00000000
00000000
00000000
00000000
00000000
03000000
,
00000000
00002000
00000000
00000000
00000000
00000000
00000000
00000000
,
00000000
00000000
00000000
00000000
00000000
00000000
00000000
00003000
,
00000000
02000000
00000000
00000000
00000000
00000000
00000000
00000000
,
00000000
00000000
00000000
00000000
,
03000000
00000200
00000000
00000000
00000000
00000000
00000000
00000000
,
00000000
00000000
00000000
00000000
00000000
00000300
00000000
00000000
,
00000000
00000000
00000000
00000000
00000100
00010000
00001000
00000000
,
00000000
00010000
00100000
00010000
00200000
00300000
00000000
00000000
,
00001000
00010000
00000100
00000000
00001000
00010000
00000000
00000100
,
00000000
00010000
00000000
00010000
00000200
00000000
00000000
00000300
,
00000000
00000000
00001000
00000100
,
00000000
00010000
00000100
00001000
00020000
00000000
00030000
00000010
,
00000100
00001000
00010000
00000000
00001000
00000200
00000000
00000300
,
00000000
00000000
00000000
00000000
,
00000000
00000000
00000010
00000001
,
00000000
00000010
00001000
00000010
00000100
00000000
00000000
00000000
,
00000100
00001000
00000010
00000000
00000001
00000010
00000000
00000100
,
00000000
00001000
00000000
00000010
00000200
00000000
00000000
00000000
,
00000300
00000000
00000100
00000010
,
00000000
00001000
00000100
00000010
00000100
00000000
00000000
00001000
,
00000000
00010000
00000100
00000000
00001000
00020000
00000000
00000000
,
00030000
00000000
00001000
00000000
00000100
00000010
00000000
00002000
,
00000000
00003000
00002000
00000000
00000000
00000000
00000000
00000000
,
00000000
00000000
00000000
00000000
,
00000000
00003000
00200000
00000000
00000000
00000000
00000000
00000000
,
00300000
00000000
00100000
00000000
00010000
00001000
00000000
00010000
,
00000000
00000200
00000000
00000000
,
00000000
00000000
00000000
00000000
,
00000000
00000300
00000000
00000000
00000000
00000000
00000000
00000000
,
00000000
00000000
02000000
00000000
00000000
03000000
00100000
01000000
,
00000000
00000000
00000000
00000000
00010000
01000000
00100000
00010000
,
00001000
00100000
00010000
00000000
01000000
00100000
00000000
00000000
,
00010000
01000000
00001000
00000000
00100000
00010000
00000000
00100000
,
00000000
00010000
00000000
00100000
20000000
00000000
00000000
00000000
,
30100000
00000000
00010000
00000000
00100000
01000000
10000000
00100000
,
01000000
00010000
00100000
00000000
01000000
00100000
00000000
00000000
,
00100000
00000000
00010000
00000000
00100000
02000000
00000000
00000000
,
03000000
00000000
00010000
00000000
00100000
01000000
00000000
00100000
,
00010000
00000000
00000000
00000000
00010000
00100000
00100000
01000000
,
00010000
00001000
00010000
00000000
00100000
00100000
00000000
00000000
,
00100000
00010000
00100000
00000000
00001000
00010000
00000000
00100000
,
00000000
00000000
00000000
00100000
00000000
00000000
00000000
00000000
00000000
00001000
00000000
00000000
00000100
00000000
00000000
00000000
00000000
00000000
00001000
00000000
00000000
00000000
00010000
00000000
,
00000000
00000000
00100000
00000000
00000000
00000000
00010000
00000000
00000000
00000000
00000000
00000000
00001000
00000000
00000000
00000100
00000000
00000000
00000000
00000000
00000000
00000000
00000000
00000000
,
00001000
00010000
00000000
00000000
00001000
00000000
00000100
00000000
,
00001000
00000000
00100000
00000000
00001000
00020000
00000000
00000000
,
00000000
00000000
00000000
00000000
,
00030000
00000000
00000000
00000010
00000100
00000010
00000100
00000000
,
00000000
00000010
00000100
00000010
00000100
00000000
00000000
00000100
,
00000000
00000100
00000000
00001000
00000100
00001000
00000100
00000000
,
00000000
00000100
00001000
00000100
00001000
00000000
00000000
00000100
,
00000000
00000010
00000000
00000100
00000010
00000100
00000010
00000000
,
00000000
00000100
00000010
00000100
00000010
00000000
00000100
00000000
,
00000100
00000000
00002000
00000000
00000000
00003000
00000200
00000000
,
00000000
00000300
00000020
00000000
00000000
00000030
00000200
00000000
,
00002300
00003100
00000010
00000001
,
00000100
00010000
00000000
00001000
00000100
00000000
00000010
00000000
,
00000100
00001000
00000100
00000000
00000000
00000010
00000000
00000100
,
00000000
00000000
00000000
00020000
00000000
00000000
00030000
00000000
,
00000000
00000100
00000010
00000100
,
00100000
00001000
00000000
00010000
00000100
00000000
00001000
00000000
,
00010000
00001000
00000200
00000000
00000000
00000000
00000000
00000300
,
00000000
00020000
00000000
00030000
00000000
00002000
00000000
00003000
,
00000000
00020200
00000000
00000000
00000000
00000000
00000000
00000000
,
00000000
00000000
00000000
00000000
00000000
00000000
00000000
00030300
,
00010000
01000000
00100000
01000000
,
00100000
01000000
00001000
00100000
,
00010000
00100000
00001000
00100000
,
00010000
00100000
00001000
00010000
,
00010000
00100000
00010000
00100000
,
01000000
00010000
00100000
00010000
,
01000000
01100000
00010000
01000000
,
00100000
01000000
00100000
01000000
,
00010000
00100000
00010000
00100000
,
00100000
00010000
01000000
00100000
,
00010000
00100000
00010000
01000000
,
00010000
00100000
01000000
00100000
,
00001000
00000000
00010000
00000000
00000100
00000000
00010000
00010000
,
00000100
00010000
00000100
00010000
00000100
00010000
00000100
00101000
,
00100000
00100000
00200000
00300000
00100000
00000000
00000000
00000000
,
00000000
00000000
00000000
00000000
,
00000000
00000000
00000000
00000000
,
00001000
00100000
00001000
00010000
00000100
00001000
00010000
00000000
,
00010000
00000100
00000000
00000000
00000010
00000100
00001000
00000000
,
00010000
00000100
00000000
00001000
00000000
00000100
00000000
00000010
,
00000200
00000000
00000300
00000000
,
00000100
00010000
00000010
00000100
00001000
00010000
00000100
00000000
,
00000010
00000100
00000000
00000000
00000010
00001000
00000001
00000000
,
00000010
00000200
00000000
00000000
00000300
00000000
00001100
00000000
,
00000000
00001100
00000000
00000000
00001100
00000000
00000000
00000000
,
00000010
00000100
00000001
00000010
00000100
00001000
00000010
00000000
,
00000010
00000100
00000000
00000000
00001000
00010000
00000100
00000000
,
00000010
00000100
00000000
00001000
00000000
00010000
00000100
00001000
,
00000100
00000000
00000000
00000100
00000000
00000010
00000000
00000100
00000000
00001000
00000000
00000000
,
00010000
00001000
00000000
00000000
00000100
00001000
00000000
00000000
,
00100000
00001000
00000100
00001000
,
00010000
00200000
00000000
00000000
00000000
00000000
00000000
00000000
,
00000000
00000000
00000000
00000000
00000000
00300000
00200000
00000000
,
00000000
00000000
00000000
00000000
,
00000000
00000000
00300000
00000000
00000000
00000200
00000000
00000000
,
00000000
00000000
00000000
00000000
,
00000000
00000000
00000000
00000000
00000000
00200000
00000300
00000000
,
00000000
00000000
00000000
00000000
,
00000000
00000000
00000000
00000000
00000000
00000200
00300000
00000000
,
00000000
00000000
00000000
00000000
00000000
00000000
00200000
00000300
,
00000000
00000000
00000000
00000000
,
00000000
00000000
00000000
00300000
,
000M0000
00M00000
000M0000
0000M000
,
0M000000
00000000
00000000
000M0000
00000000
00000000
0M000000
00000000
,
00000000
0000M000
00000000
00000000
00M00000
00000000
00000000
00000000
000M0000
00000000
00000000
00000000
,
00M00000
00000000
00000000
000M0000
,
00000000
00000000
00000000
0M000000
;

//---------------dance-double - Hard----------------
#NOTES:
     dance-double:
     Hard:
     Hard:
     7:
     0.467,0.577,0.259,0.474,0.039:
00000000
00000000
00000000
00000000
,
00000000
00000000
00000000
00000000
,
00000000
20000000
00000000
00000000
,
00000000
00000000
00000000
30010000
,
02000000
00200000
00000000
00000000
00000000
00000000
00000000
00000000
,
00000000
00000000
00000000
00000000
00000000
00000000
00000000
00000000
00000000
00000000
00000000
03300000
00001000
00000000
00000000
00000000
,
00020000
02000000
00000000
00000000
00000000
00000000
00000000
00000000
,
00000000
00000000
00000000
00000000
00000000
03030000
00001000
00000000
,
00200000
00020000
00000000
00000000
00000000
00000000
00000000
00000000
,
00000000
00000000
00000000
00000000
,
00330000
00200000
00000000
00000000
,
00000000
00000000
00300000
00001000
,
00020000
00000200
00000000
00000000
00000000
00000000
00000000
00000000
,
00000000
00000000
00030300
00001000
,
00020000
00002000
00000000
00000000
00000000
00000000
00000000
00000000
,
00000000
00000000
00033000
00000010
,
00000200
00002000
00000000
00000000
00000000
00000000
00000000
00000000
,
00000000
00000000
00000000
00000000
,
00023300
00000000
00031000
00000000
00000010
00001000
00000100
00000000
,
00000000
00000100
00001000
00000010
00001000
00000000
00000000
00000000
,
00000010
00000100
00000001
00000000
00000010
00002000
00000000
00003010
,
00000000
00000200
00000300
00001000
00000010
00000000
00000000
00000000
,
00000000
00000000
00000100
00000010
,
00000000
00010000
00001000
00010000
00000100
00000000
00000000
00001000
,
00000010
00000100
00010000
00000000
00001000
00000200
00000000
00000300
,
00000000
00010000
00000100
00010000
00000010
00000000
00001010
00000000
,
00000100
00010000
00001000
00000000
00000100
00000000
00010100
00000000
,
00000000
00010000
00000100
00010000
00001000
00000000
00100000
00000000
,
00001000
00010000
00001000
00110000
,
00000000
00010000
00001000
00010000
00000100
00000000
00100000
00000000
,
00001000
00100000
00010000
00000000
00001000
00000000
00101000
00000000
,
00000000
00100000
00001000
00100000
00010000
00000000
01010000
00000000
,
00001000
00010000
00100000
01010000
,
00010000
00000000
00000000
00100000
00000000
00000000
00010000
00000000
00000000
02000000
00000000
00000000
03200000
00000000
00000000
00000000
00300000
00000000
00000000
00000000
00000000
00200000
00000000
00000000
,
00300000
00220000
00000000
00000000
,
00000000
00000000
00000000
00000000
,
00000000
02330000
00000000
00000000
,
03000000
00000000
10000000
00000000
01000000
00100000
00000000
01000000
,
00000000
00020000
00000000
00000000
,
00000000
00000000
00000000
00000000
,
00030000
00000000
00000000
00000000
,
00000000
00000000
20000000
00000000
00000000
00000000
31000000
11000000
,
00000000
00000000
20200000
30300000
00100000
01000000
00100000
10000000
,
00010000
00100000
00020000
00030000
00200000
00310000
00000000
00000000
,
00010000
01000000
00100000
00000000
00100000
00010000
00000000
00001000
,
00000000
00010000
00000000
01000000
00200000
00000000
00000000
00000000
,
00010000
00300000
00110000
00000000
01000000
00100000
00010000
00100000
,
00000100
00001000
00020000
00000000
00031000
00100000
00000000
00000000
,
00200000
00300000
00010000
00000000
00000100
00020000
00000000
00000000
,
00030000
00000000
00001000
00100000
00001000
00000000
00000000
00000000
00110000
00000000
00100000
00000000
00000000
00000000
00010000
00000000
,
00011000
00000000
00000000
00000000
00100000
00000100
00010000
00001000
,
00000100
00001000
00020000
00030000
00000100
00000010
00000000
00000000
,
00000100
00000010
00000100
00000000
00000010
00000200
00000000
00002300
,
00000000
00000000
00000000
00003200
00000000
00000000
00000000
00000000
00000000
00001300
00000000
00000000
00020000
00000000
00000000
00000000
00000000
00000000
00031000
00000000
00000000
00000000
00000010
00000000
,
00000000
00000000
00000100
00000000
00000000
00000000
00002000
00000000
00000000
00000000
00000000
00000000
00000100
00000000
00000000
00003200
00000000
00000000
00000000
00000000
00000000
00000300
00000000
00000000
,
00000010
00000001
00000000
00000000
00000010
00000000
00000100
00000000
,
00000010
00000000
00000100
00000000
00001000
00000200
00000000
00000000
,
00000000
00000000
00000000
00000000
00000000
00000000
00000000
00000000
00000300
00000000
00000010
00000001
00000100
00000000
00000010
00000000
,
00001000
00000100
00001001
00001000
00000100
00001000
00000200
00000300
,
00000000
00001000
00000100
00001000
00000100
00000000
00000000
00000110
,
00000000
00000110
00000000
00000010
00000100
00000010
00000100
00000000
,
00000000
00000100
00000010
00000100
00000010
00000000
00000000
00001100
,
00001100
00001100
00000000
00010000
00001000
00010000
00001000
00000000
,
00000000
00100000
00010000
00100000
00010000
00000000
00000000
00011000
,
00000000
00011000
00200000
00000000
00000000
00300000
00120000
00000000
,
00000000
00030000
00012000
00000000
00000000
00003000
00002100
00003000
,
00201000
00300000
00110000
00000000
00010000
00000000
00001000
00000000
,
00100000
00010000
00000000
00002000
00103000
00000000
00010000
00000000
,
00010000
00002000
00203000
00300000
00010000
00000000
00020000
00000000
,
00130000
00000000
00002000
00000000
00010000
00000000
00000000
00000000
00020000
00000000
00003000
00000000
00200000
00030000
00000000
00000000
,
01300000
01000000
01010000
00000000
00001000
00000000
00110000
00000000
,
00010000
00100000
01000000
10000000
00100000
00000000
11000000
00000000
,
20000000
01000000
00200000
00000000
00000000
30300000
10010000
00000000
,
01000000
00000000
00100000
00000000
10000000
00000000
00100000
00000000
01000000
00000000
00100000
00010000
10000000
00000000
01000000
00000000
,
00100000
10000000
02020000
00000000
00000000
00000000
00000000
00000000
,
00000000
00000000
00000000
00000000
,
03030000
00010000
00010000
01000000
,
00001000
00100000
00010000
01000000
00100000
01000000
01010000
00000000
,
00001000
00100000
00010000
00000000
00010000
00000000
01001000
00000000
,
00010000
00100000
00010000
01000000
00001000
00010000
01010000
00000000
,
00001000
00010000
00000100
00000000
00000100
00000000
00101000
00000000
,
00010000
00100000
00001000
00010000
00000100
00001000
00100000
00000000
,
00001000
00010000
00011000
00000000
00100000
00000000
00101000
00000000
,
00000100
00010000
00001000
00100000
00000100
00001000
00010100
00000000
,
00000100
00010000
00001000
00000000
00000100
00000000
00010010
00000000
,
00000100
00001000
00000010
00000100
00001000
00010000
00010100
00000000
,
00000010
00001000
00000100
00000000
00000100
00000000
00001010
00000000
,
00000100
00010000
00000010
00000100
00001000
00010000
00010100
00000000
,
00000001
00000100
00000010
00000000
00000001
00000000
00000110
00000000
,
00000001
00001000
00000010
00000100
00000010
00000001
00000010
00001000
,
00002000
00000010
00003000
00000000
00002000
00000010
00003000
00000000
00002000
00000010
00000000
00000000
00000000
00000000
00003000
00000000
00002000
00000010
00000000
00003000
00000000
00000000
00000000
00000000
00000000
00000000
00000000
00000000
00000000
00000000
00000000
00000000
,
00000000
00000000
00000000
00000000
,
00000000
00000000
00001000
00000001
00000100
00000000
00000010
00000000
00001000
00000000
00000010
00000000
00001100
00000000
00000000
00000000
,
00000100
00010000
00000010
00001000
00000100
00001000
00000010
00000000
,
00000100
00010000
00000000
00000000
00001000
00000100
00000010
00000000
,
00000100
00020000
00030000
00002000
00003000
00010000
00000000
00000100
,
00002000
00000000
00000000
00003000
00001100
00000000
00001010
00000000
,
00001000
00100000
00001000
00000100
00001000
00010000
00100000
00000000
,
00010000
00001000
00000000
00000000
00000100
00000000
00001000
00000000
,
00100000
00000000
00000200
00000000
00000000
00000000
00000000
00000000
00000000
00000000
00000000
00000000
00000300
00000000
00010000
00000100
,
00010000
00001000
00010000
00000100
00001000
00010000
00202000
00303000
,
00100000
00010000
00100000
00001000
00010000
00010000
02000000
00000000
,
03200000
02300000
03000000
00000000
00001000
00100000
00020000
00000000
,
00130000
00010000
00000000
00001000
00000000
00010000
00000000
01000000
,
00020000
00000000
00000000
00030000
00000000
00000000
00001000
00000000
00000000
00000000
00010000
00000000
00000000
00000000
00100000
00000000
00000000
00000000
00020000
00000000
00000000
00000000
00000000
00000000
,
00031000
00020000
00000000
00000000
01030000
00020000
00000000
00000000
,
00031000
00010000
00100000
01000000
,
00100000
02000000
00000000
00000000
00000000
03100000
00000000
00010000
,
10000000
00000000
00100000
00010000
01000000
00000000
00100000
00000000
10000000
00000000
01000000
00000000
00200000
00000000
00000000
00000000
,
00000000
00000000
00000000
00000000
,
00000000
00300000
00010000
00000000
01000000
00200000
00000000
00000000
,
00000000
00000000
00000000
20300000
,
00000000
00000000
30100000
00000000
01000000
00020000
00000000
00000000
,
00000000
00000000
00000000
00000000
00000000
00030000
02000000
00000000
,
00000000
00000000
03010000
00000000
00100000
00020000
00000000
00000000
,
00000000
00000000
00000000
00000000
00000000
00000000
00000000
00030000
,
02200000
00000000
00000000
03300000
00000000
00000000
00000000
00000000
00000000
00000000
00000000
00000000
00000000
00000000
00000000
00000000
;
