#TITLE:Arashi no Naka no Koi dakara;
#SUBTITLE:;
#ARTIST:u's;
#TITLETRANSLIT:;
#SUBTITLETRANSLIT:;
#ARTISTTRANSLIT:;
#GENRE:;
#CREDIT:CHMX;
#BANNER:banner.png;
#BACKGROUND:BGI.png;
#LYRICSPATH:;
#CDTITLE:;
#MUSIC:Arashi no Naka no Koi dakara.mp3;
#OFFSET:0.000;
#SAMPLESTART:68.780;
#SAMPLELENGTH:12.000;
#SELECTABLE:YES;
#BPMS:0.000=145.000,159.000=81.000,161.500=145.000;
#STOPS:0.000=0.220
;
#BGCHANGES:0.000=BGA.avi=1.000=0=0=1=StretchNormal====,
99999=-nosongbg-=1.000=0=0=0 // don't automatically add -songbackground-
;
#KEYSOUNDS:;

//---------------dance-single - Blank----------------
#NOTES:
     dance-single:
     Blank:
     Hard:
     8:
     0.558,0.686,0.124,0.479,0.281:
0000
0000
0000
0000
,
0000
0000
0000
0000
0000
0000
0000
0000
0000
0000
0000
0000
0010
0100
0010
0100
,
0010
0000
0100
0010
0100
0010
0100
0000
0000
0000
0000
0000
0100
0010
0100
0010
,
0100
0000
0000
0000
0000
0000
0010
0000
0000
0100
0000
0000
0010
0000
0000
0100
0000
0000
0010
0000
0000
0000
0000
0000
0000
0000
0000
0000
0000
0000
0010
0000
0000
1000
0000
0000
0001
0000
0000
0000
0000
0000
0000
0000
0010
0000
0000
0000
,
0000
1000
0000
0010
0000
0001
0000
0100
0000
0220
0000
0000
,
0000
0000
0000
0000
0330
1000
0020
0000
,
0000
0030
0001
0000
0010
0000
0000
0100
0000
0000
0010
0000
1000
0000
0020
0000
,
0000
0000
0000
0030
0000
0010
0200
0000
,
0300
0000
1000
0000
0010
0000
0000
0001
0000
0000
0010
0000
0100
0000
0020
0000
,
0000
0000
0000
0000
0000
0000
0030
0000
0000
0000
0010
1000
0020
0000
0000
0000
,
0000
0030
0100
0000
0001
0000
0000
0010
0000
0000
1000
0000
0010
0000
2000
0000
,
0000
0000
0000
0000
0000
0000
0000
3000
0000
0000
0100
0001
0200
0000
0000
0000
,
0300
0000
0010
0000
1000
0000
0000
0001
0000
0000
0010
0000
0100
0000
0020
0000
,
0000
0000
0000
0000
0000
0000
0000
0000
0000
0000
0030
0000
0000
0000
0010
1000
,
0010
0100
0001
0010
1000
0100
0200
0000
,
0300
0010
0100
0001
0010
1000
0010
0100
,
0001
0010
1000
0010
1000
0100
2000
0000
,
0000
3000
0010
0000
0100
0000
0010
0000
0001
0000
0010
0000
0100
0000
0010
0000
,
0001
0000
0010
0000
1000
0000
0100
0000
0001
0000
0010
0100
0020
0000
0000
0030
,
0000
0000
0100
0010
0200
0000
0000
0000
0300
0000
1000
0000
0010
0000
0000
0001
,
0000
0000
0010
0000
0200
0000
0000
0000
0000
0300
0010
0000
1000
0000
0000
0010
,
0000
0000
1000
0000
0001
0000
0000
0010
0000
0000
0100
0000
0002
0000
0000
0000
,
0000
0000
0000
0000
0000
0000
0000
0000
0000
0000
0000
0003
0000
0000
0000
0000
,
0000
0000
0000
0000
0010
0000
0000
1000
0000
0000
0010
0000
0100
0000
0000
0000
,
0000
0010
0002
0000
0010
0000
1000
0000
,
0010
0000
0100
0003
0010
0000
0000
1000
0000
0000
0010
0000
2000
0000
0000
0000
,
0000
0010
0001
0000
0010
0000
0100
0000
,
0010
0000
0200
0000
0000
0000
3300
0010
0000
0000
0001
0000
0020
0000
0000
0000
,
0030
0000
0000
0000
1000
0000
0000
0010
0000
0000
0100
0000
0001
0000
0000
0000
,
0010
0100
0000
0010
0000
1000
0010
0000
,
0101
0000
0000
0000
0010
0000
0000
0000
0101
0000
0010
1000
0010
0000
0100
0000
,
0010
0010
0000
0110
0000
0010
1010
0000
,
0000
0000
0000
0000
0000
0000
0000
0000
0000
0000
0000
0000
0000
0000
0001
1000
,
0001
0200
0000
0310
1000
0010
0110
0000
,
0000
0000
0000
0000
0000
0000
0000
0000
0000
0000
0000
0000
0000
0000
0010
1000
,
0010
0200
0000
0310
1000
0001
0202
0303
,
0000
2020
3030
0000
0202
0303
2020
3030
,
0000
0000
0220
0000
0330
0000
0000
0000
2002
0000
3003
0000
0010
0100
0010
0000
,
0000
0000
0010
1000
0010
0000
0000
0000
0001
1000
0001
0000
0000
0000
0010
0000
,
0001
0000
0010
0000
0100
0000
0000
0010
0000
0000
2000
0000
0002
0000
0000
0000
,
0000
0000
0000
0000
0000
3003
0001
0000
0100
0000
1000
0000
0110
0000
0000
0000
,
0000
0000
0100
0001
0100
0001
0100
0001
,
0100
0001
2000
0000
0010
0000
0001
0000
,
0010
0000
0000
3000
1000
0000
0010
0000
1000
0000
0010
0000
1000
0000
0010
0000
,
1000
0010
0002
0000
0010
0000
1000
0000
,
0100
0000
0000
0003
0001
0000
1000
0000
0010
0000
0100
0000
0000
0000
0010
0000
,
0000
0010
1000
0001
0100
0120
0000
1030
,
0010
0000
0100
0010
0001
0000
0010
0000
2000
0000
0010
0000
0000
0000
0002
0000
,
3003
0000
0100
0000
0010
0000
0001
0000
1000
0000
0020
0000
0000
0000
0000
0030
,
0100
1000
0100
0000
0010
0000
0100
0000
0010
0000
0100
0000
0010
0000
0100
0000
,
0010
0100
2000
0000
0010
0000
0001
0000
,
0010
0000
0000
3000
1000
0000
0010
0000
0100
0000
1000
0000
0100
0000
1000
0000
,
0100
0010
0002
0000
0100
0000
1000
0000
,
0010
0000
0000
0003
0002
0000
0000
0000
0003
0000
0002
0000
0003
0000
0002
0000
,
0000
0003
0100
0000
0010
0000
1000
0000
0002
0000
0020
0000
0000
0000
0033
0000
,
0000
0000
0010
0100
2000
0000
0000
3000
0100
0000
0010
0000
1000
0000
0010
0000
,
0100
0001
0200
0000
0010
0300
0020
0000
,
0100
0030
0100
0010
1000
0001
0010
0100
,
0010
0001
1000
0010
1000
0001
0010
0100
,
0010
1000
0001
0010
0100
0010
1000
0001
,
0010
1000
0100
1000
0100
0001
1000
0010
,
0100
0000
0010
1000
0001
0000
0100
0000
0010
0000
1000
0001
1000
0000
0100
0000
,
0010
0000
0001
0000
1000
0000
0000
0001
0000
0000
0100
0000
0002
0000
0000
0000
,
0003
0000
0000
0010
0000
0000
1000
0000
0000
0000
0010
0000
0000
0000
0100
0000
0000
0000
0001
0000
0000
0000
0010
0000
,
0000
0000
0000
0000
0100
0000
0000
0000
0000
0000
0000
0000
0002
0000
0000
0000
0000
0000
0000
0000
0000
0000
0000
0000
0000
0000
0000
0003
0000
0000
0000
0000
0000
0000
0000
0000
0001
0000
0000
0000
1000
0000
0000
0000
0001
0000
0000
0000
,
0100
0000
0000
0000
0010
0000
0000
0000
0100
0000
0000
0000
0020
0000
0000
0000
0000
0000
0000
0000
0000
0000
0000
0000
0030
0000
0000
0000
0000
0000
0200
0000
0000
0000
0000
0000
0000
0000
0000
0000
0000
0000
0000
0000
0000
0300
0000
0000
,
1000
0001
0100
1000
,
0010
0000
0000
0000
0010
0100
0010
0100
0010
0000
0100
0010
0100
0010
0100
0000
,
0000
0000
0000
0000
0010
0100
0010
0100
0010
0000
0100
0010
0100
0010
0100
0000
,
0000
0000
0000
0000
0000
0000
0010
0000
0000
0100
0000
0000
0010
0000
0000
0000
0000
0000
0000
0000
0001
0000
0000
0000
0000
0000
0000
0000
0100
0000
0000
0000
0000
0000
0000
0000
1000
0000
0000
0000
0000
0000
0000
0000
0010
0000
0000
0000
,
0000
0100
0000
0001
0000
0010
0000
1000
0000
0100
0000
0010
,
0000
0000
0100
0000
0000
0000
0000
2002
0000
0000
0000
0000
0000
0000
0000
0000
0000
0000
0000
0000
0000
0000
0000
0000
,
0000
3003
0000
0000
;

//---------------dance-single - Hard----------------
#NOTES:
     dance-single:
     Hard:
     Challenge:
     11:
     0.685,0.689,0.372,0.595,0.405:
0000
0000
0000
0000
,
0000
0000
0000
0000
0000
0000
0000
0000
0000
0000
0000
0000
0010
1000
0010
0100
,
0010
0000
0100
0001
0100
0010
0100
0000
0000
0000
0000
0000
0100
0001
0100
0010
,
0100
0000
0000
0000
0000
0000
0010
0000
0000
1000
0000
0000
0010
0000
0000
0100
0000
0000
0010
0000
0000
0000
0000
0000
0000
0000
0000
0000
0000
0000
0010
0000
0000
1000
0000
0000
0001
0000
0000
0000
0000
0000
0000
0000
0010
0000
0000
0000
,
0000
1000
0000
0010
0000
0001
0000
0100
0000
0220
0000
0000
,
0000
0000
0000
0000
0330
1000
0020
0000
,
0000
0030
0001
0000
0010
0000
0000
0100
0000
0000
0010
0000
1000
0000
0020
0000
,
0000
0000
0030
0200
0320
0230
0320
0000
0030
0000
0000
0000
0000
0000
0000
0010
0000
0000
0200
0000
0000
0000
0000
0000
,
0300
0000
0000
0000
0000
0000
1000
0000
0000
0000
0000
0000
0010
0000
0000
0000
0000
0000
0000
0000
0000
0001
0000
0000
0000
0000
0000
0000
0000
0000
0010
0000
0000
0000
0000
0000
0200
0000
0000
0000
0000
0000
0000
0000
0020
0000
0300
0000
,
0000
0000
0000
0000
0230
0000
0320
0000
0230
0000
0320
0000
0030
0000
0000
0000
0000
0000
0000
0000
0000
0000
0000
0000
0000
0000
0000
0000
0000
0000
0010
0000
0000
1000
0000
0000
0020
0000
0000
0000
0000
0000
0000
0000
0000
0000
0000
0000
,
0000
0030
0100
0000
0001
0000
0000
0010
0000
0000
1000
0000
0010
0000
2000
0000
,
0000
0000
0000
0000
0000
0000
3200
0000
2300
0000
3200
0000
2300
0000
3000
0000
0000
0000
0000
0000
0000
0000
0000
0000
0000
0000
0000
0000
0000
0000
0100
0000
0000
0001
0000
0000
0200
0000
0000
0000
0000
0000
0000
0000
0000
0000
0000
0000
,
0300
0000
0010
0000
1000
0000
0000
0001
0000
0000
0010
0000
0100
0001
0020
0000
,
0000
0030
0020
0130
0020
0000
0000
0030
0020
0031
0010
0000
0000
0000
0010
1000
,
0010
0100
0001
0010
1000
0100
0200
0000
,
0300
0010
0100
0001
0010
1000
0010
0100
,
0001
0010
1000
0010
1000
0100
2000
0000
,
0000
3000
0010
0000
0100
0000
0010
0000
0001
0000
0010
0000
0100
0000
0010
0000
,
0001
0000
0010
0000
1000
0000
0100
0000
0010
0000
0001
1000
0001
0000
0010
0000
,
0100
0000
1000
0001
1000
0000
0010
0000
0100
0000
1010
0000
0110
0000
0000
1001
,
0000
0000
0110
0000
0201
0000
0000
0000
0000
0300
0010
0000
1100
0000
0000
0010
,
0000
0000
1000
0000
0011
0000
0000
0010
0000
0000
0100
0000
1002
0000
0000
0000
,
0000
0000
0000
0000
0000
0000
0000
0000
0000
0000
0000
0003
0001
0000
0010
0000
,
0100
0000
1000
0000
0110
0000
0000
1100
0000
0000
1010
0000
1100
0000
0000
0000
,
0000
0010
0002
0000
0010
0000
1000
0000
,
0010
0000
0100
0003
0010
0000
0000
1000
0000
0000
0010
0000
2000
0000
0000
0000
,
0000
0010
0001
0000
0010
0000
0100
0000
,
0010
0000
0200
0000
0000
0000
3300
0010
0000
0000
0001
0000
0020
0000
0000
0000
,
0030
0000
0000
0000
1000
0000
0000
0010
0000
0000
0100
0010
0001
0000
0100
0000
,
0010
0100
0000
0010
0000
1000
0110
0000
,
0101
0000
0000
0000
0110
0000
0000
0000
0101
0000
0010
1000
0010
0000
0100
0000
,
0110
0000
0110
0000
0000
0000
0110
0000
0000
0000
0010
0100
1010
0000
0000
0000
,
0000
0000
0000
0000
0000
0000
0000
0000
0000
0000
0000
0000
0000
0000
0001
1000
,
0001
0200
0000
0310
1000
0010
0110
0000
,
0000
0000
0000
0000
0000
0000
0000
0000
0000
0000
0000
0000
0000
0000
0010
1000
,
0010
0200
0000
0310
1000
0001
0202
0303
,
0000
2020
3030
0000
0202
0303
2020
3030
,
0000
0000
0220
0000
0330
0000
0000
0000
2002
0000
0000
3003
0010
0100
0010
0000
,
0000
0000
0010
1000
0010
0000
0000
0000
0001
1000
0002
0000
0003
0000
0100
0000
,
0010
0000
0001
0000
0010
0000
0000
0100
0000
0000
2000
0000
0002
0000
0000
0000
,
0000
0000
0000
0000
0000
3003
0001
0000
0100
0000
1000
0000
0110
0000
0000
0000
,
0000
0000
0000
0000
0100
0000
0100
1000
0100
0000
0100
0010
0100
0000
0100
1000
,
0100
0000
0100
0010
2000
0000
0000
0000
0010
0000
0000
0000
0001
0000
0000
0000
,
0010
0000
0000
3000
0100
0000
0100
0010
0100
0000
0100
1000
0100
0000
0100
0001
,
0100
0000
0100
0010
0002
0000
0000
0000
0010
0000
0000
0000
1000
0000
0000
0000
,
0100
0000
0000
0003
0001
0000
1000
0000
0010
0000
0100
0000
0000
0000
0010
0000
,
0000
0010
1000
0001
0100
0120
0000
1030
,
0010
0000
0100
0010
0001
0000
0010
0100
1000
0000
0100
0010
0001
0000
0010
0100
,
1000
0000
0110
0000
0010
0000
0101
0000
1000
0000
0120
0000
0000
0000
0000
0030
,
0100
1000
0010
0000
0010
0000
0010
0001
0010
0000
0010
1000
0010
0000
0010
0001
,
0010
0000
0010
0100
2000
0000
0000
0000
0010
0000
0000
0000
0001
0000
0000
0000
,
0010
0000
0000
3000
1000
0000
0100
1000
0100
0000
0100
0010
0100
0000
0100
1000
,
0100
0000
0100
0010
0002
0000
0000
0000
0100
0000
0000
0000
1000
0000
0000
0000
,
0010
0000
0000
0003
0001
0000
0001
0100
0001
0000
0020
0000
0000
0030
0002
0000
,
0000
0000
0103
0000
0010
0000
1000
0100
0002
0000
0020
0000
0000
0000
0033
0000
,
0010
0000
0010
0100
2000
0000
0000
3000
0010
0000
0200
0000
0000
0300
0020
0000
,
0000
0030
1000
0000
0002
0000
0000
0000
1000
0000
0000
0003
2000
0000
0000
0000
,
0001
3000
0010
0000
0100
0000
0010
0000
1000
0000
0001
0000
0010
0000
0100
0000
,
0010
0001
1000
0010
1000
0001
0010
0100
,
0010
1000
0001
0010
0100
0010
1000
0001
,
0010
1000
0100
1000
0100
0001
1000
0010
,
0100
0000
0010
1000
0001
0000
0110
0000
0110
0000
1000
0001
1000
0000
0110
0000
,
0110
0000
0001
0000
1001
0000
0000
0011
0000
0000
0110
0000
0102
0000
0000
0000
,
0003
0010
1000
0010
0100
0010
0001
1000
,
0010
0000
0000
0100
0000
0000
0002
0000
0000
0010
0000
0000
0100
0000
0000
0013
0000
0000
0001
0000
1000
0000
0001
0000
,
0100
0000
0010
0000
0100
0000
0020
0000
0000
0000
0000
0000
0030
0000
0000
0200
0000
0000
0010
0000
0000
0310
0000
0000
,
1000
1000
0001
0000
0100
0000
1000
0000
,
0010
0000
0000
0000
0010
1000
0010
0100
0010
0000
0100
0001
0100
0010
0100
0000
,
0000
0000
0000
0000
0010
1000
0010
0100
0010
0000
0100
0010
0100
0001
0100
0000
,
0000
0000
0000
0000
0000
0000
0010
0000
0000
0100
0000
0000
0010
0000
0000
0000
0000
0000
0000
0000
0001
0000
0000
0000
0000
0000
0000
0000
0100
0000
0000
0000
0000
0000
0000
0000
1100
0000
0000
0000
0000
0000
0000
0000
0010
0000
0000
0000
,
0000
0100
0000
0101
0000
0010
0000
1000
0000
0110
0000
0010
,
0000
0000
0100
0000
0000
0000
0000
2002
0000
0000
0000
0000
0000
0000
0000
0000
0000
0000
0000
0000
0000
0000
0000
0000
,
0000
0000
3003
0000
;

//---------------dance-single - Hard----------------
#NOTES:
     dance-single:
     Hard:
     Medium:
     7:
     0.473,0.478,0.033,0.504,0.198:
0000
0000
0000
0000
,
0000
0000
0000
0200
,
0300
0100
0000
0000
0000
0000
0020
0000
,
0030
0000
0000
0010
0000
0000
0000
0000
0000
0000
0000
0000
0000
0000
0000
1000
0000
0000
0001
0000
0000
0000
0010
0000
,
0000
1000
0000
0010
0000
0001
0000
0100
0000
0020
0000
0000
,
0000
0000
0000
0000
0030
1000
0020
0000
,
0000
0030
0001
0000
0010
0000
0000
0100
0000
0000
0010
0000
1000
0000
0020
0000
,
0000
0000
0000
0030
0000
0010
0200
0000
,
0300
0000
1000
0000
0010
0000
0000
0001
0000
0000
0010
0000
0100
0000
0020
0000
,
0000
0000
0000
0000
0000
0000
0030
0000
0000
0000
0010
1000
0020
0000
0000
0000
,
0000
0030
0100
0000
0001
0000
0000
0010
0000
0000
1000
0000
0010
0000
2000
0000
,
0000
0000
0000
0000
0000
0000
0000
3000
0000
0000
0000
0000
0200
0000
0000
0000
,
0300
0000
0010
0000
1000
0000
0000
0001
0000
0000
0010
0000
0100
0000
0020
0000
,
0000
0000
0000
0000
0000
0030
0000
1000
,
0010
0100
0001
0010
1000
0100
0200
0000
,
0300
0010
0100
0001
0010
1000
0020
0000
,
0001
0000
1000
0030
0001
0100
2000
0000
,
0000
3000
0010
0000
0100
0000
0010
0000
0001
0000
0010
0000
0200
0000
0000
0000
,
0001
0000
0000
0000
1000
0000
0000
0000
0301
0000
0010
0000
0020
0000
0000
0030
,
0000
0000
0100
0000
0200
0000
0000
0000
0300
0000
1000
0000
0010
0000
0000
0001
,
0000
0000
0010
0000
0200
0000
0000
0000
0000
0300
0010
0000
1000
0000
0000
0010
,
0000
0000
1000
0000
0001
0000
0000
0010
0000
0000
0100
0000
0002
0000
0000
0000
,
0000
0000
0000
0000
0000
0000
0000
0000
0000
0000
0000
0003
0000
0000
0000
0000
,
0000
0000
0000
0000
0010
0000
0000
1000
0000
0000
0010
0000
0100
0000
0000
0000
,
0000
0010
0002
0000
0010
0000
1000
0000
,
0010
0000
0100
0003
0010
0000
0000
1000
0000
0000
0010
0000
2000
0000
0000
0000
,
0000
0010
0001
0000
0010
0000
0100
0000
,
0010
0000
0200
0000
0000
0000
3300
0010
0000
0000
0001
0000
0020
0000
0000
0000
,
0030
0000
0000
0000
1000
0000
0000
0010
0000
0000
0100
0000
0001
0000
0000
0000
,
0010
0100
0000
0010
0000
1000
0010
0000
,
0101
0000
0010
0000
0101
1000
0010
0100
,
0010
0010
0000
0100
0000
0010
0010
0000
,
0000
0000
0000
0000
0000
0000
0000
1000
,
0001
0200
0000
0310
1000
0010
0100
0000
,
0000
0000
0000
0000
0000
0000
0000
0010
,
0010
0200
0000
0310
1000
0001
0200
0300
,
0000
0020
0030
0000
0002
0003
2000
3000
,
0000
0000
0020
0000
0030
0000
0000
0000
0002
0000
0003
0000
0001
1000
0001
0000
,
0000
0000
0001
0100
0001
0000
0000
0000
0001
0010
0002
0000
0003
0000
0010
0000
,
0001
0000
0010
0000
0100
0000
0000
0010
0000
0000
2000
0000
0002
0000
0000
0000
,
0000
0000
0000
0000
0000
3003
0001
0000
0100
0000
1000
0000
0110
0000
0000
0000
,
0000
0000
0100
0001
0100
0001
0100
0010
,
0100
0010
2000
0000
0010
0000
0001
0000
,
0010
0000
0000
3000
1000
0000
0010
0000
1000
0000
0100
0000
1000
0000
0010
0000
,
1000
0010
0002
0000
0010
0000
1000
0000
,
0100
0000
0000
0003
0001
0000
1000
0000
0010
0000
0100
0000
0000
0000
0010
0000
,
0000
0010
1000
0001
0100
0020
0000
1030
,
0010
0100
0002
0003
1000
0010
0000
0002
,
0003
0000
0100
0000
0010
0000
0001
0000
1000
0000
0020
0000
0000
0000
0000
0030
,
0100
1000
0010
0000
0001
0000
0100
0000
0001
0000
0010
0000
0001
0000
0100
0000
,
0001
0010
2000
0000
0010
0000
0001
0000
,
0010
0000
0000
3000
1000
0000
0100
0000
0010
0000
1000
0000
0010
0000
0100
0000
,
0010
1000
0002
0000
0100
0000
1000
0000
,
0010
0000
0000
0003
0002
0000
0000
0000
0003
0002
0000
0000
0003
0000
0002
0000
,
0000
0103
0010
1000
0002
0020
0000
0033
,
0000
0000
0010
0000
2000
0000
0000
3010
0000
0200
0000
0000
0000
0310
0000
0000
,
0000
1000
0000
0002
0000
0000
0000
0000
0000
0000
0000
2003
0000
0000
0000
0000
,
0000
3000
0010
0000
0100
0000
0010
0000
1000
0000
0001
0000
0010
0000
0100
0000
,
0010
0001
0200
0000
1000
0000
0010
0000
,
1300
0010
0001
0010
0100
0010
1000
0001
,
0010
0000
1000
0000
0200
0000
0000
0000
0001
0000
0000
0000
1000
0000
0000
0300
,
0100
0000
0001
1000
0001
0000
0000
0000
0000
0000
1000
0001
1000
0000
0000
0000
,
0000
0000
0001
0000
1000
0000
0000
0001
0000
0000
0100
0000
0002
0000
0000
0000
,
0003
0000
0000
0010
0000
0000
1000
0000
0000
0000
0010
0000
0000
0000
0100
0000
0000
0000
0001
0000
0000
0000
0010
0000
,
0000
0000
0000
0000
0100
0000
0000
0000
0000
0000
0000
0000
0002
0000
0000
0000
0000
0000
0000
0000
0000
0000
0000
0000
0000
0000
0000
0003
0000
0000
0000
0000
0000
0000
0000
0000
0001
0000
0000
0000
1000
0000
0000
0000
0001
0000
0000
0000
,
0100
0000
0000
0000
0010
0000
0000
0000
0100
0000
0000
0000
0020
0000
0000
0000
0000
0000
0000
0000
0000
0000
0000
0000
0030
0000
0000
0000
0000
0000
0200
0000
0000
0000
0000
0000
0000
0000
0000
0000
0000
0000
0000
0000
0000
0300
0000
0000
,
1000
0001
0100
1000
,
0010
0000
0000
0000
0020
0000
0000
0000
0000
0030
0010
0000
0000
0000
0000
0000
,
0000
0000
0000
0000
0200
0000
0000
0000
0000
0300
0100
0000
0000
0000
0000
0000
,
0000
0000
0000
1000
0000
0000
0010
0000
0000
0000
0001
0000
0000
0000
0100
0000
0000
0000
1000
0000
0000
0000
0010
0000
,
0000
0100
0000
0001
0000
0010
0000
1000
0000
0100
0000
0010
,
0000
0000
0100
0000
0000
0000
0000
2002
0000
0000
0000
0000
0000
0000
0000
0000
0000
0000
0000
0000
0000
0000
0000
0000
,
0000
3003
0000
0000
;

//---------------dance-single - Medium----------------
#NOTES:
     dance-single:
     Medium:
     Easy:
     5:
     0.309,0.358,0.008,0.487,0.066:
0000
0000
0000
0000
,
0000
0000
0000
0200
,
0300
0100
0000
0000
0000
0000
0020
0000
,
0030
0010
0000
0000
0000
0000
0001
0000
,
0000
1000
0000
0020
,
0000
0000
0030
2000
,
0000
0000
0000
3002
,
0000
0000
0000
0203
,
0000
0000
0000
0320
,
0000
0000
0000
2030
,
0000
0000
0000
0000
0000
3000
0020
0000
,
0000
0000
0000
0230
,
0000
0000
0000
0320
,
0000
0000
0000
0000
0000
0030
0000
0000
,
0010
0001
1000
0200
,
0310
0100
0010
0020
,
0001
0000
1000
0030
0001
0000
2000
0000
,
0010
3000
0000
0000
0100
0000
0000
0000
0001
0000
0000
0000
0200
0000
0000
0000
,
0001
0000
1000
0000
0301
0020
0000
0030
,
0000
0200
0000
0300
0000
0000
0010
0000
,
0000
0000
0000
0000
0200
0000
0000
0000
0000
0300
0000
0000
1000
0000
0000
0000
,
0000
0001
0000
0002
,
0000
0000
0000
0000
0000
0000
0000
0000
0000
0000
0000
0003
0000
0000
0000
0000
,
0000
0010
0000
0100
,
0000
0002
0010
1000
,
0100
0000
0000
0003
0020
0000
0000
0000
0000
0000
0000
0000
2030
0000
0000
0000
,
0000
0001
0010
0100
,
0010
0000
0100
3000
0010
0000
0020
0000
,
0030
1000
0000
0001
,
0000
1000
0000
0010
,
0001
0010
0001
0010
,
0010
0010
0000
0100
0000
0010
0010
0000
,
0000
0000
0000
0000
0000
0000
0000
0001
,
0000
0200
0000
0300
1000
0010
0100
0000
,
0000
0000
0000
0000
0000
0000
0000
0010
,
0000
0200
0000
0310
1000
0001
0200
0300
,
0000
0020
0030
0000
0002
0003
2000
3000
,
0000
0020
0030
0000
0002
0003
0001
0000
,
0000
0001
0000
0000
0001
0000
0000
0010
,
0000
0000
0010
0000
0000
0000
0000
0100
0000
0000
2000
0000
0002
0000
0000
0000
,
0000
0000
0000
0000
0000
3003
0001
0000
0000
0000
0000
0000
0110
0000
0000
0000
,
0000
0100
0010
0100
,
0010
2000
0010
0001
,
0010
0000
0000
3000
0100
0000
0000
0000
1000
0000
0000
0000
0100
0000
0000
0000
,
1000
0002
0010
1000
,
0100
0000
0000
0003
0001
0000
0000
0000
0010
0000
0000
0000
0100
0000
0000
0000
,
0010
0000
1000
0000
0100
0020
0000
1030
,
0010
0001
2000
0100
,
3001
0000
0000
0000
0010
0000
0000
0000
1000
0000
0020
0000
0000
0000
0000
0030
,
0100
0001
0100
0001
,
0010
2000
0010
0001
,
0010
0000
0000
3000
1000
0000
0000
0000
0010
0000
0000
0000
0100
0000
0000
0000
,
0010
0002
0100
1000
,
0010
0000
0000
0003
0002
0000
0000
0000
0003
0002
0000
0000
0003
0000
0002
0000
,
0000
0003
0010
0000
0002
0020
0000
0033
,
0000
0000
0000
0000
2000
0000
0000
3000
0000
0200
0000
0000
0000
0300
0000
0000
,
0000
1000
0000
0002
0000
0000
0000
0000
0000
0000
0000
2003
0000
0000
0000
0000
,
0000
3000
0000
0000
0100
0000
0000
0000
1000
0000
0000
0000
0010
0000
0000
0000
,
0010
0200
1000
0010
,
1300
0001
0100
1000
,
0010
0000
0000
0000
0200
0000
0000
0000
0001
0000
0000
0000
1000
0000
0000
0300
,
0000
0001
0000
0000
0000
1000
0000
0000
,
0000
0000
0000
0000
1000
0000
0000
0001
0000
0000
0100
0000
0002
0000
0000
0000
,
0003
0020
0000
2030
,
0000
0000
0000
0000
3002
0000
0000
0000
0000
0003
0000
0000
0001
0000
0000
0000
,
0100
0000
0000
0000
0020
0000
0000
0000
0030
0000
0200
0000
0000
0000
0000
0300
,
1000
0001
0100
1000
,
0010
0020
0000
0000
,
0000
0000
0000
0000
,
0030
0000
0000
0010
0000
0001
0000
0100
0000
1000
0000
0010
,
0000
0100
0000
0001
0000
0010
0000
1000
0000
0100
0000
0010
,
0000
0000
0100
0000
0000
0000
0000
0002
0000
0000
0000
0000
0000
0000
0000
0000
0000
0000
0000
0000
0000
0000
0000
0000
,
0000
0003
0000
0000
;

//---------------dance-single - Blank----------------
#NOTES:
     dance-single:
     Blank:
     Beginner:
     4:
     0.170,0.238,0.000,0.174,0.000:
0000
0000
0000
0000
,
0000
0000
0000
2000
,
0000
3000
0000
0000
0000
0000
0002
0000
,
0000
0003
0000
0000
0000
0000
2000
0000
,
0000
0000
0000
3020
,
0000
0000
0000
0030
,
0000
0000
0000
0000
,
0000
1000
0000
0000
,
0000
0000
0000
0000
,
0000
0001
0000
0000
,
0000
0000
0000
0000
,
0000
0100
0000
0000
,
0000
0000
0000
0002
,
0000
0000
0000
0000
,
0003
0000
0000
0001
,
1000
0000
0001
0000
,
0100
0000
0010
0001
,
0010
0000
0100
0000
,
1000
0000
0100
0010
,
0001
0000
0100
1000
,
0000
0010
0000
0020
,
0000
2030
0000
3020
,
0000
0000
0000
0030
,
0000
0000
0000
2000
,
0000
0000
0000
0000
0000
3000
0000
0000
,
0000
0000
0000
0002
,
0000
0000
0003
0000
,
0000
0000
0000
0200
,
0000
0000
0000
0300
0000
0000
0000
0000
,
0000
0001
0000
1000
,
0001
1000
0001
1000
,
0001
0010
0000
0020
,
0030
0000
0000
0000
,
2000
0000
0000
0000
0000
3000
0010
0000
,
0000
0000
0000
0000
,
0002
0000
0000
0000
0000
0003
0010
0000
,
0000
1000
0000
0000
0001
0000
0100
0000
,
0000
0010
0000
0000
0100
0000
0020
0000
,
0000
0000
0000
0030
,
0000
1000
0000
0002
,
0000
0000
0003
0001
0000
0000
0001
0000
,
0000
1000
1000
0001
,
0001
0010
0000
1000
,
0000
0001
0001
1000
,
1000
0010
0000
0100
,
0000
0001
0001
1000
,
1000
0010
0000
0100
,
0000
0001
0001
0100
,
0100
0010
0000
0001
,
0000
0001
0001
1000
,
1000
0010
0000
0001
,
0000
0100
0100
0010
,
0010
1000
0000
0010
,
0000
0000
0100
0000
0000
0100
0000
0000
,
0000
0000
0010
0000
0000
0010
0000
0000
,
0000
1000
0000
0001
,
0000
1000
0000
0010
,
0000
0100
0100
0010
,
0010
1000
0000
0001
,
0000
0100
0100
0001
,
0001
1000
0000
0010
,
0000
0100
0000
0001
,
0000
1000
0000
0010
,
0000
0100
0000
0010
,
0000
2000
0000
0000
,
0000
3020
0000
0000
,
0000
0030
0000
0000
0000
0000
0000
0000
,
0000
0000
1000
0000
0000
0001
0000
0000
,
0000
0000
1000
0000
0000
0001
0000
0000
,
0000
0200
0000
0000
,
0000
0320
0000
0000
,
0000
0230
0000
0000
,
0000
0300
0000
0000
0000
0000
0000
0000
;
