#TITLE:Angelic Angel;
#SUBTITLE:;
#ARTIST:u's;
#TITLETRANSLIT:;
#SUBTITLETRANSLIT:;
#ARTISTTRANSLIT:;
#GENRE:;
#CREDIT:CHMEX;
#BANNER:angelic angelba.jpg;
#BACKGROUND:BGI.jpg;
#LYRICSPATH:Angelic Angel.lrc;
#CDTITLE:;
#MUSIC:Angelic Angel.mp3;
#OFFSET:0.000;
#SAMPLESTART:66.680;
#SAMPLELENGTH:12.000;
#SELECTABLE:YES;
#BPMS:0.000=160.000;
#STOPS:0.000=0.220
;
#BGCHANGES:0.000=Angelic Angel.avi=1.000=1=0=1=StretchNormal==CrossFade==,
99999=-nosongbg-=1.000=0=0=0 // don't automatically add -songbackground-
;
#KEYSOUNDS:;

//---------------dance-single - step clap----------------
#NOTES:
     dance-single:
     step clap:
     Hard:
     8:
     0.677,0.997,0.649,0.731,0.041:
0000
0000
0000
0000
,
0000
0000
0000
0000
0000
0100
0010
0000
,
0110
0000
0000
0020
0000
0230
0000
2300
,
0000
0000
0000
0000
0000
0000
0000
0000
0000
3000
0000
0000
0100
0000
0000
0000
,
0020
0000
0130
0020
0030
0100
0000
0002
,
0003
0000
0100
0000
1000
0000
0100
0000
0010
0000
0100
0000
0010
0000
0001
1000
,
0010
0100
0010
0000
0100
0010
0100
0000
,
0010
0100
0010
0000
1000
0010
0100
0000
,
0100
0001
0100
0000
0100
0010
0100
0220
,
0000
0000
0000
0000
0000
0000
0000
0030
0000
0000
0020
0000
0030
0000
0020
0000
,
0030
0010
0010
0310
0110
0000
1100
0000
,
1001
0000
0010
0100
2000
0000
3100
0020
,
0000
0130
0000
0002
0000
0003
0100
0010
,
0100
0000
1000
0200
0300
0010
1000
0110
,
0000
0010
0001
0010
1100
0000
0220
0330
,
0000
0000
0000
0000
0001
0000
0010
0000
0100
0000
0000
0000
1000
0000
0410
0300
,
0000
0000
0001
0020
0000
0130
0010
0100
,
2000
0000
0000
3000
0000
0010
0100
0200
,
0000
0000
0310
0000
0001
0000
0010
0000
0000
0000
0100
0000
1000
0000
0010
0001
,
0100
0000
0001
0020
0100
0030
2000
0100
,
3000
0000
0010
0000
0000
0000
0200
0000
0000
0300
0000
0000
0001
0000
0010
0000
,
0200
0000
0300
0000
0010
0000
0200
0000
0000
0300
0010
0000
0001
0000
0110
0000
,
0000
0000
0001
0000
0010
0000
0100
0000
1100
0000
0000
0000
0044
0033
0000
0000
,
0000
0000
0100
1000
0010
0000
0001
0020
,
0030
0000
0010
0002
0003
0001
0010
0100
,
0020
0000
0000
0000
0000
0030
0000
0000
0000
0000
1000
0000
0010
0000
0210
0000
,
0000
0000
0300
0010
,
0001
0000
1000
0110
0000
0001
0110
0000
,
0000
0000
2000
0000
3200
0000
0320
0030
,
0002
0003
1000
0110
0000
0001
0110
0000
,
0000
0000
2000
3000
0100
0020
0000
0030
,
0002
0000
0013
0200
0000
0300
0010
0200
,
0000
0000
1300
0010
0000
0000
0100
0000
0010
0000
0002
0000
0010
0000
0200
0000
,
0000
0000
0000
0303
0010
0100
0010
0202
,
0303
0000
1000
0000
0100
0000
0220
0000
0330
0000
0100
0000
0100
0001
0010
0000
,
0200
0000
0000
0300
0100
0000
2000
0000
0000
0000
3100
0000
0010
0000
0000
0000
,
0000
0100
0001
0010
,
1100
0000
0100
0110
0000
0010
0200
0000
,
0300
2000
0000
3000
0002
0000
0203
0000
,
2300
0000
3010
0200
0000
0300
0000
0002
,
0000
0023
0000
0230
0000
0300
2020
3030
,
0100
0000
0020
0031
0010
0100
1000
0200
,
0300
0000
0000
0020
0030
0001
0010
0100
,
0010
0101
0100
1001
0100
1001
0100
0220
,
0330
0220
0330
0220
0330
0010
0200
0300
,
1001
0000
1000
0010
0000
0100
0000
0002
,
0003
0101
0010
0100
0100
0010
0100
1000
,
0110
0000
0001
0110
0000
1000
0100
0110
,
0000
0001
0010
1000
0110
0000
1001
0000
,
0202
0303
1000
0000
0001
0000
0100
0010
,
0000
0010
0100
2000
0000
3000
0000
0010
,
0100
0000
1000
0100
0000
0010
0000
0001
,
0010
0000
0100
0000
0010
0000
0100
0000
0000
0000
1000
0000
0001
1000
0010
1000
,
0100
0000
0010
1000
0000
0100
0000
0020
,
0030
0110
0100
0001
0010
0010
0100
0010
,
0011
0000
0010
1100
0000
0100
1000
0110
,
0000
0001
0010
0100
1001
0000
0110
0000
,
0202
0303
0020
0030
0200
0300
2000
3100
,
0000
0020
0000
0032
0000
0003
0000
0010
,
0100
0000
0100
0002
0000
0003
0000
0010
,
0000
0000
0000
0100
0000
0000
0000
0000
0000
0020
0000
0000
0000
0000
0000
0000
0000
0000
0000
0000
0030
0000
0000
0000
,
0110
0010
0110
0010
0110
0100
0101
0001
,
0101
0001
0101
0001
0110
0010
0110
0010
,
0110
0010
1010
0010
1010
0010
1010
0220
,
0330
0000
0100
0000
1000
0000
0001
0100
1000
0100
1000
0010
1000
0000
1000
0010
,
1000
0100
1100
0010
0110
0010
0110
0010
,
0110
0001
0011
0001
0011
0010
1010
0010
,
1001
1001
1001
1001
1001
1001
1001
2002
,
3003
0000
0000
0000
0000
1000
0110
0000
,
0010
0000
1000
0000
0010
0001
0100
0000
,
0010
0000
1000
0000
0100
0010
0100
0000
,
0001
0000
0010
0000
0100
1000
0100
0000
,
0010
0000
0001
0000
0010
0100
0010
0000
,
0010
0000
0100
0000
0100
1000
0010
0000
,
0100
0000
0010
0000
0100
1000
0010
0000
,
0010
0000
0001
0000
0100
0010
1000
0010
,
0000
0000
0000
0000
0000
0000
0110
0000
0000
0000
0000
0000
0110
0000
0000
0000
0000
0000
2010
0000
0000
0000
0000
0000
0000
0000
0000
3000
0000
0000
1010
0000
0000
0000
0000
0000
0120
0000
0000
0000
0000
0000
0000
0000
0030
0000
0000
0000
,
0120
0000
0001
0000
0001
0000
0000
0001
,
0000
0001
0000
0001
0000
0000
0000
0000
,
0100
0000
0100
0000
0100
0000
0000
0100
,
0000
0000
0100
0000
0000
0000
0100
0000
0030
0000
0100
0000
0001
0000
0202
0303
;

//---------------dance-single - Hard----------------
#NOTES:
     dance-single:
     Hard:
     Challenge:
     12:
     0.893,1.000,0.854,0.863,0.197:
0000
0000
0000
0000
,
0000
0000
0000
0000
0000
0100
0110
0000
,
0210
0000
0000
0000
0000
0000
0320
0000
0000
0030
0200
0000
0000
0000
2310
0000
,
0000
0000
0000
0000
3000
0000
1000
0001
1000
0000
0100
0000
0010
0000
0100
0000
,
1020
0000
0130
0020
0030
0100
0000
2000
,
0000
3000
0100
0000
1000
0000
1100
0000
1010
0000
1001
0000
0100
0000
1000
0100
,
1000
0000
0100
0000
1000
0000
0010
1000
0100
0000
0010
0000
1000
0000
0010
0000
,
0100
0000
0001
0000
0100
0000
0010
1000
0010
0000
0100
0000
0010
0000
1000
0000
,
0001
0000
0100
0000
0010
0000
0100
1000
0100
0000
0010
0000
1000
0000
0220
0000
,
0000
0000
0000
0000
0030
0020
0030
0020
,
0030
0000
0000
0000
0000
0000
0010
0000
0000
0000
0000
0000
0010
0000
0000
0000
0000
0000
0310
0000
0000
0000
0000
0000
0100
0010
0000
0000
0000
0000
0000
0000
0000
0000
0000
0001
0100
0000
0000
0000
0000
0000
0000
0000
0000
0000
0000
0000
,
1100
0000
0010
0100
2000
0000
3100
0002
,
0000
0103
0000
0200
0000
0300
1000
0010
,
0100
0000
1000
0200
0000
0300
0010
1000
,
0100
0010
0001
0010
1100
0000
0220
0000
,
0330
0000
0100
0001
0010
0000
0010
0210
,
0300
0000
0001
0020
0000
0130
0100
0010
,
0200
0000
0000
0300
0000
0010
0100
2200
,
3300
0000
0100
0000
0001
0000
0110
0000
0000
0000
0010
0000
1000
0000
0010
1000
,
0100
0000
0000
0000
0001
0000
0010
0000
0020
0000
0030
0000
2000
0000
0020
0030
,
3000
1100
0000
0020
0030
0000
0010
0100
,
2000
3000
0010
0200
0300
0010
0001
0110
,
0100
0000
0001
0000
0010
0000
0100
0000
1100
0000
0000
0000
0044
0033
0000
0000
,
0000
0000
0100
1000
0010
0000
0001
0020
,
0030
0000
0010
0002
0003
0001
0010
0100
,
0020
0000
0000
0030
0000
1000
0010
0220
,
0330
0000
0000
0000
0100
0000
0000
0000
0010
0000
0000
0001
0000
1000
0001
0000
1000
0000
0001
0000
0100
0000
0010
0000
0100
0000
0000
0000
0001
0000
0000
0000
,
1100
0000
0100
1100
0000
0010
0011
0000
,
0100
0000
2000
0000
0100
3000
0200
0000
0010
0000
0301
0000
0012
0000
0003
0000
,
0110
0000
0000
0000
0010
0000
1100
0000
0000
0000
0010
0000
0202
0303
0000
0000
,
0000
1000
1000
0110
0010
0110
0010
0010
,
0404
0303
0000
0000
0010
0000
0200
0000
0000
0000
0300
0000
1000
0000
0200
0000
,
0000
0000
1300
0010
0000
0000
0100
0000
0010
0000
0002
0000
0010
0000
2000
0000
,
0000
0000
0000
3003
0010
0100
0010
0202
,
0303
0000
1000
0000
0100
0000
0220
0000
0330
0000
0100
0000
0100
0001
0010
0000
,
0200
0000
0000
0300
0100
0000
2010
0000
0000
0000
3100
0000
1010
0000
0000
0000
,
0100
1100
0100
0000
0001
0110
0010
0000
,
2020
3030
0100
0220
0330
0010
0220
0000
,
0330
0000
2020
0000
3030
0000
0100
0001
0100
0000
0110
0000
0100
0000
1100
0000
,
0100
0100
0020
0100
0100
0130
0002
0100
,
0023
1030
0200
0010
0310
0010
2020
3030
,
2200
3300
0200
0301
0010
0100
1000
0200
,
0300
0000
0000
0020
0030
0010
0100
1010
,
1000
0000
0101
0000
0010
0000
0100
0001
0010
0000
0101
0000
0100
0000
0220
0000
,
0330
2002
3003
0220
0330
0010
0200
0300
,
1001
0000
0000
0000
0010
0000
1000
0001
0100
0000
0010
0000
1000
0000
0100
0000
,
0010
0000
0010
0000
0100
0000
0001
1000
0100
0000
0001
1000
0010
0000
0110
0000
,
1000
0010
0110
0001
0100
0001
0010
0110
,
0100
1000
0100
0001
0110
0100
1010
0000
,
0220
0330
1000
0010
0001
1000
0100
0010
,
0100
0010
0100
1000
0100
0010
0100
0010
,
0101
0001
1000
0100
0010
0010
0100
0001
,
0010
0000
0110
0000
1010
0000
0010
0000
0100
0000
0001
0000
1000
0010
1000
0010
,
1000
0000
0100
0000
0001
0000
0010
1000
0010
0000
0100
0000
0100
0000
0010
0000
,
1000
0000
0010
0001
0100
0000
0010
1000
0001
0000
0010
0001
1000
0000
0001
0000
,
0110
0100
1000
0110
0010
0100
1000
0110
,
0010
0001
0010
0100
1001
0100
0110
0010
,
2002
3003
2000
3001
0002
1003
0200
0001
,
0320
1000
0230
0001
0302
0010
0103
1000
,
0010
1000
0100
0002
0010
0103
0010
0101
,
0010
0000
1000
0000
0100
0000
0220
0000
0330
0000
0010
1000
0010
1000
0010
0000
,
1010
0010
0110
0010
0110
0010
0101
0001
,
0101
0000
0001
0001
0101
0000
0001
0001
0101
0000
0010
0010
0110
0000
0010
0000
,
0110
0010
1010
0010
1010
0010
1010
0220
,
0330
0000
0100
0000
1000
0000
0001
0100
1000
0100
1000
0010
1000
0000
1000
0010
,
1000
1000
1100
1000
1010
1000
1010
1000
,
1010
0010
0011
0010
0011
0010
1001
0110
,
0011
1100
0101
0101
1010
1010
1001
2002
,
3003
0000
0000
0000
0000
1100
0010
0000
,
0010
0000
0000
0000
1000
0000
0100
0001
0010
0000
0010
0000
0100
0000
0001
0000
,
0010
0000
0010
0000
1000
0000
1000
0001
0010
0000
0010
0000
0100
0000
0010
0000
,
0010
0000
0010
0000
1000
0000
0100
0010
0001
0000
0010
0000
0100
0000
0010
0000
,
0010
0000
0001
0000
1000
0000
0010
1000
0010
0000
0010
0000
0201
0000
0001
0300
,
0010
0000
0010
0000
1000
0000
0010
1000
0001
0000
0010
0000
0100
0000
0010
0000
,
1000
0000
0100
0000
1000
0000
0010
0100
0010
0000
0001
0000
1000
0000
0010
0000
,
0100
0000
0010
0000
1000
0000
0001
0100
1000
0000
0010
0000
1000
0000
2002
0000
,
3003
0000
0020
0030
0220
0330
0020
0000
0030
0000
2020
3030
0220
0000
0000
0330
,
2010
0000
0000
0000
0001
0000
0000
0000
0010
0000
0000
3000
0010
0100
0010
0100
,
0001
0000
0010
0000
0000
0000
0010
0000
0000
0000
1000
0000
1000
0010
0100
0010
,
0100
0000
0000
0000
0010
0000
0000
0000
0010
0000
0000
0000
0010
1000
0001
1000
,
0010
0010
0000
0010
0000
0010
0010
2002
,
3003
0000
0000
0000
;

//---------------dance-single - Hard----------------
#NOTES:
     dance-single:
     Hard:
     Medium:
     7:
     0.445,0.566,0.255,0.427,0.000:
0000
0000
0000
0000
,
0000
0000
0000
0000
0000
0100
0010
0000
,
2020
0000
0000
0000
0000
0000
3030
1010
,
0000
0000
0000
0100
,
0202
0000
0000
0000
0000
0000
0000
0000
0000
0000
0000
0000
0000
0000
0000
0000
0000
0000
0000
0303
0000
0101
0000
0000
,
0000
0010
0010
0100
0100
0010
0110
0000
,
1000
0000
0010
0000
0100
1000
0100
0000
,
0001
0000
1000
0000
0010
0001
0010
0000
,
0010
0000
0100
0000
0001
1000
0000
0220
,
0000
0000
0000
0000
,
0000
0000
0000
0330
0110
0000
1100
0000
,
0110
0000
1000
0100
1000
0000
0010
0001
,
0000
0010
0000
0100
0000
0000
0010
1000
,
0010
0000
0001
0020
0000
0030
0000
0000
,
0000
0100
1000
0010
0100
0000
1010
0000
,
0000
0000
0001
0010
0100
0000
1000
0100
,
0000
0000
0100
0020
0030
0100
0010
0100
,
0020
0000
0000
0000
0030
0001
0100
0020
,
0000
0000
0000
0030
0000
0000
0100
0000
,
0110
0000
0010
1000
0100
0000
1000
0001
,
0000
0000
0100
0000
0000
0000
0001
0000
0000
0000
0000
0000
0200
0000
0000
0300
,
0010
0000
0010
2000
3000
0000
0000
0010
,
0000
0100
1000
0100
0100
0000
0110
0000
,
0000
0000
0100
1000
0010
0000
0020
0030
,
0000
0000
0010
0001
0000
0010
0100
0010
,
2000
0000
0000
0000
3000
0100
1000
0200
,
0000
0000
0000
0300
0010
0000
0010
0000
,
0011
0000
0000
1100
0000
0000
0110
0000
,
0000
0000
0000
0000
,
0011
0000
0000
1100
0000
0000
0011
0000
,
0000
1000
0010
0000
,
0001
0000
0000
0010
0000
0000
0000
1000
,
0000
0000
0000
0010
0000
0000
0000
0020
,
0000
0000
0000
0000
0000
0030
0000
0020
,
0030
0000
0000
0220
0330
0100
1000
0000
,
0110
0000
0000
1100
0000
0000
0110
0000
,
0000
0000
0000
0000
,
0011
0000
0000
0110
0000
0000
0011
0000
,
0000
0002
0000
0000
0023
0030
0200
0300
,
0200
0300
0010
0010
0000
0000
0000
0020
,
0030
0200
0300
2000
3000
0000
0100
0000
,
0200
0300
0001
0000
0100
0000
0010
0002
,
0000
0000
0003
0001
0010
0100
1000
1000
,
0100
0100
1000
1000
0100
0100
0010
0020
,
0030
0020
0030
0020
0030
0100
0010
0000
,
0001
0000
0010
0100
0000
1000
0000
0020
,
0000
0000
0000
0030
0000
1000
0010
1000
,
0010
0000
0001
0010
0000
0100
1000
0100
,
0000
0010
0001
0010
0100
0000
0011
0000
,
0220
0330
0001
0000
0010
0000
0001
0010
,
0000
0100
0000
0020
0000
0000
0030
0001
,
0010
0000
0100
1000
0000
0010
0000
0001
,
0000
0000
0010
2000
0000
0000
3000
0000
,
0010
0000
0001
0010
0000
0100
0000
2000
,
0000
0000
0000
3000
0000
0100
0010
0100
,
0010
0000
0001
0010
0000
1000
0100
1000
,
0000
0001
0010
0001
0010
0000
0110
0000
,
2020
3030
0010
0000
0001
0000
0010
0100
,
0000
0010
0000
0200
0300
0000
0000
1000
,
0010
0000
0100
0002
0000
0003
0000
0010
,
0000
0100
0000
0020
0030
0000
1000
0000
,
0100
0100
0010
0010
0001
0001
0010
0010
,
0100
0100
0010
0010
0100
0100
0001
0001
,
0100
1000
1000
0100
0100
0010
0010
0020
,
0000
0000
0030
1000
,
0010
0000
0001
0020
0000
0000
0000
0000
,
0000
0000
0030
0000
0000
0000
1000
0100
,
1000
0000
0001
0020
0000
0000
0030
0100
,
0000
0000
0010
0001
0000
0010
0000
0200
,
0000
0000
0000
0000
,
0300
0000
0010
0000
1000
0010
1000
0000
,
0001
0000
0100
0000
0010
0100
0010
0000
,
0010
0000
1000
0000
1000
0100
1000
0000
,
0010
0000
0100
0000
0001
0100
0001
0000
,
0010
0000
0100
0000
1000
0010
1000
0000
,
0100
0000
0010
0000
0001
1000
0010
0200
,
0300
1000
1000
0200
0300
0010
0010
0000
,
0220
0000
0000
0000
,
0000
0000
0000
0000
,
0000
0000
0000
0000
,
0000
0000
0000
0000
0330
0100
0100
0220
,
0330
0000
0000
0000
;

//---------------dance-single - Medium----------------
#NOTES:
     dance-single:
     Medium:
     Easy:
     5:
     0.300,0.366,0.008,0.353,0.000:
0000
0000
0000
0000
,
0000
0000
0000
0000
,
2000
0000
0000
0000
0000
3000
1000
0000
,
0000
0000
0000
0100
,
0002
0000
0000
0000
0000
0000
0000
0003
,
0010
0100
0010
0100
,
1000
0010
0100
0100
,
0001
1000
0010
0100
,
0010
0100
0001
0010
,
0200
0000
0000
0000
,
0000
0000
0000
0300
0001
0000
1000
0000
,
0100
1000
1000
0010
,
0000
0010
0000
0100
0000
0000
0010
0000
,
0010
0002
0003
0000
,
0000
0100
0000
0010
0000
0000
0010
0000
,
0000
0001
0100
1000
,
0000
0000
0200
0300
0000
0100
0000
0200
,
0000
0300
0000
0000
0000
0001
0000
0020
,
0000
0000
0000
0030
0000
0000
0100
0000
,
0010
0010
0100
1000
,
0000
0000
0010
0000
0000
0000
0001
0000
0000
0000
0000
0000
0200
0000
0000
0300
,
0010
0000
0020
0030
0000
0000
0000
0000
,
0000
0100
0000
1000
0000
0010
0000
0000
,
0000
0000
0100
0000
0010
0000
0020
0030
,
0000
0000
0010
0000
0000
0010
0000
2000
,
0000
0000
0000
0000
3000
0100
0000
0200
,
0000
0000
0000
0300
0010
0000
0010
0000
,
0001
0000
0000
1000
0000
0000
0010
0000
,
0000
0000
0000
0000
,
0001
0000
0000
1000
0000
0000
0001
0000
,
0000
1000
0010
0000
,
0001
0000
0000
0010
0000
0000
0000
1000
,
0000
0000
0000
0010
0000
0000
0000
0020
,
0000
0000
0000
0000
0000
0030
0020
0030
,
0000
0000
0020
0030
0000
0000
0000
0000
,
0010
0000
0000
1000
0000
0000
0010
0000
,
0000
0000
0000
0000
,
0100
0000
0000
0001
0000
0000
0100
0000
,
0000
0000
0020
0030
0200
0300
2000
3000
,
0200
0300
0010
0000
0000
0000
0000
0020
,
0030
0200
0300
2000
3000
0000
0100
0000
,
0200
0300
0001
0000
0100
0000
0010
0000
,
0000
0000
0000
0001
0000
0100
0000
1000
,
0000
0100
0000
1000
0000
0100
0000
0020
,
0030
0020
0030
0020
0030
0100
0000
0000
,
0001
0000
0000
0100
0000
1000
0000
0020
,
0000
0000
0000
0030
0000
1000
0000
1000
,
0000
0001
1000
0100
,
0010
0010
0001
0100
,
0002
0003
0020
0030
0010
0000
0000
0010
,
0000
0100
0000
1000
0000
0000
0000
0001
,
0000
0000
0000
1000
0000
0010
0000
0001
,
0000
0010
0000
0000
,
0010
0000
0000
0010
0000
0100
0000
2000
,
0000
0000
0000
3000
0000
0100
0000
0100
,
0000
0001
1000
0010
,
0100
0001
0100
0010
,
2000
3000
0010
0000
0001
0000
0000
0100
,
0000
0010
0000
0200
0300
0000
0000
1000
,
0000
0000
0000
0002
0000
0003
0000
0010
,
0000
0100
0000
0020
0030
0000
1000
0000
,
0100
0010
0001
0010
,
0100
0010
0100
0001
,
0100
1000
0100
0020
,
0000
0000
0000
0000
0000
0030
1000
0000
,
0010
0020
0000
0000
,
0000
0000
0030
1000
,
1000
0020
0000
0030
,
0000
0100
0000
0001
0000
0010
0000
0200
,
0000
0000
0000
0000
,
0300
0010
1000
1000
,
0001
0100
0010
0010
,
0010
1000
0100
0100
,
0010
0100
0001
0001
,
0010
1000
0010
0010
,
0100
0000
0010
0000
0001
0000
0010
0200
,
0300
1000
1000
0200
0300
0010
0010
0000
,
0220
0000
0000
0000
,
0000
0000
0000
0000
,
0000
0000
0000
0000
,
0000
0000
0000
0000
0000
0000
0330
0200
,
0300
0000
0000
0000
;

//---------------dance-single - Blank----------------
#NOTES:
     dance-single:
     Blank:
     Beginner:
     2:
     0.203,0.266,0.025,0.320,0.000:
0000
0000
0000
0000
,
0000
0000
0000
0000
,
2000
0000
3000
1000
,
0000
0000
0000
0000
,
0002
0000
0003
0001
,
0000
0000
0000
0000
,
1000
0000
0001
0000
,
0100
0000
0001
0000
,
0100
0000
0010
0000
,
0200
0000
0000
0000
,
0000
0000
0300
0010
,
0000
0001
0000
1000
,
0000
0001
0000
0100
,
0000
0010
0000
1000
,
0000
0010
0000
0001
,
0000
0010
0000
0010
,
0000
0100
0000
0100
,
0000
0010
0000
0010
,
0000
0001
0000
0001
,
0000
1000
0000
1000
,
0000
0100
0000
0100
,
0000
0010
0000
0010
,
0000
0001
0000
0001
,
0000
1000
0000
0001
,
0000
0100
0000
0001
,
0000
1000
0000
0010
,
0000
0100
0000
0010
,
0002
0000
0003
0001
,
0000
0000
0000
0000
,
2000
0000
3000
1000
,
0000
0000
0000
0000
,
0002
0000
2003
0000
,
3020
0000
0230
0000
,
0320
0000
0000
0230
,
0000
0320
0030
2000
,
0000
0000
3000
1000
,
0000
0000
0000
0000
,
0002
0000
0003
0001
,
0000
0000
0000
0000
,
2000
0000
3000
0000
,
0000
0020
0000
0030
,
0000
0100
0000
0020
,
0000
0030
0100
0000
,
0010
0100
2000
0000
,
3000
0000
0000
0000
,
0000
0001
0000
1000
,
0000
0001
0000
0100
,
0000
0010
0000
0001
,
0000
1000
0000
0010
,
0220
0330
0010
0000
0000
0000
1000
0000
,
0000
0001
0000
0100
,
0000
1000
0000
0010
,
0000
0001
0000
0100
,
0000
1000
0000
1000
,
0000
0100
0000
0010
,
0000
0001
0000
0100
,
0000
0010
0000
0100
,
0220
0330
0200
0300
,
0002
0003
2000
3000
,
0020
0130
0000
0001
,
0000
1000
0000
0020
,
0000
0230
0000
0320
,
0000
2030
0000
3002
,
0000
2003
0000
3002
,
0000
1003
0001
1000
,
0020
0000
0000
0000
,
0000
0000
0030
0000
,
1000
0020
0000
0000
,
0030
0000
0000
0000
,
0000
0001
0000
1000
,
0000
0001
0000
0100
,
0000
0010
0000
1000
,
0000
0100
0000
0010
,
0000
0100
0000
1000
,
0000
0010
0000
0100
,
0000
0002
0003
0100
,
0000
0010
0000
0100
,
0220
0000
0000
0000
,
0000
0000
0000
0000
,
0000
0000
0000
0000
,
0000
0000
0000
0000
0000
0000
0330
0200
,
0300
0000
0000
0000
;

//---------------dance-double - Easy----------------
#NOTES:
     dance-double:
     Easy:
     Easy:
     5:
     0.300,0.366,0.008,0.353,0.000:
00000000
00000000
00000000
00000000
,
00000000
00000000
00000000
00000000
,
20000000
00000000
00000000
00000000
00000000
30000000
10000000
00000000
,
00000000
00000000
00000000
01000000
,
00020000
00000000
00000000
00000000
00000000
00000000
00000000
00030000
,
00010000
00100000
00010000
00100000
,
01000000
00010000
00100000
00100000
,
00001000
01000000
00010000
00100000
,
00010000
00100000
00001000
00010000
,
00020000
00000000
00000000
00000000
,
00000000
00000000
00000000
00030000
00000100
00000000
00100000
00000000
,
00010000
00100000
00100000
00001000
,
00000000
00001000
00000000
00010000
00000000
00000000
00001000
00000000
,
00000100
00000020
00000030
00000000
,
00000000
00001000
00000000
00000100
00000000
00000000
00000100
00000000
,
00000000
00000010
00001000
00010000
,
00000000
00000000
00002000
00003000
00000000
00001000
00000000
00002000
,
00000000
00003000
00000000
00000000
00000000
00000001
00000000
00000020
,
00000000
00000000
00000000
00000030
00000000
00000000
00000100
00000000
,
00000010
00000010
00000100
00001000
,
00000000
00000000
00000010
00000000
00000000
00000000
00000001
00000000
00000000
00000000
00000000
00000000
00000200
00000000
00000000
00000300
,
00000100
00000000
00000200
00000300
00000000
00000000
00000000
00000000
,
00000000
00001000
00000000
00010000
00000000
00000100
00000000
00000000
,
00000000
00000000
00001000
00000000
00000100
00000000
00000200
00000300
,
00000000
00000000
00000100
00000000
00000000
00000100
00000000
00020000
,
00000000
00000000
00000000
00000000
00030000
00010000
00000000
00020000
,
00000000
00000000
00000000
00030000
00001000
00000000
00001000
00000000
,
00000100
00000000
00000000
00100000
00000000
00000000
00001000
00000000
,
00000000
00000000
00000000
00000000
,
00000100
00000000
00000000
00100000
00000000
00000000
00000100
00000000
,
00000000
01000000
00010000
00000000
,
00001000
00000000
00000000
00010000
00000000
00000000
00000000
01000000
,
00000000
00000000
00000000
00010000
00000000
00000000
00000000
00020000
,
00000000
00000000
00000000
00000000
00000000
00030000
00020000
00030000
,
00000000
00000000
00200000
00300000
00000000
00000000
00000000
00000000
,
00100000
00000000
00000000
10000000
00000000
00000000
00100000
00000000
,
00000000
00000000
00000000
00000000
,
01000000
00000000
00000000
00010000
00000000
00000000
01000000
00000000
,
00000000
00000000
00200000
00300000
02000000
03000000
20000000
30000000
,
00200000
00300000
00010000
00000000
00000000
00000000
00000000
00020000
,
00030000
00200000
00300000
02000000
03000000
00000000
00100000
00000000
,
00200000
00300000
00001000
00000000
00100000
00000000
00010000
00000000
,
00000000
00000000
00000000
00001000
00000000
00100000
00000000
01000000
,
00000000
00010000
00000000
00100000
00000000
00010000
00000000
00002000
,
00003000
00002000
00003000
00002000
00003000
00010000
00000000
00000000
,
00000100
00000000
00000000
00010000
00000000
00100000
00000000
00002000
,
00000000
00000000
00000000
00003000
00000000
00100000
00000000
00100000
,
00000000
00000010
00010000
00001000
,
00000100
00000100
00000010
00001000
,
00000020
00000030
00000200
00000300
00000100
00000000
00000000
00000100
,
00000000
00001000
00000000
00010000
00000000
00000000
00000000
00000010
,
00000000
00000000
00000000
00001000
00000000
00000010
00000000
00000001
,
00000000
00000010
00000000
00000000
,
00000010
00000000
00000000
00000010
00000000
00000100
00000000
00002000
,
00000000
00000000
00000000
00003000
00000000
00000100
00000000
00000100
,
00000000
00000010
00010000
00000100
,
00001000
00000010
00001000
00000100
,
00020000
00030000
00000100
00000000
00000010
00000000
00000000
00001000
,
00000000
00000100
00000000
00002000
00003000
00000000
00000000
00010000
,
00000000
00000000
00000000
00000200
00000000
00000300
00000000
00001000
,
00000000
00010000
00000000
00002000
00003000
00000000
00100000
00000000
,
00010000
00001000
00000100
00001000
,
00010000
00001000
00010000
00000100
,
00100000
01000000
00100000
00020000
,
00000000
00000000
00000000
00000000
00000000
00030000
01000000
00000000
,
00010000
00020000
00000000
00000000
,
00000000
00000000
00030000
01000000
,
10000000
00200000
00000000
00300000
,
00000000
01000000
00000000
00010000
00000000
00100000
00000000
02000000
,
00000000
00000000
00000000
00000000
,
03000000
00100000
10000000
10000000
,
00010000
01000000
00100000
00100000
,
00010000
01000000
00100000
00100000
,
00010000
00100000
00001000
00001000
,
00010000
01000000
00010000
00010000
,
00100000
00000000
00010000
00000000
00001000
00000000
00010000
00200000
,
00300000
00100000
00100000
00020000
00030000
00001000
00001000
00000000
,
00022000
00000000
00000000
00000000
,
00000000
00000000
00000000
00000000
,
00000000
00000000
00000000
00000000
,
00000000
00000000
00000000
00000000
00000000
00000000
00033000
00020000
,
00030000
00000000
00000000
00000000
;

//---------------dance-double - Medium----------------
#NOTES:
     dance-double:
     Medium:
     Medium:
     7:
     0.445,0.566,0.255,0.427,0.000:
00000000
00000000
00000000
00000000
,
00000000
00000000
00000000
00000000
00000000
01000000
00100000
00000000
,
20200000
00000000
00000000
00000000
00000000
00000000
30300000
10100000
,
00000000
00000000
00000000
01000000
,
00202000
00000000
00000000
00000000
00000000
00000000
00000000
00000000
00000000
00000000
00000000
00000000
00000000
00000000
00000000
00000000
00000000
00000000
00000000
00303000
00000000
00101000
00000000
00000000
,
00000000
00010000
00010000
00100000
00100000
00010000
00110000
00000000
,
01000000
00000000
00010000
00000000
00100000
01000000
00100000
00000000
,
00001000
00000000
01000000
00000000
00010000
00001000
00010000
00000000
,
00001000
00000000
00010000
00000000
00000100
00100000
00000000
00022000
,
00000000
00000000
00000000
00000000
,
00000000
00000000
00000000
00033000
00011000
00000000
00110000
00000000
,
00011000
00000000
00100000
00010000
00100000
00000000
00001000
00000100
,
00000000
00001000
00000000
00010000
00000000
00000000
00001000
00100000
,
00000100
00000000
00000010
00000200
00000000
00000300
00000000
00000000
,
00000000
00001000
00010000
00000100
00001000
00000000
00010100
00000000
,
00000000
00000000
00000010
00000100
00001000
00000000
00010000
00001000
,
00000000
00000000
00001000
00000200
00000300
00001000
00000100
00001000
,
00000020
00000000
00000000
00000000
00000030
00000001
00000100
00000020
,
00000000
00000000
00000000
00000030
00000000
00000000
00000100
00000000
,
00000110
00000000
00000010
00001000
00000100
00000000
00001000
00000001
,
00000000
00000000
00000100
00000000
00000000
00000000
00000001
00000000
00000000
00000000
00000000
00000000
00000200
00000000
00000000
00000300
,
00000100
00000000
00000100
00020000
00030000
00000000
00000000
00000100
,
00000000
00001000
00010000
00001000
00001000
00000000
00001100
00000000
,
00000000
00000000
00001000
00010000
00000100
00000000
00000200
00000300
,
00000000
00000000
00000100
00000010
00000000
00000100
00001000
00000100
,
00200000
00000000
00000000
00000000
00300000
00010000
00100000
00020000
,
00000000
00000000
00000000
00030000
00001000
00000000
00001000
00000000
,
00001100
00000000
00000000
00110000
00000000
00000000
00011000
00000000
,
00000000
00000000
00000000
00000000
,
00001100
00000000
00000000
00110000
00000000
00000000
00001100
00000000
,
00000000
01000000
00010000
00000000
,
00001000
00000000
00000000
00010000
00000000
00000000
00000000
01000000
,
00000000
00000000
00000000
00010000
00000000
00000000
00000000
00020000
,
00000000
00000000
00000000
00000000
00000000
00030000
00020000
00030000
,
00000000
00000000
02200000
03300000
00000000
01000000
10000000
00000000
,
01100000
00000000
00000000
11000000
00000000
00000000
01100000
00000000
,
00000000
00000000
00000000
00000000
,
00110000
00000000
00000000
01100000
00000000
00000000
00110000
00000000
,
00000000
00020000
00000000
00000000
00230000
00300000
02000000
03000000
,
00200000
00300000
00010000
00010000
00000000
00000000
00000000
00020000
,
00030000
00200000
00300000
02000000
03000000
00000000
00100000
00000000
,
00200000
00300000
00001000
00000000
00100000
00000000
00010000
00002000
,
00000000
00000000
00003000
00001000
00010000
00100000
01000000
01000000
,
00010000
00010000
00100000
00100000
00010000
00010000
00001000
00002000
,
00003000
00002000
00003000
00002000
00003000
00010000
00001000
00000000
,
00000100
00000000
00001000
00010000
00000000
00100000
00000000
00002000
,
00000000
00000000
00000000
00003000
00000000
00100000
00001000
00100000
,
00000100
00000000
00000010
00000100
00000000
00001000
00010000
00001000
,
00000000
00000100
00000010
00000100
00001000
00000000
00000110
00000000
,
00002200
00003300
00000010
00000000
00000100
00000000
00000010
00000100
,
00000000
00001000
00000000
00000200
00000000
00000000
00000300
00000010
,
00000010
00000000
00000100
00001000
00000000
00000010
00000000
00000001
,
00000000
00000000
00000010
00002000
00000000
00000000
00003000
00000000
,
00000010
00000000
00000001
00000010
00000000
00000100
00000000
00002000
,
00000000
00000000
00000000
00003000
00000000
00000100
00000010
00000100
,
00000100
00000000
00000010
00000100
00000000
00010000
00001000
00010000
,
00000000
00000010
00000100
00000010
00000100
00000000
00001100
00000000
,
00020200
00030300
00000100
00000000
00000010
00000000
00000100
00001000
,
00000000
00000100
00000000
00002000
00003000
00000000
00000000
00010000
,
00001000
00000000
00010000
00000200
00000000
00000300
00000000
00001000
,
00000000
00010000
00000000
00002000
00003000
00000000
00100000
00000000
,
00010000
00010000
00001000
00001000
00000100
00000100
00001000
00001000
,
00010000
00010000
00001000
00001000
00010000
00010000
00000100
00000100
,
00100000
01000000
01000000
00100000
00100000
00010000
00010000
00020000
,
00000000
00000000
00030000
01000000
,
00010000
00000000
00001000
00020000
00000000
00000000
00000000
00000000
,
00000000
00000000
00030000
00000000
00000000
00000000
01000000
00100000
,
10000000
00000000
00010000
00200000
00000000
00000000
00300000
01000000
,
00000000
00000000
00100000
00010000
00000000
00100000
00000000
02000000
,
00000000
00000000
00000000
00000000
,
03000000
00000000
00100000
00000000
10000000
00100000
10000000
00000000
,
00010000
00000000
01000000
00000000
00100000
01000000
00100000
00000000
,
00010000
00000000
01000000
00000000
01000000
00100000
01000000
00000000
,
00010000
00000000
00100000
00000000
00001000
00100000
00001000
00000000
,
00010000
00000000
00100000
00000000
01000000
00010000
01000000
00000000
,
00100000
00000000
00010000
00000000
00001000
01000000
00010000
00200000
,
00300000
00100000
00100000
00020000
00030000
00001000
00001000
00000000
,
00022000
00000000
00000000
00000000
,
00000000
00000000
00000000
00000000
,
00000000
00000000
00000000
00000000
,
00000000
00000000
00000000
00000000
00033000
00010000
00010000
00022000
,
00033000
00000000
00000000
00000000
;

//---------------dance-double - Hard----------------
#NOTES:
     dance-double:
     Hard:
     Hard:
     9:
     0.674,0.997,0.624,0.731,0.041:
00000000
00000000
00000000
00000000
,
00000000
00000000
00000000
00000000
00000000
01000000
00100000
00000000
,
01100000
00000000
00000000
00200000
00000000
02300000
00000000
23000000
,
00000000
00000000
00000000
00000000
00000000
00000000
00000000
00000000
00000000
30000000
00000000
00000000
01000000
00000000
00000000
00000000
,
00020000
00000000
00130000
00020000
00030000
00100000
00000000
00002000
,
00003000
00000000
00100000
00000000
01000000
00000000
00100000
00000000
00010000
00000000
00100000
00000000
00010000
00000000
00001000
01000000
,
00010000
00100000
00010000
00000000
00100000
00010000
00100000
00000000
,
00010000
00100000
00010000
00000000
01000000
00010000
00100000
00000000
,
00010000
00000100
00010000
00000000
00010000
00001000
00010000
00022000
,
00000000
00000000
00000000
00000000
00000000
00000000
00000000
00003000
00000000
00000000
00002000
00000000
00003000
00000000
00002000
00000000
,
00003000
00001000
00001000
00031000
00011000
00000000
00110000
00000000
,
00100000
00000000
00001000
00010000
00200000
00000000
00310000
00002000
,
00000000
00013000
00000000
00000200
00000000
00000300
00010000
00001000
,
00001000
00000000
00010000
00002000
00003000
00000100
00010000
00001100
,
00000000
00000100
00000010
00000100
00011000
00000000
00002200
00003300
,
00000000
00000000
00000000
00000000
00000010
00000000
00000100
00000000
00001000
00000000
00000000
00000000
00010000
00000000
00004100
00003000
,
00000000
00000000
00000010
00000200
00000000
00001300
00000100
00001000
,
00002000
00000000
00000000
00003000
00000000
00000010
00000100
00000200
,
00000000
00000000
00000310
00000000
00000001
00000000
00000010
00000000
00000000
00000000
00000100
00000000
00001000
00000000
00000010
00000001
,
00000100
00000000
00000001
00000020
00000100
00000030
00002000
00000100
,
00003000
00000000
00000010
00000000
00000000
00000000
00000200
00000000
00000000
00000300
00000000
00000000
00000001
00000000
00000010
00000000
,
00002000
00000000
00003000
00000000
00000100
00000000
00002000
00000000
00000000
00003000
00000100
00000000
00000010
00000000
00001100
00000000
,
00000000
00000000
00000010
00000000
00000100
00000000
00001000
00000000
00011000
00000000
00000000
00000000
00000440
00000330
00000000
00000000
,
00000000
00000000
00001000
00010000
00000100
00000000
00000010
00000200
,
00000300
00000000
00000100
00000020
00000030
00000010
00000100
00001000
,
00002000
00000000
00000000
00000000
00000000
00003000
00000000
00000000
00000000
00000000
00100000
00000000
00001000
00000000
00021000
00000000
,
00000000
00000000
00030000
00001000
,
00000100
00000000
00100000
00011000
00000000
00000100
00011000
00000000
,
00000000
00000000
00200000
00000000
00320000
00000000
00032000
00003000
,
00002000
00003000
01000000
00110000
00000000
00001000
00110000
00000000
,
00000000
00000000
02000000
03000000
00100000
00020000
00000000
00030000
,
00002000
00000000
00013000
00200000
00000000
00300000
00010000
00200000
,
00000000
00000000
01300000
00010000
00000000
00000000
00100000
00000000
00010000
00000000
00002000
00000000
00010000
00000000
00200000
00000000
,
00000000
00000000
00000000
00303000
00100000
01000000
00100000
02020000
,
03030000
00000000
10000000
00000000
01000000
00000000
02200000
00000000
03300000
00000000
01000000
00000000
01000000
00010000
00100000
00000000
,
02000000
00000000
00000000
03000000
01000000
00000000
20000000
00000000
00000000
00000000
31000000
00000000
00100000
00000000
00000000
00000000
,
00000000
01000000
00010000
00100000
,
01100000
00000000
00100000
00110000
00000000
00010000
00200000
00000000
,
00300000
02000000
00000000
03000000
00002000
00000000
00203000
00000000
,
02300000
00000000
03010000
00200000
00000000
00300000
00000000
00002000
,
00000000
00023000
00000000
00230000
00000000
00300000
02020000
03030000
,
00010000
00000000
00002000
00003100
00001000
00010000
00100000
00020000
,
00030000
00000000
00000000
00002000
00003000
00000100
00001000
00010000
,
00001000
00010100
00010000
00100000
00010000
00100000
00010000
00022000
,
00033000
00022000
00033000
00022000
00033000
00001000
00020000
00030000
,
00010010
00000000
00010000
00000100
00000000
00001000
00000000
00000020
,
00000030
00001010
00000100
00001000
00001000
00000100
00001000
00010000
,
00001100
00000000
00000010
00001100
00000000
00010000
00001000
00001100
,
00000000
00000010
00000100
00010000
00001100
00000000
00010010
00000000
,
00000202
00000303
00001000
00000000
00000001
00000000
00000100
00000010
,
00000000
00000010
00000100
00002000
00000000
00003000
00000000
00000010
,
00000100
00000000
00001000
00000100
00000000
00000010
00000000
00000001
,
00000010
00000000
00000100
00000000
00000010
00000000
00000100
00000000
00000000
00000000
00001000
00000000
00000001
00001000
00000010
00001000
,
00001000
00000000
00000100
00010000
00000000
00001000
00000000
00000200
,
00000300
00001100
00001000
00000010
00000100
00000100
00001000
00000100
,
00000110
00000000
00000100
00011000
00000000
00001000
00010000
00001100
,
00000000
00000010
00000100
00001000
00010010
00000000
00001100
00000000
,
00020200
00030300
00002000
00003000
00020000
00030000
00200000
00310000
,
00000000
00002000
00000000
00003200
00000000
00000300
00000000
00001000
,
00010000
00000000
00010000
00000200
00000000
00000300
00000000
00001000
,
00000000
00000000
00000000
00010000
00000000
00000000
00000000
00000000
00000000
00002000
00000000
00000000
00000000
00000000
00000000
00000000
00000000
00000000
00000000
00000000
00003000
00000000
00000000
00000000
,
00110000
00010000
00110000
00010000
00110000
00100000
00101000
00001000
,
00101000
00001000
00101000
00001000
00110000
00010000
00110000
00010000
,
00110000
00010000
01010000
00010000
01010000
00010000
01010000
00220000
,
00330000
00000000
00100000
00000000
01000000
00000000
00001000
00100000
01000000
00100000
01000000
00010000
01000000
00000000
01000000
00010000
,
10000000
01000000
11000000
00100000
01100000
00100000
01100000
00100000
,
01100000
00010000
00110000
00010000
00110000
00100000
10100000
00100000
,
10010000
10010000
10010000
10010000
10010000
10010000
10010000
20020000
,
30030000
00000000
00000000
00000000
00000000
10000000
01100000
00000000
,
00010000
00000000
01000000
00000000
00010000
00001000
00100000
00000000
,
00010000
00000000
01000000
00000000
00100000
00010000
00100000
00000000
,
00001000
00000000
00010000
00000000
00100000
01000000
00100000
00000000
,
00010000
00000000
00001000
00000000
00010000
00100000
00010000
00000000
,
00001000
00000000
00010000
00000000
00010000
00100000
00001000
00000000
,
00010000
00000000
00001000
00000000
00010000
00100000
00001000
00000000
,
00001000
00000000
00000100
00000000
00010000
00001000
00100000
00001000
,
00000000
00000000
00000000
00000000
00000000
00000000
00011000
00000000
00000000
00000000
00000000
00000000
00011000
00000000
00000000
00000000
00000000
00000000
00201000
00000000
00000000
00000000
00000000
00000000
00000000
00000000
00000000
00300000
00000000
00000000
00101000
00000000
00000000
00000000
00000000
00000000
00012000
00000000
00000000
00000000
00000000
00000000
00000000
00000000
00003000
00000000
00000000
00000000
,
00001200
00000000
00000010
00000000
00000010
00000000
00000000
00000010
,
00000000
00000010
00000000
00000010
00000000
00000000
00000000
00000000
,
00001000
00000000
00001000
00000000
00001000
00000000
00000000
00001000
,
00000000
00000000
00001000
00000000
00000000
00000000
00001000
00000000
00000300
00000000
00001000
00000000
00000010
00000000
00002020
00003030
;
