#TITLE:Ai Wa Taiyou Ja Nai;
#SUBTITLE:;
#ARTIST:Honoka Kousaka;
#TITLETRANSLIT:;
#SUBTITLETRANSLIT:;
#ARTISTTRANSLIT:;
#GENRE:;
#CREDIT:CHMEX;
#BANNER:Ai Wa Taiyou Ja Nai.png;
#BACKGROUND:BGI.png;
#LYRICSPATH:;
#CDTITLE:;
#MUSIC:Ai Wa Taiyou Ja Na.mp3;
#OFFSET:0.020;
#SAMPLESTART:115.480;
#SAMPLELENGTH:12.000;
#SELECTABLE:YES;
#BPMS:0.000=161.990;
#STOPS:;
#BGCHANGES:0.000=Ai Wa Taiyou Ja Nai.avi=1.000=0=0=0=StretchNoLoop====,
99999=-nosongbg-=1.000=0=0=0 // don't automatically add -songbackground-
;
#KEYSOUNDS:;

//---------------dance-single - Blank----------------
#NOTES:
     dance-single:
     Blank:
     Hard:
     10:
     0.616,0.945,0.368,1.000,0.102:
0000
0000
0000
0000
,
0000
0000
0000
0000
0000
0000
1000
0000
0010
0000
0100
0000
2000
3200
0320
0032
,
0000
0003
0000
0000
0100
0000
0000
0000
2000
0000
3100
0000
0000
0000
0020
0000
,
0000
0100
1030
0100
,
0100
0000
0100
0000
0010
0100
0000
0200
,
0000
0001
0310
0010
,
0010
0000
0010
0000
0010
0100
0000
2000
,
0000
0000
0000
0000
0100
0000
0000
0000
0100
0000
0000
0000
3100
0000
0100
1000
,
0001
0100
0010
0100
0010
1000
0000
0001
0100
0010
0001
0100
0010
1000
0100
0000
,
1001
0000
0000
0000
0101
0000
0101
0000
1000
0100
1000
0010
0001
1000
0001
0100
,
0002
0003
0020
0030
0000
0000
0010
0000
0000
0000
0200
0000
0000
0000
0300
0000
,
0001
0000
0100
1000
0000
0020
0000
0030
,
0200
0000
0000
0000
0000
0000
0300
0020
0000
0000
0000
0000
0000
0030
0002
0000
,
0000
0000
0000
0003
,
0000
0000
0010
0100
1000
0010
0100
0001
,
0000
0000
0200
0310
0000
0020
0000
0030
,
0001
0000
0020
0000
0100
0000
2030
0000
3000
0000
0000
0010
1000
0010
0100
0001
,
0010
0001
0010
0001
0001
0010
0100
1000
,
0100
0000
0000
0000
0100
0000
0000
0000
0100
0000
0000
0000
0100
0000
0001
0100
,
0002
0003
0001
0000
0001
0000
0001
0000
,
0100
0000
0100
0000
0100
0000
0100
0010
,
0002
0000
0000
0003
0002
0000
0003
0000
0002
0000
0000
0003
0002
0000
0000
0003
,
0220
0330
0010
0100
1000
0001
1000
0100
,
0000
0100
0010
0002
0003
0000
2000
0000
,
3002
0000
0103
0010
0000
0100
1000
0200
,
0000
0000
0300
2020
3030
0000
2000
3000
,
0200
0000
0320
0000
0032
0000
0013
0101
,
0000
1010
0000
0220
0000
0330
0010
0000
,
2000
0000
3200
0000
0320
0000
0031
0101
,
0000
1010
0000
0110
0000
0202
0303
0000
,
0202
0000
0303
0000
0002
0000
0000
0000
0020
0003
0000
0000
0230
0000
1300
0000
,
0000
0200
0310
0200
0000
0300
0110
0000
,
0002
0023
0230
0310
,
0020
0000
0000
0000
0130
0000
0110
0000
0000
0000
0010
0000
1000
0010
0100
0000
,
0102
0000
0013
0000
0010
0000
0100
2000
,
0000
0000
3200
0000
0000
0000
0000
0300
0020
0000
0000
0000
0031
0000
0000
0000
,
0010
0000
0100
0000
2000
0000
3010
0200
,
0000
0000
0000
0000
0000
0000
0310
1000
0010
0000
0100
0000
0001
0100
0010
0001
,
0100
0000
0010
0000
0100
0000
0010
2000
,
0000
0000
0010
0000
0002
0000
0000
0000
0023
0000
0000
3030
1010
0000
0000
0000
,
0220
0330
0200
0000
2300
0000
3200
0320
,
0000
0000
0030
0000
0000
0000
0010
1000
0010
0000
0010
0000
0100
0010
0100
0000
,
1000
0000
0100
0000
0010
0000
0010
0100
,
0000
2000
0000
3000
0100
0000
0010
0000
,
0202
0303
0010
0220
0330
0000
1000
2010
,
0000
0010
0000
0010
3000
1010
0100
0010
,
0200
0300
0020
0030
0200
0300
0000
0020
,
0000
0000
0000
0030
0002
0000
0000
0000
0020
0003
0000
0000
0030
0000
0000
0000
,
0100
0100
0010
0010
0001
0001
0000
0100
,
0020
0230
0310
0010
,
0202
0000
0000
0303
0000
0200
0010
0002
,
0000
0000
0000
0000
0000
0303
0200
0300
,
1000
0000
0010
0000
0001
0010
0000
0002
,
0000
0000
0000
0000
0000
0000
0000
0000
0000
0000
0000
0000
0000
0000
0000
0003
,
1000
0000
0010
0000
0100
0010
0000
0020
,
0000
0000
0000
0030
,
0100
0000
1000
0000
0100
0010
0000
0002
,
0000
0000
0000
0000
0000
0000
0000
0003
,
0001
0001
0100
0100
0010
0010
0100
0000
,
0000
0010
0100
0010
0220
0000
0000
0330
,
0000
0000
0000
0000
,
0000
0000
0000
0000
,
0000
0000
0000
0000
,
0000
0000
0000
0000
,
2000
3202
0323
0131
,
0200
0000
2320
0000
3230
0000
2302
3003
,
0100
0000
1010
0000
0000
0000
1000
0000
1010
0000
0100
1000
0010
0000
1010
0000
,
0000
1010
0000
1010
0000
1010
0000
0000
,
2000
0000
3200
0000
0320
0000
0130
0101
,
0000
0101
0000
0220
0000
0330
2000
3000
,
0200
0000
0320
0000
0032
0000
0013
0110
,
0000
1010
0000
0110
0000
0202
0000
0303
,
2020
3030
2000
0000
3200
0000
0320
0031
,
0000
0001
0010
0200
0000
0300
0200
0300
,
2000
3002
0203
0320
,
2030
0000
3200
0000
0320
0000
0230
0300
,
1000
0010
0100
0001
1000
0100
0010
0100
,
0002
0000
0003
0000
0100
0000
0010
0000
0000
0000
1000
0000
1000
0001
0100
0000
,
2002
3003
0020
0000
0130
0000
1000
0200
,
0000
0320
0030
0000
0002
0000
0013
0000
,
2000
0000
3100
0000
0120
0000
0130
2000
,
0000
0000
0000
0000
0000
3000
0100
0010
0100
0010
0100
0000
0010
0000
0001
1000
,
0020
0000
0000
0030
0002
0000
0000
0000
0023
0000
0000
0000
0230
0000
1000
0000
,
0300
0010
0100
0110
,
1002
0000
0023
0000
0230
0000
0310
0002
,
0000
0000
0000
0000
0000
0000
0003
0010
,
0010
0000
0020
0000
0230
0000
0301
0100
,
0000
0100
0000
0000
0100
0000
0010
0000
,
0001
0000
0010
0110
0000
1000
2200
0000
,
0000
0000
0000
0000
0000
0000
3300
0000
0010
0001
0100
0010
2000
0000
3100
0000
,
0200
0000
2300
0000
3200
0000
0300
0020
,
0000
0030
2000
3000
1010
0000
0000
0000
,
0100
0010
1000
0100
0001
0010
0000
0020
,
0100
0030
0110
0000
1010
0000
0110
0000
,
0202
0000
0303
2002
,
0000
0000
0000
0000
3003
0000
2000
3000
,
0010
0000
0001
0000
0010
2000
0000
3020
,
0000
0100
1000
0130
,
0100
0000
0001
0000
0010
0100
0000
0200
,
0000
0000
0010
0000
0001
0000
0010
0300
,
0100
0000
0010
0000
0010
0100
0000
0020
,
0000
1000
0100
1030
,
0010
0000
0001
0010
0000
1000
0010
1001
,
0000
0101
1010
0000
0010
0100
2002
0000
,
0000
0000
0000
0000
,
0000
0000
0000
0000
,
0000
3003
0000
0000
;

//---------------dance-single - Easy----------------
#NOTES:
     dance-single:
     Easy:
     Beginner:
     3:
     0.159,0.269,0.025,0.102,0.000:
0000
0000
0000
0000
,
0000
0000
0000
0000
,
0000
0000
0000
0000
,
0000
0000
0000
0000
,
0000
0000
0000
0000
,
0000
0000
0000
0000
,
0000
0000
0000
0000
,
0000
0000
0000
2000
,
0000
3002
0000
2003
,
0000
3002
0000
0003
,
0000
0000
0000
0000
,
0000
0000
0000
0000
,
0000
0000
0000
0000
,
0000
0000
0000
0000
,
0000
0000
0000
0000
,
0000
0000
0000
0000
,
0000
0000
0000
0000
,
1000
0000
0001
0000
,
0100
0000
0100
0000
,
0010
0000
0010
0000
,
0100
0000
0100
0000
,
1000
0000
1000
0000
,
1100
0000
1000
0000
,
1000
0000
0100
0000
,
0100
0000
0010
0000
,
0010
0000
0011
0000
,
0020
0000
0000
0130
,
0000
0000
0000
0000
,
2000
0000
0000
3100
,
0000
0000
0100
0000
,
0010
0000
0001
0000
,
0010
0000
0010
0000
,
0010
0000
0001
0000
,
0010
0000
0000
0000
,
0000
1000
0000
0001
,
0000
0100
0000
0010
,
0000
1000
0000
0020
,
0000
0000
0030
0000
,
0000
1000
0000
0010
,
0000
0100
0000
0001
,
0000
0010
0000
0010
,
0000
0100
0000
0100
,
0000
0010
0000
0010
,
0000
1000
0000
1000
,
0000
0010
0000
0200
,
0000
0000
0000
0300
,
0000
1000
0000
0001
,
0000
0100
0000
0010
,
1000
0001
0100
0000
,
0000
0000
0000
0000
,
0000
1000
0000
0001
,
0000
0000
0000
0000
,
0000
1000
0000
0001
,
0000
0100
0000
0010
,
0000
0010
0000
0100
,
0000
0100
0000
1000
,
0000
1000
0000
0100
,
0000
0100
0000
0010
,
0000
0010
0000
0100
,
0000
0000
0220
0000
,
0330
0000
0000
0000
,
0000
0000
0000
0000
,
0000
0000
0000
0000
,
0000
0000
0000
0000
,
0010
1000
0010
1000
,
0010
0100
0010
0100
,
0010
0000
0010
0000
,
0100
0000
0100
0000
,
0020
0000
0000
0130
,
0000
0000
0000
0000
,
2000
0000
0000
0000
,
3001
0000
0000
0000
,
0001
0000
1000
0000
,
0010
0000
0100
0000
,
0010
0000
0010
0000
,
1000
0000
1000
0000
,
0001
0100
0010
0100
,
0010
1000
0000
0000
,
0010
0000
0100
0000
,
0010
0000
1000
0000
,
0010
0000
0100
0000
,
0010
0000
1000
0000
,
0010
0000
0100
0000
,
0001
0000
0010
0000
,
0010
0000
2000
0000
,
3000
0000
0010
0000
,
0001
0000
0100
0000
,
0010
0000
1000
0000
,
0020
0000
0000
0130
,
0000
0000
0000
0000
,
1000
0000
0001
0000
,
0100
0000
0010
0001
,
1000
0001
1000
0000
,
0000
0000
0000
0000
,
0000
1000
0000
0001
,
0000
0000
0000
0000
,
0000
1000
0000
0001
,
0000
0100
0000
0010
,
0000
1000
0000
0010
,
0000
0100
0000
0010
,
0000
0001
0000
0001
,
0000
0010
0000
0010
,
0000
0100
0000
0010
,
0000
0000
0010
0220
,
0000
0000
0000
0000
,
0000
0000
0000
0000
,
0330
0000
0000
0000
;

//---------------dance-single - Hard----------------
#NOTES:
     dance-single:
     Hard:
     Challenge:
     11:
     0.784,1.000,0.565,1.000,0.162:
0000
0000
0000
0000
,
0000
0000
0000
0000
0000
0000
1000
0000
0010
0000
0100
0000
1000
0100
0010
0100
,
0010
0001
0010
0001
0100
0000
0000
0000
1000
0000
0200
0000
0000
0000
0020
0000
,
0030
0320
0230
0020
0030
0320
0230
0320
,
0230
0300
0200
0300
0010
0200
0000
2000
,
3000
2300
3200
2300
3200
2300
3020
0031
,
0010
0000
0100
0000
0010
0200
0000
2000
,
0000
0000
0000
0000
0000
0000
0000
0000
0000
0000
3300
0000
0100
1000
0100
1000
,
0001
0100
0010
0100
0010
1000
0100
0001
0100
0010
0001
0100
0010
1000
0100
1000
,
0100
0010
0100
0010
0001
0010
0100
1000
0100
0010
0100
0010
0001
0100
0001
0010
,
0001
0010
0000
0010
0000
0200
0000
0300
,
0001
0000
0100
1000
0000
0020
0000
0030
,
0200
0000
0000
0000
0000
0000
0300
0020
0000
0000
0000
0000
0000
0030
0002
0000
,
0000
0003
0202
0000
0303
0010
0100
0010
,
2020
3030
0010
0100
1000
0010
0100
0001
,
0000
0000
0200
0310
0000
0020
0000
0030
,
0001
0000
0020
0000
0100
0000
2030
0000
3000
0000
0000
0010
1000
0010
0100
0001
,
0010
0001
0010
0001
0001
0010
0100
1000
,
0100
0000
0000
0000
0100
0000
0000
0000
0100
0000
0000
0000
0100
0000
0001
0100
,
0002
0003
0001
0000
0001
0000
0001
0010
,
0100
0000
0000
0000
0100
0000
0000
0000
0100
0000
0000
0000
0100
0000
0010
0100
,
0002
0000
0000
0003
0010
0000
0100
0000
0002
0000
0000
0003
0002
0000
0000
0003
,
0220
0330
0010
0100
1000
0001
1000
0100
,
0000
0100
0010
0002
0013
0100
2000
3100
,
0002
0000
0103
0010
0000
0100
1000
0200
,
0000
0000
0300
2020
3030
0000
2000
3000
,
1200
0300
0120
0030
0012
0003
0010
0101
,
0000
1010
0000
0220
0000
0330
0010
0000
,
1200
0300
0120
0030
0012
0003
0001
0101
,
0000
1010
0000
0110
0000
0202
0303
0000
,
0202
0000
0303
0000
0002
0000
0000
0000
0020
0003
0000
0000
0230
0000
1300
0000
,
0000
0200
0310
0200
0010
0310
0120
0030
,
0102
0023
1230
0310
,
0120
0000
0000
0000
0130
0000
0110
0000
0000
0000
0010
0000
1000
0010
0100
0000
,
0102
0000
0023
0030
0010
0000
0200
2300
,
3000
0200
0000
0300
0020
0000
0031
0000
,
0010
0000
0100
0000
2000
0000
3010
0200
,
0000
0000
0000
0000
0000
0000
0310
1000
0010
0000
0100
0000
0010
0100
1000
0010
,
0100
0000
0010
0000
0100
0000
0010
2000
,
0000
0000
0010
0000
0002
0000
0000
0000
0023
0000
0000
3030
1010
0000
0000
0000
,
0220
0330
0200
0000
2300
0000
3200
0320
,
0000
0000
0000
0000
0000
0030
0010
1000
0010
0000
0010
0000
0010
0100
0010
1000
,
0010
0000
0100
0000
0010
0000
0010
0100
,
0000
2000
0000
3000
0100
0000
0010
0000
,
0202
0303
0010
0220
0330
0000
1000
2010
,
3000
2020
3030
2020
3030
2020
3130
0010
,
0200
0300
0020
0030
0200
0300
0000
0120
,
0000
0000
0000
0030
0002
0000
0000
0000
0020
0003
0000
0000
0030
0000
0000
0000
,
0100
0100
0001
0001
0010
0010
0000
0100
,
0120
0230
0311
0010
,
0202
0000
0000
0303
0000
0200
0010
0002
,
0000
0000
0000
0000
0000
0303
0200
0300
,
1000
0000
0010
0000
0001
0010
0000
0002
,
0000
0000
0010
0000
0100
0000
0003
0000
0010
1000
0010
0000
0200
0000
0000
0000
,
1300
0000
0010
0000
0100
0010
0000
0200
,
0000
0000
0010
0000
0301
0000
0220
0330
0010
1000
0010
0000
0100
0010
1000
0010
,
0100
0000
1000
0000
0100
0010
0000
0002
,
0000
0013
0100
0100
1000
1000
2020
3030
,
0010
0010
0100
0100
0010
0010
0220
0330
,
0000
0010
0100
0010
0220
0000
0000
0330
,
1000
0001
0100
0010
1000
0010
0100
0020
,
0000
0130
0001
0010
0100
0010
0002
0003
,
0100
0001
0100
0001
0010
0100
1000
0010
,
0000
1000
0000
0010
0000
0100
1000
0000
,
0210
0000
0000
0300
0000
0000
0002
0000
0000
0003
0000
0000
0200
0000
0000
0300
0000
0000
0020
0000
0000
0000
0030
0000
,
0210
0000
0300
0000
2000
0000
3010
0000
0020
1000
0130
0000
2002
0000
3003
0000
,
0100
0000
1010
0000
1000
0000
1010
0000
1010
0000
0100
1000
0010
0000
1010
0000
,
0000
1100
0000
1010
0000
2200
0000
3300
,
2200
3300
0200
0300
0220
0330
0010
0101
,
0000
0101
0000
0220
0000
0330
2000
3000
,
0220
0330
0020
0030
0022
0033
0010
0110
,
0000
1010
0000
0110
0000
0202
0000
0303
,
2020
3030
2000
0000
3200
0000
0320
0032
,
0003
0001
0010
0200
0010
0310
0220
0330
,
2020
3031
2200
3310
,
2002
0000
0000
0000
3103
0000
0000
0000
2020
0000
0000
0000
3130
0000
0001
0100
,
1000
0010
0100
0001
1000
0100
0010
0100
,
0002
0000
0003
0000
0100
0000
0010
0000
0000
0000
1000
0000
1000
0001
0100
0000
,
2002
3003
0020
0000
0130
0000
1000
0200
,
0000
0320
0230
0300
0002
0000
0013
0000
,
2000
0000
3100
0000
0120
0000
0130
2000
,
0000
0000
0000
3000
0200
0000
0000
0300
0100
0010
0100
0000
0010
0000
0001
1000
,
0020
0000
0000
0030
0002
0000
0000
0000
0023
0000
0000
0000
0230
0000
1000
0000
,
0300
0010
0100
0110
,
1002
0000
0023
0000
0230
0000
0310
0002
,
0000
0000
0000
0000
0000
0003
0001
0100
0001
0000
0001
0000
0010
1000
0100
0000
,
2020
3030
0020
0000
0230
0000
0301
0100
,
0000
0100
0000
0000
0100
0000
0010
0000
,
0101
0000
0010
1000
0010
0000
0110
0000
0100
0000
1000
0000
0100
0000
1100
0000
,
0000
0000
1100
0000
0000
0000
1100
0000
0010
0001
0100
0010
2000
0000
3100
0000
,
0200
0000
2300
0000
3200
0000
0300
0020
,
0000
0030
2000
3000
1010
0000
0000
0000
,
0010
0010
0100
0100
0001
0001
0000
0020
,
0100
0030
0110
0000
1010
0000
0110
0000
,
0001
0010
0100
1000
0100
1000
0010
2002
,
0000
0000
0000
0000
0000
3003
2000
3000
,
0010
0000
0001
0000
0010
2000
0000
3020
,
0000
0100
1000
0130
,
0100
0000
0001
0000
0010
0100
0000
0200
,
0000
0000
0000
0000
0310
0000
0000
0000
0001
0100
0001
0000
0010
0000
0100
0000
,
2020
3030
0010
0000
0010
0100
0000
0020
,
0000
1000
0100
1030
,
0220
0330
0001
2020
3030
1000
0010
2002
,
3003
0101
1010
0000
0010
0100
2002
0000
,
0000
0000
0000
0000
,
0000
0000
0000
0000
,
0000
3003
0000
0000
;

//---------------dance-single - Hard----------------
#NOTES:
     dance-single:
     Hard:
     Medium:
     7:
     0.485,0.540,0.102,0.978,0.003:
0000
0000
0000
0000
,
0000
0000
0000
0000
,
1000
0000
0100
0000
2000
3100
0000
0020
,
0000
0000
0030
0100
,
0100
0000
0100
0000
0010
0100
0000
0200
,
0000
0000
0310
0010
,
0010
0000
0010
0000
0010
0100
0000
2000
,
0000
0100
0100
3100
,
2000
3000
0020
0030
,
4040
3030
1010
4040
0000
0000
0000
3030
,
0000
0010
0000
0010
0000
0200
0000
0300
,
0001
0000
0100
1000
0000
0020
0000
0030
,
0200
0000
0000
0000
0000
0000
0300
0020
0000
0000
0000
0000
0000
0030
0002
0000
,
0000
0000
0000
0003
,
0000
0000
0200
0000
1300
0010
0100
0010
,
0000
0000
0200
0310
0000
0020
0000
0030
,
0020
0000
0130
2000
0000
0000
3000
0000
,
0020
0000
2030
0000
3000
0010
0100
1000
,
1100
0100
0100
0100
,
0002
0003
0001
0000
0001
0000
0001
0000
,
0100
0100
0100
0100
,
0002
0000
0003
0000
0010
0000
0000
0000
0002
0000
0000
0003
0002
0000
0000
0003
,
0200
0300
0010
0000
0100
0000
0010
0000
,
0002
0003
0002
0003
0020
0030
2000
0000
,
3002
0000
0103
0000
0020
0030
2000
0000
,
0000
0000
0000
0000
3000
0000
2000
3000
,
0200
0000
0320
0000
0032
0000
0013
0001
,
0000
0010
0000
0020
0000
0030
0010
0000
,
2000
0000
3200
0000
0320
0000
0031
0100
,
0000
1000
0000
0100
0000
0020
0000
0030
,
0200
0000
0300
0000
0002
0000
0000
0000
0020
0003
0000
0000
0230
0000
1300
0000
,
0000
0200
0310
0200
0000
0300
0010
0000
,
0002
0023
0230
0310
,
0020
0000
0130
0010
0000
0100
0100
0000
,
0002
0000
0013
0000
0010
0000
0100
2000
,
0000
0000
3200
0000
0000
0000
0000
0300
0020
0000
0000
0000
0031
0000
0000
0000
,
0010
0000
0100
0000
2000
0000
3010
0200
,
0000
0000
0000
0300
0010
0000
1000
0000
,
0110
0000
0010
0000
0100
0000
0010
1000
,
0000
0000
0010
0000
0002
0000
0000
0000
0023
0000
0000
0030
1000
0000
0000
0000
,
0200
0300
0200
0000
2300
0000
3200
0320
,
0000
0030
0001
0000
1000
0000
0010
0000
,
0110
0000
0100
0000
0010
0000
0010
0100
,
0000
2000
0000
3000
0100
0000
0010
0000
,
0202
0303
0010
0200
0300
0000
1000
1010
,
0000
0010
0000
0010
0000
0010
0100
0010
,
0200
0300
0020
0030
0200
0300
0000
0020
,
0000
0000
0000
0030
0002
0000
0000
0000
0020
0003
0000
0000
0030
0000
0000
0000
,
0100
0100
0010
0010
0001
0001
0000
0100
,
0020
0230
0310
0010
,
0202
0000
0000
0000
0000
0303
0000
0202
,
0000
0000
0000
0000
0000
0303
0200
0300
,
1000
0000
0010
0000
0001
0010
0000
0002
,
0000
0000
0000
0000
0000
0000
0000
0000
0000
0000
0000
0000
0000
0000
0000
0003
,
1000
0000
0010
0000
0100
0010
0000
0020
,
0000
0000
0000
0030
,
0100
0000
1000
0000
0100
0010
0000
0002
,
0000
0000
0000
0000
0000
0000
0000
0003
,
0001
0001
0100
0100
0010
0010
0100
0000
,
0000
0010
0100
0010
0220
0000
0000
0330
,
0000
0000
0000
0000
,
0000
0000
0000
0000
,
0000
0000
0000
0000
,
0000
0000
0000
0000
,
2000
3200
0320
0130
,
0200
0000
0320
0000
0230
0000
0302
0003
,
0100
0010
0000
1000
0010
0100
0010
0100
,
0000
0010
0000
0010
0000
0010
0000
0000
,
2000
0000
3200
0000
0320
0000
0130
0001
,
0000
0100
0000
0020
0000
0030
2000
3000
,
0200
0000
0320
0000
0032
0000
0013
0100
,
0000
0100
0000
0010
0000
0200
0000
0300
,
0020
0030
2000
0000
3200
0000
0320
0031
,
0000
0001
0010
0200
0000
0300
0200
0300
,
2000
3002
0203
0320
,
2030
0000
3200
0000
0320
0000
0230
0300
,
1000
0010
0100
0001
1000
0100
0010
0100
,
0002
0003
0100
0010
0000
0000
0000
0000
,
2000
3000
0020
0000
0130
0000
1000
0200
,
0000
0320
0030
0000
0002
0000
0013
0000
,
2000
0000
3100
0000
0020
0000
0130
2000
,
0000
0000
0000
0000
0000
3000
0000
0000
0010
0000
0000
0000
1000
0000
0000
0000
,
0220
0330
0002
0000
0023
0000
0230
1000
,
0300
0010
0100
0010
,
1002
0000
0023
0000
0230
0000
0310
0002
,
0000
0000
0000
0000
0000
0003
0010
0100
,
0220
0330
0020
0030
0200
0000
0301
0100
,
0000
0100
0000
0000
0100
0000
0010
0000
,
0001
0000
0010
0100
0000
1000
0200
0000
,
0000
0000
0000
0000
0000
0300
2000
3000
,
0200
0000
2300
0000
3200
0000
0300
0020
,
0000
0030
2000
3000
0010
0000
0000
0000
,
0100
0010
1000
0100
0001
0010
0000
0020
,
0100
0030
0100
0000
0010
0000
0010
0000
,
0002
0000
0003
2002
,
0000
0000
0000
0000
3003
0000
2000
3000
,
0010
0000
0001
0000
0010
2000
0000
3020
,
0000
0000
0000
0130
,
0100
0000
0001
0000
0010
0100
0000
0200
,
0000
0000
0000
0000
0000
0000
0000
0300
,
0100
0000
0010
0000
0010
0100
0000
0020
,
0000
0000
0000
0030
,
0010
0000
0001
0010
0000
1000
0010
0001
,
0000
0100
0010
0000
0010
0100
2002
0000
,
0000
0000
0000
0000
,
0000
0000
0000
0000
,
0000
3003
0000
0000
;

//---------------dance-single - Medium----------------
#NOTES:
     dance-single:
     Medium:
     Easy:
     5:
     0.387,0.540,0.025,1.000,0.003:
0000
0000
0000
0000
,
0000
0000
0000
0000
,
1000
0100
2000
0000
,
0000
0000
0000
0000
0000
3000
0100
0000
,
0100
0100
0020
0000
,
0000
0000
0030
0010
,
0010
0020
0230
0000
,
0000
0000
0000
0300
,
2000
3000
0020
0030
,
2000
0000
0000
0000
0000
0000
0000
3000
,
0000
0000
0000
0000
,
0000
0000
0000
0000
,
0000
0000
0000
0000
,
0000
0000
0000
0000
,
0000
0000
0000
0000
,
0000
0000
0000
0000
,
0000
0000
0000
1000
,
0020
0000
0030
2000
0000
3000
0010
0000
,
0100
0100
0100
0100
,
0002
0003
0001
0000
0001
0000
0001
0000
,
0100
0100
0100
0100
,
0002
0000
0003
0000
0010
0000
0000
0000
0002
0000
0000
0003
0002
0000
0000
0003
,
0002
0003
0010
0000
0100
0000
0010
0000
,
0002
0003
0002
0003
0020
0030
2000
0000
,
3002
0000
0103
0000
0020
0030
0200
0000
,
0000
0000
0000
0000
0300
0000
2000
3000
,
0200
0000
0320
0000
0032
0000
0003
0001
,
0000
0010
0000
0020
0000
0030
0000
0000
,
2000
3200
0320
0030
,
0000
1000
0000
0100
0000
0020
0000
0030
,
0200
0000
0300
0000
0002
0000
0000
0000
0020
0003
0000
0000
0230
0000
0300
0000
,
0000
0200
0000
0000
0000
0300
0010
0000
,
0001
0010
0100
0010
,
0020
0130
0000
0100
,
0002
0000
0013
0000
0010
0000
0000
1000
,
0000
0000
0200
0000
0000
0000
0000
0300
0020
0000
0000
0000
0031
0000
0000
0000
,
0010
0000
0100
0000
2000
0000
3000
0200
,
0000
0000
0000
0300
0010
0000
1000
0000
,
0100
0010
0100
0010
,
0000
0000
0000
0000
0002
0000
0000
0000
0023
0000
0000
0030
1000
0000
0000
0000
,
0200
0000
2300
3000
2000
0000
3000
0020
,
0000
0030
0001
0000
1000
0000
0010
0000
,
0110
0100
0010
0010
,
0000
2000
0000
3000
0100
0000
0010
0000
,
0002
0003
0000
0020
0030
0000
0200
0000
,
0000
0000
0000
0000
0000
0300
0000
0000
,
0200
0300
0020
0030
0200
0300
0000
0020
,
0000
0000
0000
0030
0002
0000
0000
0000
0020
0003
0000
0000
0030
0000
0000
0000
,
0200
0300
0020
0030
0002
0003
0000
0000
,
0020
0230
0310
0010
,
0002
0000
0000
0000
0000
0003
0000
0202
,
0000
0000
0000
0000
0000
0303
0200
0300
,
2000
0000
3002
0000
0023
0000
0030
0002
,
0000
0000
0000
0000
0000
0000
0000
0003
,
2000
0000
3020
0000
0230
0000
0300
0020
,
0000
0000
0000
0030
,
0200
0000
2300
0000
3200
0000
0300
0002
,
0000
0000
0000
0000
0000
0000
0000
0003
,
0002
0003
0200
0300
0020
0030
0100
0000
,
0000
0010
0000
0010
0200
0000
0000
0300
,
0000
0000
0000
0000
,
0000
0000
0000
0000
,
0000
0000
0000
0000
,
0000
0000
0000
0000
,
2000
3200
0320
0130
,
0200
0000
0320
0000
0230
0000
0302
0003
,
0100
0000
0000
0010
0000
0000
0100
0000
,
0000
0100
0000
0000
0000
0000
0100
0000
0000
0000
0200
0000
0000
0000
0300
0000
,
2000
3200
0320
0030
,
0000
0100
0000
0020
0000
0030
2000
3000
,
0200
0320
0032
0003
,
0000
0100
0000
0010
0000
0200
0000
0300
,
0020
0030
2000
0000
3200
0000
0320
0030
,
0000
0001
0000
0200
0000
0300
0200
0300
,
2000
3002
0203
0320
,
2030
0000
3200
0000
0320
0000
0230
0300
,
1000
0100
1000
0010
,
0002
0003
0100
0000
0000
0000
0000
0000
,
2000
3000
0020
0000
0130
0000
0000
0200
,
0000
0320
0030
0000
0002
0000
0003
0000
,
2000
0000
3000
0000
0020
0000
0030
2000
,
0000
0000
0000
0000
0000
3000
0000
0000
0010
0000
0000
0000
1000
0000
0000
0000
,
0020
0030
0002
0000
0023
0000
0230
0000
,
0300
0010
0100
0010
,
0002
0023
0230
0302
,
0000
0000
0000
0000
0000
0003
0010
0000
,
0020
0030
0020
0030
0200
0000
0301
0000
,
0000
0100
0000
0000
0100
0000
0010
0000
,
0001
0010
0000
0200
,
0000
0000
0000
0000
0000
0300
2000
3000
,
0200
0000
2300
0000
3200
0000
0300
0020
,
0000
0030
2000
3000
0010
0000
0000
0000
,
0200
0300
2000
3000
0002
0003
0000
0020
,
0000
0030
0100
0000
0010
0000
0010
0000
,
0002
0000
0003
2002
,
0000
0000
0000
0000
3003
0000
2000
3000
,
0020
0030
0002
0003
0200
0300
0000
0020
,
0000
0000
0000
0030
,
0200
0300
0002
0003
0020
0030
0000
0200
,
0000
0000
0000
0000
0000
0000
0000
0300
,
0200
0300
0020
0030
0020
0030
0000
0020
,
0000
0000
0000
0030
,
0010
0000
0001
0000
0000
1000
0000
0001
,
0000
0010
0010
2002
,
0000
0000
0000
0000
,
0000
0000
0000
0000
,
0000
3003
0000
0000
;

//---------------dance-double - Easy----------------
#NOTES:
     dance-double:
     Easy:
     Easy:
     5:
     0.432,0.540,0.032,1.000,0.003:
00000000
00000000
00000000
00000000
,
00000000
00000000
00000000
00000000
,
10000000
00000000
01000000
00000000
20000000
00000000
30000000
00200000
,
00000000
00000000
00300000
01000000
,
01000000
00000000
01000000
00000000
00200000
00000000
00300000
02000000
,
00000000
00000000
03000000
00010000
,
00010000
00000000
00020000
00000000
00230000
00000000
00300000
02000000
,
00000000
00000000
00000000
03000000
,
02000000
03000000
00020000
00030000
,
02020000
03030000
00010000
00010000
00000000
00000000
00000000
00000000
,
00000000
00001000
00000000
00001000
00000000
00020000
00000000
00030000
,
00000100
00000000
00020000
00000000
00030000
00002000
00000000
00003000
,
00020000
00000000
00000000
00030000
00002000
00000000
00000000
00003200
,
00000000
00000000
00000000
00000300
,
00000000
00001000
00100000
00010000
,
00000000
00000000
00002000
00003000
00000200
00000000
00000000
00000300
,
00000200
00000000
00000300
00020000
00000000
00030000
00000000
00000100
,
00000000
00010000
00000000
00000100
00000000
00010000
00000000
00000000
,
00001000
00001000
00001000
00001000
,
00000002
00000003
00000001
00000000
00000001
00000000
00000001
00000000
,
00000100
00000100
00000100
00000100
,
00000002
00000000
00000003
00000000
00000010
00000000
00000000
00000000
00000002
00000000
00000000
00000003
00000002
00000000
00000000
00000003
,
00000002
00000003
00000010
00000000
00000100
00000000
00000010
00000000
,
00000020
00000030
00000020
00000030
00000200
00000300
00020000
00000000
,
00030020
00000000
00001030
00000000
00000200
00000300
00002000
00000000
,
00000000
00000000
00000000
00000000
00003000
00000000
00020000
00030000
,
00002000
00000000
00003200
00000000
00000320
00000000
00000030
00000010
,
00000000
00001000
00000000
00002000
00000000
00003000
00000000
00000000
,
00200000
00320000
00032000
00003000
,
00000000
00100000
00000000
00010000
00000000
00002000
00000000
00003000
,
00020000
00000000
00030000
00000000
00000200
00000000
00000000
00000000
00002000
00000300
00000000
00000000
00023000
00000000
00030000
00000000
,
00000000
00200000
00300000
00200000
00000000
00300000
00010000
00000000
,
00002000
00023000
00230000
00310000
,
00020000
00000000
00130000
00000000
00000000
00100000
00100000
00000000
,
00002000
00000000
00013000
00000000
00010000
00000000
00100000
02000000
,
00000000
00000000
03200000
00000000
00000000
00000000
00000000
00300000
00020000
00000000
00000000
00000000
00031000
00000000
00000000
00000000
,
00100000
00000000
01000000
00000000
20000000
00000000
30100000
02000000
,
00000000
00000000
00000000
03000000
00100000
00000000
10000000
00000000
,
01000000
00000000
00100000
00000000
01000000
00000000
00100000
10000000
,
00000000
00000000
00000000
00000000
00020000
00000000
00000000
00000000
00230000
00000000
00000000
00300000
10000000
00000000
00000000
00000000
,
00200000
00000000
02300000
03000000
02000000
00000000
03200000
00320000
,
00000000
00030000
00001000
00000000
01000000
00000000
00010000
00000000
,
00110000
00000000
00100000
00000000
00010000
00000000
00010000
00100000
,
00000000
02000000
00000000
03000000
00100000
00000000
00010000
00000000
,
00000200
00000300
00001000
00020000
00030000
00000000
00100000
00100000
,
00000000
00001000
00000000
00001000
00000000
00000000
00000000
00000000
,
00020000
00030000
00002000
00003000
00020000
00030000
00000000
00002000
,
00000000
00000000
00000000
00003000
00000200
00000000
00000000
00000000
00002000
00000300
00000000
00000000
00003000
00000000
00000000
00000000
,
00002000
00003000
00000200
00000300
00000020
00000030
00000000
00000000
,
00000200
00002300
00003100
00000100
,
00000020
00000000
00000000
00000000
00000000
00000030
00000000
00002020
,
00000000
00000000
00000000
00000000
00000000
00003030
00002000
00003000
,
00002000
00000000
00003002
00000000
00000023
00000000
00000030
00000002
,
00000000
00000000
00000000
00000000
00000000
00000000
00000000
00000000
00000000
00000000
00000000
00000000
00000000
00000000
00000000
00000003
,
00002000
00000000
00003020
00000000
00000230
00000000
00000300
00000020
,
00000000
00000000
00000000
00000030
,
00000200
00000000
00002300
00000000
00003200
00000000
00000300
00000002
,
00000000
00000000
00000000
00000000
00000000
00000000
00000000
00000003
,
00000002
00000003
00000200
00000300
00000020
00000030
00000100
00000000
,
00000000
00000100
00000000
00000100
00002000
00000000
00000000
00003000
,
00000000
00000000
00000000
00000000
,
00000000
00000000
00000000
00000000
,
00000000
00000000
00000000
00000000
,
00000000
00000000
00000000
00000000
,
00020000
00032000
00003200
00001300
,
00002000
00000000
00003200
00000000
00002300
00000000
00003020
00000030
,
00001000
00000000
00000000
00000100
00000000
00000000
00001000
00000000
,
00000000
00010000
00000000
00000000
00000000
00000000
00010000
00000000
00000000
00000000
00020000
00000000
00000000
00000000
00030000
00000000
,
00200000
00320000
00032000
00003000
,
00000000
00010000
00000000
00002000
00000000
00003000
00200000
00300000
,
00020000
00032000
00003200
00000300
,
00000000
00100000
00000000
00010000
00000000
00200000
00000000
00300000
,
00020000
00030000
02000000
00000000
03200000
00000000
00320000
00030000
,
00000000
00001000
00000000
00200000
00000000
00300000
00200000
00300000
,
02000000
03002000
00203000
00320000
,
02030000
00000000
03200000
00000000
00320000
00000000
00230000
00300000
,
10000000
01000000
10000000
00100000
,
00020000
00030000
01000000
00000000
00000000
00000000
00000000
00000000
,
20000000
30000000
00200000
00000000
01300000
00000000
00000000
02000000
,
00000000
03200000
00300000
00000000
00020000
00000000
00030000
00000000
,
02000000
00000000
03000000
00000000
00020000
00000000
00030000
02000000
,
00000000
00000000
00000000
00000000
00000000
03000000
00000000
00000000
00010000
00000000
00000000
00000000
01000000
00000000
00000000
00000000
,
00020000
00030000
00002000
00000000
00023000
00000000
00230000
00000000
,
00300000
00010000
00100000
00010000
,
00000200
00002300
00023000
00030200
,
00000000
00000000
00000000
00000000
00000000
00000300
00001000
00000000
,
00002000
00003000
00002000
00003000
00020000
00000000
00030100
00000000
,
00000000
00010000
00000000
00000000
00010000
00000000
00001000
00000000
,
00000010
00000100
00000000
00002000
,
00000000
00000000
00000000
00000000
00000000
00003000
00020000
00030000
,
00002000
00000000
00023000
00000000
00032000
00000000
00003000
00000200
,
00000000
00000300
00020000
00030000
00000100
00000000
00000000
00000000
,
00000200
00000300
00002000
00003000
00000002
00000003
00000000
00000020
,
00000000
00000030
00000100
00000000
00000010
00000000
00000010
00000000
,
00000002
00000000
00000003
00002002
,
00000000
00000000
00000000
00000000
00003003
00000000
00002000
00003000
,
00000200
00000300
00000020
00000030
00002000
00003000
00000000
00000200
,
00000000
00000000
00000000
00000300
,
00002000
00003000
00000020
00000030
00000200
00000300
00000000
00002000
,
00000000
00000000
00000000
00000000
00000000
00000000
00000000
00003000
,
00002000
00003000
00000200
00000300
00000200
00000300
00000000
00000200
,
00000000
00000000
00000000
00000300
,
00000100
00000000
00000010
00000000
00000000
00010000
00000000
00000010
,
00000000
00001000
00001000
00200200
,
00000000
00000000
00000000
00000000
,
00000000
00000000
00000000
00000000
,
00000000
00300300
00000000
00000000
;

//---------------dance-double - Medium----------------
#NOTES:
     dance-double:
     Medium:
     Medium:
     7:
     0.485,0.540,0.102,0.972,0.003:
00000000
00000000
00000000
00000000
,
00000000
00000000
00000000
00000000
,
10000000
00000000
01000000
00000000
20000000
31000000
00000000
00200000
,
00000000
00000000
00300000
01000000
,
01000000
00000000
01000000
00000000
00100000
01000000
00000000
02000000
,
00000000
00000000
03100000
00100000
,
00010000
00000000
00010000
00000000
00010000
00100000
00000000
02000000
,
00000000
00100000
00100000
03100000
,
02000000
03000000
00020000
00030000
,
04040000
03030000
01010000
04040000
00000000
00000000
00000000
03030000
,
00000000
00001000
00000000
00001000
00000000
00020000
00000000
00030000
,
00000100
00000000
00010000
00100000
00000000
00002000
00000000
00003000
,
00020000
00000000
00000000
00000000
00000000
00000000
00030000
00002000
00000000
00000000
00000000
00000000
00000000
00003000
00000200
00000000
,
00000000
00000000
00000000
00000300
,
00000000
00000000
00001000
00010000
00100000
00001000
00010000
00000100
,
00000000
00000000
00002000
00003100
00000000
00000200
00000000
00000300
,
00000200
00000000
00001300
00020000
00000000
00000000
00030000
00000000
,
00000200
00000000
00020300
00000000
00030000
00000100
00001000
00010000
,
00011000
00001000
00001000
00001000
,
00000002
00000003
00000001
00000000
00000001
00000000
00000001
00000000
,
00000100
00000100
00000100
00000100
,
00000002
00000000
00000003
00000000
00000010
00000000
00000000
00000000
00000002
00000000
00000000
00000003
00000002
00000000
00000000
00000003
,
00000200
00000300
00000010
00000000
00000100
00000000
00000010
00000000
,
00000020
00000030
00000020
00000030
00000200
00000300
00020000
00000000
,
00030020
00000000
00001030
00000000
00000200
00000300
00020000
00000000
,
00000000
00000000
00000000
00000000
00030000
00000000
00020000
00030000
,
00002000
00000000
00003200
00000000
00000320
00000000
00000130
00000010
,
00000000
00001000
00000000
00002000
00000000
00003000
00001000
00000000
,
00200000
00000000
00320000
00000000
00032000
00000000
00003100
00010000
,
00000000
00100000
00000000
00010000
00000000
00002000
00000000
00003000
,
00020000
00000000
00030000
00000000
00000200
00000000
00000000
00000000
00002000
00000300
00000000
00000000
00023000
00000000
00130000
00000000
,
00000000
00200000
00310000
00200000
00000000
00300000
00010000
00000000
,
00002000
00023000
00230000
00310000
,
00020000
00000000
00130000
00010000
00000000
00100000
00100000
00000000
,
00002000
00000000
00013000
00000000
00010000
00000000
00100000
02000000
,
00000000
00000000
03200000
00000000
00000000
00000000
00000000
00300000
00020000
00000000
00000000
00000000
00031000
00000000
00000000
00000000
,
00100000
00000000
01000000
00000000
20000000
00000000
30100000
02000000
,
00000000
00000000
00000000
03000000
00100000
00000000
10000000
00000000
,
01100000
00000000
00100000
00000000
01000000
00000000
00100000
10000000
,
00000000
00000000
00100000
00000000
00020000
00000000
00000000
00000000
00230000
00000000
00000000
00300000
10000000
00000000
00000000
00000000
,
00200000
00300000
00200000
00000000
02300000
00000000
03200000
00320000
,
00000000
00030000
00001000
00000000
01000000
00000000
00010000
00000000
,
00110000
00000000
00100000
00000000
00010000
00000000
00010000
00100000
,
00000000
02000000
00000000
03000000
00100000
00000000
00010000
00000000
,
00020200
00030300
00001000
00020000
00030000
00000000
00100000
00101000
,
00000000
00001000
00000000
00001000
00000000
00001000
00010000
00001000
,
00020000
00030000
00002000
00003000
00020000
00030000
00000000
00002000
,
00000000
00000000
00000000
00003000
00000200
00000000
00000000
00000000
00002000
00000300
00000000
00000000
00003000
00000000
00000000
00000000
,
00001000
00001000
00000100
00000100
00000010
00000010
00000000
00001000
,
00000200
00002300
00003100
00000100
,
00002020
00000000
00000000
00000000
00000000
00003030
00000000
00002020
,
00000000
00000000
00000000
00000000
00000000
00003030
00002000
00003000
,
00001000
00000000
00000010
00000000
00000001
00000010
00000000
00000002
,
00000000
00000000
00000000
00000000
00000000
00000000
00000000
00000000
00000000
00000000
00000000
00000000
00000000
00000000
00000000
00000003
,
00001000
00000000
00000010
00000000
00000100
00000010
00000000
00000020
,
00000000
00000000
00000000
00000030
,
00000100
00000000
00001000
00000000
00000100
00000010
00000000
00000002
,
00000000
00000000
00000000
00000000
00000000
00000000
00000000
00000003
,
00000001
00000001
00000100
00000100
00000010
00000010
00000100
00000000
,
00000000
00000100
00001000
00000100
00002200
00000000
00000000
00003300
,
00000000
00000000
00000000
00000000
,
00000000
00000000
00000000
00000000
,
00000000
00000000
00000000
00000000
,
00000000
00000000
00000000
00000000
,
00020000
00032000
00003200
00001300
,
00002000
00000000
00003200
00000000
00002300
00000000
00003020
00000030
,
00001000
00000100
00000000
00010000
00000100
00001000
00000100
00001000
,
00000000
00001000
00000000
00001000
00000000
00001000
00000000
00000000
,
00200000
00000000
00320000
00000000
00032000
00000000
00013000
00000100
,
00000000
00010000
00000000
00002000
00000000
00003000
00200000
00300000
,
00020000
00000000
00032000
00000000
00003200
00000000
00001300
00010000
,
00000000
00100000
00000000
00010000
00000000
00200000
00000000
00300000
,
00020000
00030000
02000000
00000000
03200000
00000000
00320000
00031000
,
00000000
00001000
00010000
00200000
00000000
00300000
00200000
00300000
,
02000000
03002000
00203000
00320000
,
02030000
00000000
03200000
00000000
00320000
00000000
00230000
00300000
,
10000000
00100000
01000000
00010000
10000000
01000000
00100000
01000000
,
00020000
00030000
01000000
00100000
00000000
00000000
00000000
00000000
,
20000000
30000000
00200000
00000000
01300000
00000000
10000000
02000000
,
00000000
03200000
00300000
00000000
00020000
00000000
00130000
00000000
,
02000000
00000000
03100000
00000000
00020000
00000000
00130000
02000000
,
00000000
00000000
00000000
00000000
00000000
03000000
00000000
00000000
00010000
00000000
00000000
00000000
01000000
00000000
00000000
00000000
,
00220000
00330000
00002000
00000000
00023000
00000000
00230000
01000000
,
00300000
00010000
00100000
00010000
,
00100200
00000000
00002300
00000000
00023000
00000000
00031000
00000200
,
00000000
00000000
00000000
00000000
00000000
00000300
00001000
00010000
,
00022000
00033000
00002000
00003000
00020000
00000000
00030100
00010000
,
00000000
00010000
00000000
00000000
00010000
00000000
00001000
00000000
,
00000010
00000000
00000100
00001000
00000000
00010000
00002000
00000000
,
00000000
00000000
00000000
00000000
00000000
00003000
00020000
00030000
,
00002000
00000000
00023000
00000000
00032000
00000000
00003000
00000200
,
00000000
00000300
00020000
00030000
00000100
00000000
00000000
00000000
,
00000100
00000010
00001000
00000100
00000001
00000010
00000000
00000020
,
00000100
00000030
00000100
00000000
00000010
00000000
00000010
00000000
,
00000002
00000000
00000003
00002002
,
00000000
00000000
00000000
00000000
00003003
00000000
00002000
00003000
,
00000100
00000000
00000010
00000000
00000100
00020000
00000000
00030200
,
00000000
00000000
00000000
00001300
,
00001000
00000000
00000010
00000000
00000100
00001000
00000000
00002000
,
00000000
00000000
00000000
00000000
00000000
00000000
00000000
00003000
,
00001000
00000000
00000100
00000000
00000100
00001000
00000000
00000200
,
00000000
00000000
00000000
00000300
,
00001000
00000000
00000100
00001000
00000000
00100000
00001000
00000100
,
00000000
00010000
00001000
00000000
00001000
00010000
00200200
00000000
,
00000000
00000000
00000000
00000000
,
00000000
00000000
00000000
00000000
,
00000000
00300300
00000000
00000000
;

//---------------dance-double - Hard----------------
#NOTES:
     dance-double:
     Hard:
     Hard:
     10:
     0.615,0.911,0.362,1.000,0.102:
00000000
00000000
00000000
00000000
,
00000000
00000000
00000000
00000000
00000000
00000000
10000000
00000000
00100000
00000000
01000000
00000000
20000000
32000000
03200000
00320000
,
00000000
00030000
00000000
00000000
01000000
00000000
00000000
00000000
20000000
00000000
31000000
00000000
00000000
00000000
00200000
00000000
,
00000000
01000000
10300000
01000000
,
00100000
00000000
00100000
00000000
00010000
00100000
00000000
00200000
,
00000000
00001000
00310000
00010000
,
00010000
00000000
00010000
00000000
00010000
00100000
00000000
02000000
,
00000000
00000000
00000000
00000000
00100000
00000000
00000000
00000000
00100000
00000000
00000000
00000000
03100000
00000000
00100000
01000000
,
00000100
00010000
00001000
00010000
00001000
00100000
00000000
00000100
00010000
00001000
00000100
00010000
00001000
00100000
00010000
00000000
,
00100000
00000000
00000000
00000000
00010100
00000000
00010100
00000000
00100000
00010000
00100000
00001000
00000100
00100000
00000100
00010000
,
00000200
00000300
00002000
00003000
00000000
00000000
00001000
00000000
00000000
00000000
00020000
00000000
00000000
00000000
00030000
00000000
,
00000100
00000000
00010000
00100000
00000000
00002000
00000000
00003000
,
00002000
00000000
00000000
00000000
00000000
00000000
00003000
00000200
00000000
00000000
00000000
00000000
00000000
00000300
00000020
00000000
,
00000000
00000000
00000000
00000030
,
00000000
00000000
00000100
00001000
00010000
00000100
00001000
00000010
,
00000000
00000000
00002000
00003100
00000000
00000200
00000000
00000300
,
00000010
00000000
00000200
00000000
00001000
00000000
00020300
00000000
00030000
00000000
00000000
00000100
00010000
00000100
00001000
00000010
,
00000010
00000001
00000010
00000001
00000001
00000010
00000100
00001000
,
00000100
00000000
00000000
00000000
00000100
00000000
00000000
00000000
00000100
00000000
00000000
00000000
00000100
00000000
00000001
00000100
,
00000002
00000003
00000001
00000000
00000001
00000000
00000001
00000000
,
00000100
00000000
00000100
00000000
00000100
00000000
00000100
00000010
,
00000020
00000000
00000000
00000030
00000020
00000000
00000030
00000000
00000020
00000000
00000000
00000030
00000020
00000000
00000000
00000030
,
00002200
00003300
00000100
00001000
00010000
00000010
00010000
00001000
,
00000000
00001000
00000100
00000020
00000030
00000000
00020000
00000000
,
00030020
00000000
00001030
00000100
00000000
00001000
00010000
00002000
,
00000000
00000000
00003000
00202000
00303000
00000000
00200000
00300000
,
00020000
00000000
00032000
00000000
00003200
00000000
00001300
00010100
,
00000000
00101000
00000000
00022000
00000000
00033000
00001000
00000000
,
00200000
00000000
00320000
00000000
00032000
00000000
00003100
00010100
,
00000000
01010000
00000000
00110000
00000000
00202000
00303000
00000000
,
00202000
00000000
00303000
00000000
00002000
00000000
00000000
00000000
00020000
00003000
00000000
00000000
00230000
00000000
01300000
00000000
,
00000000
00200000
00310000
00200000
00000000
00300000
00110000
00000000
,
00002000
00023000
00230000
00310000
,
00200000
00000000
00000000
00000000
01300000
00000000
01100000
00000000
00000000
00000000
00100000
00000000
10000000
00100000
01000000
00000000
,
01020000
00000000
00130000
00000000
00100000
00000000
01000000
20000000
,
00000000
00000000
32000000
00000000
00000000
00000000
00000000
03000000
00200000
00000000
00000000
00000000
00310000
00000000
00000000
00000000
,
00100000
00000000
01000000
00000000
20000000
00000000
30100000
02000000
,
00000000
00000000
00000000
00000000
00000000
00000000
03100000
10000000
00100000
00000000
01000000
00000000
00010000
01000000
00100000
00010000
,
00100000
00000000
00010000
00000000
00100000
00000000
00010000
02000000
,
00000000
00000000
00010000
00000000
00002000
00000000
00000000
00000000
00023000
00000000
00000000
03030000
01010000
00000000
00000000
00000000
,
00220000
00330000
00200000
00000000
02300000
00000000
03200000
00320000
,
00000000
00000000
00030000
00000000
00000000
00000000
00010000
01000000
00010000
00000000
00010000
00000000
00100000
00010000
00100000
00000000
,
00100000
00000000
00010000
00000000
00001000
00000000
00001000
00010000
,
00000000
00200000
00000000
00300000
00010000
00000000
00001000
00000000
,
00020200
00030300
00001000
00022000
00033000
00000000
00100000
00201000
,
00000000
00001000
00000000
00001000
00300000
00101000
00010000
00001000
,
00002000
00003000
00000200
00000300
00002000
00003000
00000000
00000200
,
00000000
00000000
00000000
00000300
00000020
00000000
00000000
00000000
00000200
00000030
00000000
00000000
00000300
00000000
00000000
00000000
,
00001000
00001000
00000100
00000100
00000010
00000010
00000000
00001000
,
00000200
00002300
00003100
00000100
,
00000202
00000000
00000000
00000303
00000000
00000200
00000010
00000002
,
00000000
00000000
00000000
00000000
00000000
00000303
00000200
00000300
,
00001000
00000000
00000010
00000000
00000001
00000010
00000000
00000002
,
00000000
00000000
00000000
00000000
00000000
00000000
00000000
00000000
00000000
00000000
00000000
00000000
00000000
00000000
00000000
00000003
,
00001000
00000000
00000010
00000000
00000100
00000010
00000000
00000020
,
00000000
00000000
00000000
00000030
,
00001000
00000000
00010000
00000000
00001000
00000100
00000000
00000020
,
00000000
00000000
00000000
00000000
00000000
00000000
00000000
00000030
,
00000010
00000010
00001000
00001000
00000100
00000100
00001000
00000000
,
00000000
00000100
00001000
00000100
00002200
00000000
00000000
00003300
,
00000000
00000000
00000000
00000000
,
00000000
00000000
00000000
00000000
,
00000000
00000000
00000000
00000000
,
00000000
00000000
00000000
00000000
,
00020000
00032020
00003230
00001310
,
00020000
00000000
00232000
00000000
00323000
00000000
00230200
00300300
,
00010000
00000000
00101000
00000000
00000000
00000000
00100000
00000000
00101000
00000000
00010000
00100000
00001000
00000000
00101000
00000000
,
00000000
00101000
00000000
00101000
00000000
00101000
00000000
00000000
,
00200000
00000000
00320000
00000000
00032000
00000000
00013000
00010100
,
00000000
00101000
00000000
00220000
00000000
00330000
02000000
03000000
,
00200000
00000000
00320000
00000000
00032000
00000000
00013000
00110000
,
00000000
01100000
00000000
01010000
00000000
00220000
00000000
00330000
,
02020000
03030000
02000000
00000000
03200000
00000000
00320000
00031000
,
00000000
00010000
00100000
02000000
00000000
03000000
02000000
03000000
,
20000000
30020000
02030000
03200000
,
20300000
00000000
32000000
00000000
03200000
00000000
02300000
03000000
,
10000000
00100000
01000000
00010000
10000000
01000000
00100000
01000000
,
00002000
00000000
00003000
00000000
00100000
00000000
00010000
00000000
00000000
00000000
01000000
00000000
01000000
00001000
00100000
00000000
,
02002000
03003000
00020000
00000000
00130000
00000000
01000000
00200000
,
00000000
00320000
00030000
00000000
00002000
00000000
00013000
00000000
,
02000000
00000000
03100000
00000000
00120000
00000000
00130000
02000000
,
00000000
00000000
00000000
00000000
00000000
03000000
00010000
00001000
00010000
00001000
00010000
00000000
00001000
00000000
00000100
00100000
,
00002000
00000000
00000000
00003000
00000200
00000000
00000000
00000000
00002300
00000000
00000000
00000000
00023000
00000000
00100000
00000000
,
00030000
00001000
00010000
00011000
,
00100200
00000000
00002300
00000000
00023000
00000000
00031000
00000200
,
00000000
00000000
00000000
00000000
00000000
00000000
00000300
00000100
,
00000100
00000000
00000200
00000000
00002300
00000000
00003010
00001000
,
00000000
00001000
00000000
00000000
00001000
00000000
00000100
00000000
,
00000010
00000000
00000100
00001100
00000000
00010000
00022000
00000000
,
00000000
00000000
00000000
00000000
00000000
00000000
00033000
00000000
00000010
00000001
00000100
00000010
00002000
00000000
00003100
00000000
,
00000200
00000000
00002300
00000000
00003200
00000000
00000300
00000020
,
00000000
00000030
00002000
00003000
00001010
00000000
00000000
00000000
,
00000100
00000010
00001000
00000100
00000001
00000010
00000000
00000020
,
00000100
00000030
00000110
00000000
00001010
00000000
00000110
00000000
,
00002020
00000000
00003030
00020020
,
00000000
00000000
00000000
00000000
00030030
00000000
00020000
00030000
,
00000100
00000000
00000010
00000000
00000100
00020000
00000000
00030200
,
00000000
00001000
00010000
00001300
,
00010000
00000000
00000100
00000000
00001000
00010000
00000000
00020000
,
00000000
00000000
00001000
00000000
00000100
00000000
00001000
00030000
,
00010000
00000000
00001000
00000000
00001000
00010000
00000000
00002000
,
00000000
00100000
00010000
00103000
,
00010000
00000000
00001000
00010000
00000000
01000000
00010000
01001000
,
00000000
00101000
01010000
00000000
00010000
00100000
02002000
00000000
,
00000000
00000000
00000000
00000000
,
00000000
00000000
00000000
00000000
,
00000000
03003000
00000000
00000000
;
