#TITLE:Torikoriko PLEASE!!;
#SUBTITLE:;
#ARTIST:Aqours;
#TITLETRANSLIT:;
#SUBTITLETRANSLIT:;
#ARTISTTRANSLIT:;
#GENRE:;
#CREDIT:CHMEX;
#BANNER:banner.png;
#BACKGROUND:BGI.png;
#LYRICSPATH:;
#CDTITLE:;
#MUSIC:Torikoriko PLEASE!!.mp3;
#OFFSET:0.000;
#SAMPLESTART:48.820;
#SAMPLELENGTH:12.000;
#SELECTABLE:YES;
#BPMS:0.000=140.000,121.000=140.000,122.000=140.000,123.000=160.000,124.000=180.000,125.000=200.000,126.000=240.000,127.000=260.000,127.500=270.000,129.000=140.000;
#STOPS:0.000=0.100
;
#BGCHANGES:0.000=BGA.avi=1.000=0=0=0=StretchNoLoop====,
99999=-nosongbg-=1.000=0=0=0 // don't automatically add -songbackground-
;
#KEYSOUNDS:;

//---------------dance-single - Blank----------------
#NOTES:
     dance-single:
     Blank:
     Hard:
     8:
     0.595,0.669,0.290,0.390,0.280:
0000
0000
0000
0000
,
0000
0000
0000
0000
,
0000
0000
0000
0010
,
0010
0000
0010
0010
0000
0000
0100
0001
,
0010
0000
0100
0010
0000
0100
1000
0000
0100
0000
1000
0000
0100
0000
0010
0000
,
0100
0000
1000
0001
0000
0100
0001
0000
0100
0000
0010
0000
0001
0000
0010
0000
,
0100
0000
0010
0001
0000
0100
0010
0000
0001
0000
0010
0000
0100
0000
1000
0000
,
0100
0000
0010
0100
0010
0001
0100
1000
0100
0001
0010
0100
1000
0000
0000
0000
,
1000
1000
1100
0100
,
0100
0100
0110
0010
,
0010
0010
0011
0001
,
0001
0001
0101
0100
,
0100
0100
0110
0100
,
0100
0010
1010
0100
,
0100
0000
0010
1000
0010
0100
0010
0001
,
0010
0100
1000
0100
0001
0010
0100
1000
,
0100
0010
0002
0203
0302
0013
0100
1000
,
0100
0000
0010
0000
0001
0000
0200
0000
0002
0300
2003
0000
3010
0000
0100
0000
,
1000
0100
0010
0200
0320
0230
0310
0001
,
1000
0100
0020
0230
0302
0203
1300
0100
,
0010
0001
0200
0320
0230
2300
3001
0010
,
0100
2000
3200
0320
0031
0100
0020
0000
,
0000
0000
0000
0000
0000
0000
0000
0000
0000
0030
0000
0000
0200
0000
0000
0000
,
0000
0300
2000
0000
3020
0000
2030
0000
,
3000
0100
0020
0000
0000
0000
0000
0000
,
0030
0100
1000
0200
,
0310
0001
0000
0100
0000
2000
0000
0000
,
0000
0000
3000
0000
0100
0001
0020
0000
,
0100
0000
0100
0000
0100
0030
0100
0010
,
0100
0000
1000
0000
0100
0000
0010
0000
0100
0000
0001
0000
0100
0001
1000
0001
,
1000
0001
1000
0001
1000
0001
1000
0001
1000
0001
1000
0001
2000
0000
0000
0000
,
0000
0000
0000
3000
,
0000
0000
1001
0010
0100
0010
0101
0010
,
1000
0010
0101
1000
0010
1000
0110
0100
,
0010
0100
1010
0010
0100
0011
0000
0101
,
0000
1001
0000
0010
0001
0010
0000
0100
,
0000
0000
2020
0000
3130
0010
1000
0100
,
0110
0100
0010
0100
1001
0100
0000
1000
,
0000
0020
0000
0000
0030
1100
0000
0101
,
0000
0000
0110
0000
0000
0000
0000
0000
0000
0000
0010
0001
1000
0001
0100
0010
,
1000
0001
0100
0010
1000
0000
0100
0000
1010
0000
1000
0000
0100
0000
1000
0000
,
0010
1000
0100
0010
1001
0100
0010
1000
,
0100
1000
0010
0100
0011
0101
0000
1001
,
0000
0202
0303
0010
0010
0100
0000
1000
,
0000
0000
2020
3030
1010
0000
0100
0010
,
0100
0010
1000
0100
1010
0100
1000
0010
,
0100
0001
2000
0000
3000
0000
0000
0000
,
0100
0010
1000
0100
1000
0000
0010
0000
0100
0000
1000
0100
0000
0010
0100
0000
,
1000
0000
0100
0000
0010
0000
0100
0000
0010
0000
0100
0010
0000
0001
0100
0000
,
1000
0000
0100
0000
0010
0000
0100
0000
0001
0000
0100
0010
0000
0100
1000
0000
,
0100
0000
0020
0000
0000
0000
0000
0030
0100
0000
1000
0000
0100
0010
0001
0100
,
0010
1000
0100
0001
0100
0000
0010
0000
1000
0000
0010
1000
0000
0100
0001
0000
,
0100
0000
0010
0000
1000
0000
0010
0000
0100
0000
1000
0100
0000
0100
0010
0000
,
0001
0000
0010
0000
0100
0000
0010
0000
1000
0000
0100
0001
0000
0100
1000
0000
,
0100
0000
0010
0000
0100
0000
0010
0000
0100
0000
0001
0010
0100
0010
0001
1000
,
0010
0100
0010
1000
0000
0000
0000
0000
0000
0000
0000
0000
0000
0000
0000
0000
,
0000
0000
0000
M000
0000
0000
0000
000M
0000
0000
0000
M000
0000
0000
0000
000M
,
0000
0000
0000
0M00
0000
0000
0000
00M0
0000
0000
0000
0M00
0000
0000
0000
00M0
,
0000
0000
0000
0M00
0000
0000
0000
0000
0000
0000
0000
0000
0000
0000
0000
0000
;

//---------------dance-single - Hard----------------
#NOTES:
     dance-single:
     Hard:
     Challenge:
     11:
     0.711,0.821,0.510,0.580,0.340:
0000
0000
0000
0000
,
0000
0000
0000
0000
,
0000
0000
0000
0210
,
0010
0000
0010
0310
0000
0000
0100
0001
,
1001
0000
0100
0010
0000
0100
1000
0000
0100
0000
1000
0000
0100
0000
0010
0000
,
1001
0000
1000
0001
0000
0100
0001
0000
0100
0000
0010
0000
0001
0000
0010
0000
,
1001
0000
0010
0001
0000
0100
0010
0000
0001
0000
0010
0000
0100
0000
1000
0000
,
1001
0000
0010
0100
0010
0001
0100
1000
0100
0001
0010
1000
0200
0000
0300
0000
,
1000
1000
1010
0110
,
0100
0100
0110
0101
,
0010
0010
1010
0110
,
0010
0010
0110
0101
,
0010
0010
1010
0110
,
0010
0010
0110
0200
,
0010
0000
2300
3200
0320
0230
0302
0023
,
2030
3200
2300
3002
0023
0230
2300
3100
,
0010
0002
0203
0302
0023
0130
1000
0100
,
0010
0001
0200
0302
2003
3020
0130
1000
,
0100
0020
0230
0302
0203
0310
0001
1000
,
0200
0320
0230
0320
2030
3020
0130
0010
,
0001
0100
0020
0230
0320
2030
3010
0100
,
2000
3200
0320
0032
0203
0310
0200
0000
,
0000
0000
0000
0000
0000
0000
0000
0300
0000
0000
0010
0001
0010
0000
0100
0000
,
1000
0000
0100
0000
0010
0000
0100
0000
1000
0000
0010
0000
2000
3000
0000
0000
,
0100
0021
0001
0001
,
0031
0110
1000
0200
,
0320
0031
0100
2010
,
0010
0000
3010
0000
0100
0001
0020
0000
,
0100
0000
0000
0000
0001
0000
0000
0000
0100
0000
0000
0000
0031
0100
0010
0001
,
0100
0010
1000
0010
0100
1000
0010
1000
0100
0010
0001
0010
0100
1000
0001
0100
,
0001
0010
0001
1000
0100
0010
0100
0010
0100
1000
0001
1000
0002
0000
0000
0000
,
0003
0000
0000
0000
,
0000
0000
1000
0100
0101
0010
1000
0100
,
0101
0010
0100
1000
0110
0010
0001
0100
,
1010
0001
1000
0001
0110
1000
0000
1010
,
0000
0000
0101
0000
0001
1000
0100
0000
0010
0000
0001
0000
0100
1000
0100
0000
,
0010
0000
0100
0010
2000
0000
3000
0000
1010
0000
0100
0000
0010
0000
0100
0000
,
0101
0100
1000
0100
0101
0010
1000
0010
,
0101
0010
0022
0000
0030
0010
0000
0010
,
0003
0000
0100
0000
0000
0000
0000
0000
0000
0000
0010
0001
1000
0001
0100
0010
,
1000
0001
0100
0010
1000
0000
0100
0000
1010
0000
0001
0000
0100
0000
0010
0000
,
1010
0010
0001
0100
1001
0100
1000
0010
,
0110
0100
1000
0100
0011
0101
0000
1001
,
0000
0000
0202
0000
0303
0000
0010
1000
0010
0000
0100
0000
0010
0100
1000
0000
,
0001
0100
0010
0100
0001
0000
0100
0000
1010
0000
0010
0000
0001
0000
0010
0000
,
0101
0100
1000
0100
1010
0010
0100
0010
,
0110
0100
2010
0000
3000
0000
0000
0000
,
0100
0010
1000
0001
1000
0000
0010
0000
1001
0000
1000
0100
0000
0010
0100
0000
,
1000
0000
0100
0000
0010
0000
0100
0000
1001
0000
0100
0010
0000
0001
0100
0000
,
1000
0000
0100
0000
0010
0000
0100
0000
1001
0000
0100
0010
0000
0100
1000
0000
,
0100
0000
0020
0000
0000
0000
1000
0030
0100
0000
1000
0000
0100
0010
0001
0100
,
0010
1000
0100
0001
0100
0000
0010
0000
1001
0000
0010
1000
0000
0100
0001
0000
,
0100
0000
0010
0000
1000
0000
0010
0000
1001
0000
1000
0100
0000
0100
0010
0000
,
0001
0000
0010
0000
0100
0000
0010
0000
1001
0000
0100
0001
0000
0100
1000
0000
,
0100
0000
0010
0000
0100
0000
0010
0000
1001
0000
0001
0010
0100
0010
0001
1000
,
0010
0100
0010
1000
0000
0000
0000
0000
0000
0000
0000
0000
0000
0000
0000
0000
,
0000
0000
0000
0000
,
0000
0000
0000
0000
0000
0000
0000
0000
0000
0000
0000
M000
0000
0000
0000
000M
,
0000
0000
0000
0M00
0000
0000
0000
00M0
0000
0000
0000
0M00
0000
0000
0000
0000
;

//---------------dance-single - Hard----------------
#NOTES:
     dance-single:
     Hard:
     Medium:
     6:
     0.414,0.470,0.020,0.260,0.025:
0000
0000
0000
0000
,
0000
0000
0000
0000
,
0000
0000
0000
0010
,
0010
0000
0010
0010
0000
0000
0010
0100
,
0010
0100
0010
1000
0010
0000
0100
0001
,
0100
0001
0010
0100
0010
0000
0010
1000
,
0100
1000
0100
0001
0100
0000
0100
0001
,
0010
0001
0010
0100
1000
0100
2000
0000
,
3000
1000
1000
0000
,
0100
0100
0100
0000
,
0010
0010
0010
0000
,
0001
0001
0001
0000
,
1000
1000
1000
0000
,
0010
0100
0010
0200
,
0000
0000
0300
0010
0100
0010
0100
0010
,
0001
0010
0100
0010
0001
0010
2000
3000
,
0100
0010
0200
0300
0000
0010
0100
1000
,
0100
0000
0010
0000
0200
0000
0000
0300
0000
0000
0100
0000
0010
0000
0100
0000
,
1000
0000
0100
0000
0010
0000
0100
0000
0010
0000
0100
0000
0020
0000
0000
0030
,
2000
0000
0010
3000
0000
0000
0200
0000
0000
0000
1300
0000
0010
0000
0100
0000
,
0001
0000
0100
0000
0002
0000
0000
0003
0100
0000
0010
0000
0200
0000
0000
0300
,
1000
0001
0000
0001
0000
0100
0020
0000
,
0000
0000
0000
0000
0000
0000
0000
0030
0000
0000
0000
0000
0000
0000
0000
0000
,
0000
0000
0000
0000
0020
0000
0000
0030
2000
0000
0000
3000
0020
0000
0000
0030
,
0000
0100
0020
0000
0000
0000
0000
0000
,
0030
0100
1000
0200
,
0320
0031
0100
1000
,
0100
0000
0010
0000
0100
0001
0020
0000
,
0000
0000
0000
0000
0000
0030
0100
0010
,
0100
1000
0100
0010
0100
0001
0100
0010
,
0100
0010
1000
0010
0100
0010
0200
0000
,
0300
0000
0000
0000
,
0000
0000
0001
0000
1000
0000
0001
1000
,
0010
0000
0100
0000
0010
0000
0100
0001
,
0100
0000
0100
0010
1000
0100
0000
0010
,
0000
0202
0000
0303
0010
0000
0100
0001
,
0010
0000
2000
0000
3010
0000
1000
0010
,
1000
0000
0010
0000
0001
0000
0001
1000
,
0020
0000
0000
0000
0030
0010
0000
0010
,
0000
0010
0000
0000
0000
0010
1000
0100
,
1000
0100
1000
0000
0010
0000
0100
0001
,
0010
0000
0100
0000
1000
0000
0010
1000
,
0100
0000
0010
0000
0001
0100
0000
1010
,
0000
0200
0300
1000
0000
0100
0000
0010
,
0000
0010
0001
0000
1000
0000
0001
1000
,
0100
0000
0010
0000
0001
0000
0001
1000
,
0100
0000
0020
0030
0000
0000
0000
0000
,
1000
0010
1000
0000
0010
0100
1000
0100
,
0010
0000
0100
0010
0100
0010
0100
0010
,
0100
0000
0100
0010
0100
0001
0100
0010
,
1000
0200
0000
0300
0010
0100
1000
0100
,
0001
0010
0100
0001
0010
1000
0010
1000
,
0001
0000
0010
1000
0010
0100
1000
0100
,
0010
0000
0010
0100
0010
1000
0100
0001
,
0100
1000
0010
0100
0010
0100
0001
0010
,
0001
0100
0010
0000
0000
0000
0000
0000
,
0000
0000
0000
0000
,
0000
0000
0000
0000
0000
0000
0000
0000
0000
0000
0000
0000
0000
M000
0000
0000
,
0000
000M
0000
0000
0000
0M00
0000
0000
0000
00M0
0000
0000
0000
0M00
0000
0000
;

//---------------dance-single - Medium----------------
#NOTES:
     dance-single:
     Medium:
     Easy:
     4:
     0.268,0.264,0.000,0.210,0.000:
0000
0000
0000
0000
,
0000
0000
0000
0000
,
0000
0000
0000
0010
,
0010
0000
0010
0010
0000
0000
1000
0000
,
0100
1000
0100
0010
,
0100
0010
0100
0010
,
0100
0010
0100
0010
,
0010
0200
0000
0300
,
1000
1000
1000
0000
,
0100
0100
0100
0000
,
0010
0010
0010
0000
,
0001
0001
0001
0000
,
1000
1000
1000
0000
,
0010
0100
0010
0200
,
0000
0000
0300
0010
0100
0000
0100
0000
,
0001
0000
0100
0000
0001
0000
2000
3000
,
0010
0002
0003
0010
,
0100
0002
0003
0010
,
0100
0001
1000
0010
,
1000
0010
1000
0010
,
0001
0100
0010
1000
,
0100
0100
0010
0200
,
0000
0000
0300
0001
,
0100
0010
0100
2000
,
3000
0020
0000
0000
,
0030
0100
1000
0200
,
0300
0200
0300
2000
,
0000
3000
0100
0020
,
0000
0000
0000
0000
0000
0030
0200
0000
,
0300
0020
0030
4000
,
0000
0000
0000
3002
,
0003
0000
0000
0000
,
0000
0001
0001
0001
,
0010
0010
0010
0100
,
0100
0100
1000
1000
,
1000
0100
0100
0100
,
0100
0000
0000
0000
2000
0000
0000
0000
0000
0000
0000
3000
0010
0000
0000
0000
,
0010
0010
0100
0100
,
0100
0200
0000
0000
,
0000
0300
0000
0000
0000
0000
0010
0000
,
0100
0001
0010
0100
,
0010
0100
0100
0100
,
0010
0000
0010
0000
0010
0010
0000
0100
,
0000
0200
0300
0000
0010
0000
0010
0000
,
0001
0001
0001
0010
,
0010
0010
0100
0100
,
0100
0000
0020
0030
0000
0000
0000
0000
,
2000
3010
0100
0100
,
0100
0010
0010
0010
,
1000
1000
1000
0001
,
0001
0002
0003
0100
,
0100
0100
1000
1000
,
1000
0001
0001
0001
,
0100
0100
0100
0010
,
0010
0010
0100
0100
,
0100
0000
0000
0000
,
0000
0000
0000
0000
,
0000
0000
0000
M000
,
000M
0M00
00M0
0M00
;

//---------------dance-single - Easy----------------
#NOTES:
     dance-single:
     Easy:
     Beginner:
     3:
     0.166,0.205,0.000,0.180,0.000:
0000
0000
0000
0000
,
0000
0000
0000
0000
,
0000
0000
0000
0000
,
0000
0000
0000
1000
,
0000
1000
0000
0010
,
0000
0010
0000
0010
,
0000
0100
0000
0100
,
0000
0002
0000
0003
,
1000
0000
1000
0000
,
0100
0000
0100
0000
,
0010
0000
0010
0000
,
0001
0000
0001
0000
,
1000
0000
1000
0000
,
0010
0000
0010
0000
,
0100
0000
0100
0000
,
0100
0010
0001
0100
,
0010
0000
0100
0000
,
0100
0000
0001
0000
,
0100
0000
1000
0000
,
0010
0000
0100
0000
,
0001
0000
0010
0000
,
0010
0000
0010
0200
,
0000
0000
0300
0001
,
0000
0010
0000
2000
,
3000
0020
0000
0000
,
0030
0020
0030
0200
,
0300
0200
0300
2000
,
0000
3000
0100
0020
,
0000
0000
0000
0000
0000
0030
0200
0000
,
0300
0020
0030
0200
,
0000
0000
0000
0302
,
0003
0000
0000
0000
,
0000
0001
0000
0010
,
0000
0100
0000
0010
,
0000
1000
0000
0010
,
0000
0100
0000
1000
,
2000
0000
3000
0001
,
0000
0100
0000
0010
,
0000
0000
0020
0000
0000
0000
0000
0030
,
0000
0000
0000
0001
,
0000
0010
0000
0010
,
0000
0100
0000
0010
,
0000
0100
0000
0010
,
0000
0010
0000
0001
,
0000
0001
0000
0010
,
0000
0100
0000
0100
,
0020
0030
0000
0000
0000
0000
2000
0000
,
3000
0100
0000
0100
,
0000
0010
0000
1000
,
0000
1000
0000
0002
,
0000
0003
0001
1000
,
0010
0100
0000
1000
,
0000
0100
0000
0001
,
0000
0010
0000
0100
,
0000
0010
0000
0100
,
0000
0000
0000
0000
,
0000
0000
0000
0000
,
0000
0000
M000
000M
,
0M00
00M0
0M00
0000
;
