#TITLE:Strawberry trapper;
#SUBTITLE:;
#ARTIST:Guilty Kiss;
#TITLETRANSLIT:;
#SUBTITLETRANSLIT:;
#ARTISTTRANSLIT:;
#GENRE:;
#CREDIT:CHMX;
#BANNER:banner.png;
#BACKGROUND:BGI.png;
#LYRICSPATH:;
#CDTITLE:;
#MUSIC:Strawberry trapper.mp3;
#OFFSET:0.000;
#SAMPLESTART:61.200;
#SAMPLELENGTH:12.000;
#SELECTABLE:YES;
#BPMS:0.000=195.000,11.000=210.000,12.000=195.000,155.000=210.000,156.500=290.000,159.250=195.000,160.000=295.000,161.500=195.000,164.750=295.000,167.250=195.000,168.000=295.000,170.250=90.000,170.500=130.000,170.667=350.000,172.000=195.000,173.500=195.000,174.000=195.000,191.500=200.000,192.500=195.000,196.500=670.000,198.500=600.020,199.500=195.000,200.500=195.000;
#STOPS:156.000=0.020
,156.250=0.040
,157.000=0.040
,157.250=0.030
,157.500=0.020
,157.750=0.020
,158.000=0.020
,158.250=0.020
,158.500=0.020
,158.750=0.020
,159.000=0.040
,159.250=0.020
,160.000=0.020
,160.250=0.020
,160.500=0.020
,160.750=0.020
,161.000=0.020
,161.250=0.030
,164.000=0.020
,164.250=0.040
,164.750=0.020
,165.000=0.020
,165.250=0.020
,165.500=0.020
,165.750=0.020
,166.000=0.020
,166.250=0.020
,166.500=0.020
,166.750=0.020
,167.000=0.040
,167.250=0.020
,168.000=0.020
,168.250=0.020
,168.500=0.020
,168.750=0.020
,169.000=0.020
,169.250=0.020
,169.500=0.020
,169.750=0.040
,170.000=0.070
,196.500=0.120
,197.000=0.120
,197.500=0.120
,198.000=0.120
,198.500=0.200
;
#BGCHANGES:0.000=BGA.avi=1.000=0=0=1=StretchNormal====,
99999=-nosongbg-=1.000=0=0=0 // don't automatically add -songbackground-
;
#KEYSOUNDS:;

//---------------dance-single - Blank----------------
#NOTES:
     dance-single:
     Blank:
     Hard:
     9:
     0.744,0.962,0.616,0.668,0.113:
0000
0000
0000
0000
,
0000
0000
0000
0000
,
0000
0000
0000
0000
,
0000
0000
0000
0000
,
0000
0000
0000
0000
,
0000
0001
0000
0001
,
1000
0000
0001
0000
0100
0000
0010
1000
,
0000
1010
0001
0010
1000
0010
0100
1000
,
0000
1010
0001
0010
0100
1000
0010
1000
,
0000
1010
0001
0010
1000
0100
1000
0020
,
0030
0100
1000
0020
0030
0010
0100
0202
,
0303
0001
0010
1000
0100
1000
0010
2000
,
0000
3001
0010
0100
1000
0010
0100
2000
,
0000
3001
0010
0100
0100
1000
0100
0020
,
0030
0010
1000
0020
0000
0000
0030
0220
,
0000
0330
1000
0010
1000
0001
0000
0010
,
0000
1000
0002
0000
0003
0000
0000
0010
,
0000
0100
0001
0010
1000
0100
1000
0010
,
0000
0100
0020
0000
0000
0030
0000
0000
,
0000
0000
0001
1000
0010
0100
0000
0001
,
0000
0010
2000
0000
0000
3000
0000
0100
,
0000
0010
0001
1000
0100
1000
0020
0000
,
0000
0000
0030
0000
2020
0000
3030
2020
,
0000
3030
1000
0010
0100
0001
0010
0022
,
0000
0033
1000
0100
1000
0010
0100
0022
,
0000
0033
1000
0100
1000
0010
0100
0022
,
0033
0001
0100
0010
0001
0020
0000
0030
,
0010
0000
0010
0100
0001
0010
1000
2200
,
3300
0000
0100
0000
1000
0000
0010
0000
0010
0000
0001
1000
0010
0000
0100
1000
,
0001
0010
1000
0010
0001
0010
1000
0010
,
0001
0001
0010
1000
0001
1000
0010
0100
,
2002
3003
0000
0000
0001
0000
0000
0000
0011
0000
0000
0000
0010
0000
0000
0000
,
1000
0100
1100
0100
,
0001
0010
0011
0001
,
0100
1000
1100
1000
,
0001
0010
0011
0001
,
1000
0100
1100
0001
,
0010
1000
1100
1000
,
0001
0000
0000
0000
0100
0000
0000
0000
1001
0000
0000
0000
0010
0000
0000
0100
,
0001
0000
0000
0000
0001
0010
0001
0010
0001
0010
0001
0010
0001
0010
0000
0000
,
1000
0100
1000
0100
1000
0100
1000
0000
0010
0000
1000
0000
0010
0000
0100
0000
,
1000
0010
0000
1000
0100
1000
0100
1000
0100
1000
0100
1000
0100
1000
0000
0000
,
0010
0100
0010
0100
0010
0100
0010
0200
0020
0000
0000
0000
0000
0000
0000
0330
,
0001
0001
0000
0001
1000
0000
0000
0000
,
1000
1000
0000
1000
0010
0000
0000
0000
,
0101
0010
0000
1001
0010
0000
0101
0010
,
0000
1000
0001
1000
0001
0010
1000
0100
,
1000
1000
0000
0010
0010
0000
1001
2002
,
0003
3002
2003
3002
1003
1001
0001
1001
,
0000
0200
0302
0203
0302
0203
0300
1001
,
0000
0000
1010
0000
2100
0000
3000
1000
,
0000
0001
0010
1000
0100
2000
3000
1001
,
0000
0000
0101
0000
2100
0000
3000
0100
,
0000
0001
0010
1000
0001
2000
3000
1010
,
0000
0000
1010
0000
2100
0000
3000
1000
,
0000
0010
0100
0001
0010
1000
0000
0000
,
1001
0000
1001
1010
0000
1001
0000
0101
,
0000
0000
0220
0000
0000
0330
0000
2020
,
0000
3030
0220
0330
0200
0000
0300
0002
,
0003
1000
0001
0010
1000
0100
1000
0200
,
0000
0300
1000
0000
0001
0010
0000
2000
,
0000
3100
0010
1000
0001
0010
0100
0010
,
1000
0000
1000
0000
0010
0100
0000
0002
,
0000
0003
0010
0000
1000
0000
0100
0110
,
0000
0020
0000
0000
,
0030
0000
0000
0000
0000
0000
0010
0100
,
0001
0100
0000
0000
1000
0000
0100
0010
,
1000
0001
0010
0000
0100
0000
0010
0000
,
2002
3003
0010
0200
0000
0000
0000
0300
,
0001
0000
0010
0000
1000
0000
0001
0110
,
0000
0000
1000
0000
0110
0000
0000
0001
,
0000
0000
0110
0000
1000
0000
0000
0110
,
0000
0000
1001
0000
0001
0000
0000
0110
,
0000
1000
0100
0001
0010
0001
0100
1000
,
0000
0000
0110
0000
0011
0110
0000
1010
,
0000
0000
1100
0000
0001
1000
0000
0110
,
0000
0000
0110
0000
0002
0000
0000
0023
,
0000
0031
0010
1000
0100
1000
0010
2200
,
3300
0000
0000
0000
;

//---------------dance-single - Hard----------------
#NOTES:
     dance-single:
     Hard:
     Challenge:
     12:
     0.951,1.000,0.760,0.853,0.329:
0000
0000
0000
0000
,
0000
0000
0000
0000
,
0000
0000
0000
0000
,
2000
3000
0200
2300
3000
1000
0010
2000
,
3000
0010
0001
1000
0010
0100
1000
0100
,
2000
0000
3010
2000
3000
1000
0010
2000
,
3000
0100
0010
0001
0100
0001
0010
2020
,
3030
1010
0001
0010
1000
0010
0100
2020
,
3030
1010
0001
0010
0100
1000
0010
2020
,
3030
1010
0001
0010
1000
0100
1000
2020
,
3030
0100
1000
0220
0330
0010
0100
0202
,
0303
0001
0010
1000
0100
1000
0010
2000
,
0000
3001
0010
0100
1000
0010
0100
2000
,
0000
3001
0010
0100
0100
1000
0100
0020
,
0030
0010
1000
0020
0000
0000
0030
0220
,
0000
0000
0330
0000
1000
0000
0010
0000
1000
0000
0001
1000
0001
1000
0110
0000
,
0000
0000
1000
0000
0002
0000
0003
0001
1000
0001
1000
0001
0010
0001
0100
0000
,
0000
0100
0001
0010
1000
0100
1000
0110
,
0000
0000
0100
0000
0020
0000
0000
0030
0210
0000
0020
0000
0000
0330
0110
0000
,
0000
0000
0000
0000
0001
0000
1000
0000
0010
0000
0010
0000
0000
0000
0020
0030
,
0000
0000
0010
0000
1000
0000
0010
0000
2020
0000
0000
3030
0000
0000
2020
0000
,
3030
0010
0001
1000
0100
1000
0010
0200
,
0000
0000
0000
0000
0300
0000
0000
0010
1000
0010
1000
0010
1000
0010
2020
0000
,
0000
3030
1000
0010
0100
0001
0010
0022
,
0000
0033
1000
0100
1000
0010
0100
0022
,
0000
0033
1000
0100
1000
0010
0100
0022
,
0033
0000
0001
0000
0100
0000
0010
0000
0001
0000
0010
0000
0001
0000
0100
0001
,
0010
0100
0010
0100
0001
0010
1000
2200
,
3300
0000
0100
0000
1000
0000
0010
0000
0010
0000
0001
1000
0010
0000
0100
1000
,
0001
0010
1001
0010
1001
0010
1001
0010
,
1001
0000
0001
0000
0010
0000
1000
0000
0001
1000
0001
0100
0010
0100
0001
1000
,
0001
0001
0000
0001
0011
0000
0010
0000
,
1000
0100
0000
0000
1000
0100
0000
0110
,
0000
0100
0010
0001
,
0100
0010
1000
0000
1100
0000
1000
0000
,
0001
0001
0010
0000
0011
0000
0001
0000
,
1000
0000
0010
0000
0100
0000
0000
0000
1100
0000
0100
0010
0001
0000
0110
0000
,
0000
0100
1000
0000
1100
0000
1000
0000
,
0001
0010
0100
0000
1001
0000
0100
0000
,
0001
0100
0000
0000
0001
0010
0001
0010
0001
0010
0001
0010
0001
0010
0000
0000
,
1000
0100
1000
0100
1000
0100
1000
0000
0010
0000
1000
0000
0010
0000
0100
0000
,
1000
0010
0000
1000
0100
1000
0100
1000
0100
1000
0100
1000
0100
1000
0000
0000
,
0010
0100
0010
0100
0010
0100
0010
0200
0020
0000
0000
0000
0000
0000
0000
0000
,
0331
0000
0001
0000
0000
0000
0001
0100
1000
0000
0000
0000
0000
0000
0000
0000
,
1000
0000
1000
0000
0000
0000
1000
0100
0010
0000
0000
0000
0000
0000
0000
0000
,
0101
0010
0000
1001
0010
0000
0101
0010
,
0000
0000
1000
0100
0001
0000
1000
0000
0001
0000
0010
0000
1000
0000
0100
0000
,
1100
0000
1100
0000
0100
1000
0010
0000
1010
0000
0100
0010
0001
0000
2001
0000
,
0000
0000
0000
3002
0000
0000
2003
0000
0000
3002
0000
0000
2003
0000
0000
3002
0000
0000
2003
0000
3000
1001
0000
0000
,
0000
0200
0302
0203
0302
0203
0300
1001
,
0000
0000
1001
0000
2010
0000
3000
1000
,
0000
0001
0010
1000
0100
2000
3000
1001
,
0000
0000
0101
0000
2100
0000
3000
0100
,
0000
0001
0010
1000
0001
2000
3000
1010
,
0000
0000
1010
0000
2100
0000
3000
1000
,
0000
0010
0100
0001
0010
1000
0000
0000
,
1001
0000
1001
1010
0000
1001
0000
0101
,
0000
0000
0220
0000
0000
0330
0000
2020
,
0000
3030
0220
0330
0200
0000
0300
0002
,
0003
1000
0001
0010
1000
0100
1000
0200
,
0000
0300
1000
0000
0001
0010
0000
2000
,
0000
0000
3100
0000
0010
0000
1000
0000
0001
0000
0010
0000
0100
0000
0010
0100
,
1000
0000
1000
0000
0010
0100
0000
0012
,
0000
0003
0010
0000
1000
0000
0100
0110
,
0000
0100
1000
0100
0001
0100
1000
0100
,
0010
0000
0100
0000
1000
0000
0100
0000
1000
0010
0100
0001
0010
0001
0100
0010
,
0001
0100
0000
0100
1000
0000
0100
0010
,
1000
0001
0010
0000
0100
0000
0010
0000
,
2002
0000
3003
0000
0010
0000
0200
0000
0000
0000
0000
0300
0001
0010
0001
0100
,
0001
0100
0001
0100
0010
0100
0010
1000
0010
1000
0010
0100
0010
0100
0010
0000
,
0000
0000
0000
0000
1001
0000
0000
0000
0010
0100
0010
0100
1000
0100
0010
0000
,
0000
0000
0000
0000
0110
0000
0000
0000
1000
0100
1000
0100
1000
0100
1000
0000
,
0000
0000
0000
0000
1001
0000
0000
0000
0002
0000
0103
0001
0100
0000
0101
0000
,
0000
1000
0100
0001
0010
0001
0100
1000
,
0000
0000
0110
0000
0011
0110
0000
1010
,
0000
0000
1100
0000
0001
1100
0000
0110
,
0000
0000
0110
0000
0002
0000
0000
0023
,
0000
0031
0010
1000
0100
1000
0010
2200
,
3300
0000
0000
0000
,
0000
M000
0000
0000
0000
0000
0000
0000
;

//---------------dance-single - Hard----------------
#NOTES:
     dance-single:
     Hard:
     Medium:
     8:
     0.565,0.732,0.288,0.616,0.026:
0000
0000
0000
0000
,
0000
0000
0000
0000
,
0000
0000
0000
0000
,
0000
0000
0000
0000
,
0000
0000
0000
0000
,
0000
0001
0000
0001
,
0000
0001
0000
1010
,
0000
0010
0001
0010
1000
0010
1000
0010
,
0000
0010
0001
0010
0001
1000
0010
1000
,
0000
0010
0001
0010
1000
0100
1000
0100
,
0000
0010
1000
0020
0030
0010
0100
0002
,
0003
0001
0010
0001
0100
0001
0100
0002
,
0003
0001
0010
0001
0100
0001
0100
0002
,
0003
0001
0010
0001
0100
0010
1000
0200
,
0300
0010
0100
0020
0000
0000
0030
0200
,
0000
0300
0000
0000
0000
0000
0000
0110
,
0000
0000
0000
0000
0000
0000
0000
0220
,
0330
0000
0000
0000
0000
0000
0000
0200
,
0300
0000
0000
0000
0010
0010
0000
0020
,
0000
0000
0030
0000
0000
0000
0000
0100
,
0000
0000
0000
0000
0200
0000
0000
0320
,
0000
0030
0000
0000
,
0000
0000
0000
0000
2020
0000
3030
2020
,
0000
3030
0000
1000
0010
1000
0000
0022
,
0000
0033
0000
1000
0010
1000
0000
0022
,
0000
0033
0000
0100
1000
0100
0000
0022
,
0033
0001
0100
0001
0100
0002
0000
0003
,
0010
0000
0010
0100
0001
0100
0000
2200
,
0000
3300
1000
0010
0010
0001
0100
0100
,
0001
0010
1000
0010
0001
0010
1000
0010
,
0001
1000
0010
1000
0001
1000
0001
0100
,
2002
3003
0000
0000
0001
0000
0000
0000
0001
0000
0000
0000
0010
0000
0000
0000
,
1000
0100
1000
0100
,
0001
0010
0001
0001
,
0100
1000
1000
1000
,
0001
0010
0001
0001
,
1000
0100
1000
0001
,
0010
1000
0100
1000
,
0001
0100
1001
0010
,
0001
1000
0000
0000
0000
0000
0000
0000
0000
0000
0000
0000
0001
0010
0000
0000
,
0000
0000
0000
0000
0010
1000
0010
0100
,
1000
0010
0000
0000
0000
0000
0000
0000
0000
0000
0000
0000
0100
1000
0000
0000
,
0000
0000
0000
0000
0000
0000
0000
0200
0020
0000
0000
0000
0000
0000
0000
0330
,
0001
0001
0000
0001
1000
0000
0000
0000
,
1000
1000
0000
1000
0010
0000
0000
0000
,
0001
0001
0000
0010
0010
0000
0100
0100
,
0000
1000
0001
1000
0001
0010
1000
0100
,
1000
1000
0000
0010
0010
0000
0002
2000
,
0000
0000
0000
0000
0000
0000
0000
3003
,
0000
0200
0302
0203
0302
0203
0300
1001
,
0000
0000
0100
0000
2000
0000
3000
1000
,
0000
0001
1000
0001
1000
0002
0003
1001
,
0000
0000
0101
0000
2100
0000
3000
0100
,
0000
0001
1000
0001
1000
0002
0003
1010
,
0000
0000
0100
0000
2100
0000
3000
1000
,
0000
0001
1000
0001
1000
0001
0000
0000
,
1001
0000
1001
1010
0000
1001
0000
0101
,
0000
0000
0220
0000
0000
0330
0000
2020
,
0000
3030
0220
0330
0200
0000
0300
0002
,
0003
1000
0001
0010
1000
0100
1000
0200
,
0000
0300
1000
0000
0001
0010
0000
2000
,
0000
3000
0000
0000
0000
0000
0000
0000
,
1000
0000
1000
0000
0010
0100
0000
0002
,
0000
0003
0010
0000
1000
0000
0100
0010
,
0000
0020
0000
0000
,
0030
0000
0000
0000
,
0000
0100
1000
0100
,
1000
0010
0100
0010
,
2002
3003
0010
0200
0000
0000
0000
0300
,
0001
0000
0010
0000
1000
0000
0001
0100
,
0000
0000
1000
0000
0010
0000
0000
0001
,
0000
0000
0010
0000
1000
0000
0000
0010
,
0000
0000
0001
0000
0001
0000
0000
0010
,
0000
1000
0001
1000
0001
0100
0010
0100
,
0000
0000
0100
0000
0011
0100
0000
1010
,
0000
0000
0100
0000
0001
1000
0000
0010
,
0000
0000
0100
0000
0002
0000
0000
0023
,
0000
0031
0010
1000
0100
1000
0010
2000
,
3000
0000
0000
0000
,
0000
M000
0000
0000
0000
0000
0000
0000
;

//---------------dance-single - Medium----------------
#NOTES:
     dance-single:
     Medium:
     Easy:
     5:
     0.389,0.447,0.164,0.483,0.000:
0000
0000
0000
0000
,
0000
0000
0000
0000
,
0000
0000
0000
0000
,
0000
0000
0000
0000
,
0000
0000
0000
0000
,
0000
0001
0000
0001
,
0000
0001
0000
1000
,
0000
0001
1000
1000
,
0010
0001
0010
1000
,
1000
0000
0001
0000
1000
0000
0000
0200
,
0000
0300
0020
0000
0030
0000
0100
0000
,
0002
0103
0010
0010
,
0002
0103
0010
0010
,
0002
0103
0010
0010
,
0002
0000
0103
0000
0020
0000
0000
0200
,
0030
0000
0300
0000
0000
0000
0000
0100
,
0000
0000
0000
0000
0000
0000
0000
0020
,
0030
0000
0000
0000
0000
0000
0000
0200
,
0300
0000
0000
0000
0010
0000
0000
0100
,
0000
0000
0000
0000
0000
0000
0000
0020
,
0030
0000
0000
0000
0200
0000
0300
0020
,
0000
0000
0000
0000
,
0000
0030
0000
0020
0000
0030
0020
0000
,
0030
0100
1000
0100
,
0002
0003
0100
1000
,
0002
0003
0100
0100
,
0002
0103
0010
0002
,
0013
0100
0010
1000
,
0200
1300
0010
0001
,
0101
1000
1010
0001
,
1001
1000
1001
0001
,
0100
0001
0001
0000
,
1000
1000
1000
0001
,
0001
0001
0100
0100
,
0100
0000
1000
1000
,
1000
0000
0001
0001
,
0001
0000
0100
0100
,
0100
0000
0100
0010
,
0100
0000
1001
0010
,
0101
0000
0000
0011
,
0000
0000
0010
1000
,
0110
0000
0000
1100
,
0000
0000
0220
0000
,
0331
0001
0001
0000
,
1000
1000
0010
0000
,
0001
0000
0000
0010
0000
0000
1000
0000
,
0000
1000
0010
1000
,
0010
0000
0000
1000
0000
0000
0200
0000
,
0000
0000
0000
0300
,
0000
0200
0300
0002
0003
0200
0300
0001
,
0000
0000
0100
0000
2000
3000
0000
0100
,
0000
0001
0000
1000
0000
0200
0000
1300
,
0000
0000
0100
0000
0020
0000
0030
0100
,
0000
0001
0000
1000
0000
0200
0000
0310
,
0000
0000
0100
0000
1000
0000
0000
0100
,
0000
0001
0000
1000
0000
0001
0000
0000
,
0100
0000
0000
0110
0000
1000
0000
0001
,
0000
0000
0220
0000
0000
0330
0000
2000
,
0000
3000
0100
0000
0010
0000
0000
0002
,
0000
1003
0000
0010
0000
0100
0000
0200
,
0000
0300
0010
0000
1000
0000
0020
0000
,
0000
0030
0000
0000
0000
0000
0000
0000
,
0000
0000
2000
0000
3000
0100
0000
0200
,
0000
0300
0000
0010
0000
1000
0000
0010
,
0000
0020
0000
0000
,
0000
0030
0000
0000
0000
0000
0000
0000
,
0000
0000
0000
0100
0000
1000
0000
0100
,
0000
1000
0000
0010
0000
0100
0000
0010
,
0000
0002
0000
0203
0000
0000
0000
0300
,
0010
0000
0001
0000
0100
0000
0000
0101
,
0000
0000
0100
0000
0000
0000
0000
1001
,
0000
0000
0010
0000
0000
0000
0000
1010
,
0000
0000
0100
0000
0000
0000
0000
0020
,
0000
1030
0000
0001
0000
0100
0000
0010
,
0000
0000
0100
0000
0000
0001
0000
1010
,
0000
0000
0100
0000
0000
0020
0030
0020
,
0030
0000
0020
0030
0000
0000
0000
0020
,
0000
1030
0000
0010
0000
1000
0000
0200
,
0000
0300
0000
0000
0000
0000
0000
0000
,
0000
M000
0000
0000
0000
0000
0000
0000
;

//---------------dance-single - Blank----------------
#NOTES:
     dance-single:
     Blank:
     Beginner:
     3:
     0.211,0.240,0.000,0.205,0.000:
0000
0000
0000
0000
,
0000
0000
0000
0000
,
0000
0000
0000
0000
,
0000
0000
0000
0000
,
0000
0000
0000
0000
,
0000
0000
0000
0000
,
0000
0000
0000
2000
,
0000
0000
3000
0002
,
0000
0003
0000
2000
,
0000
3000
0000
0010
,
0000
1000
0000
0020
,
0000
0030
0000
2000
,
0000
3000
0000
0020
,
0000
0030
0000
2000
,
0000
0000
3000
0100
0000
0000
0001
0000
,
0000
0000
0000
0000
0000
0000
0000
2000
,
0000
3000
0000
0000
0000
0000
0000
1000
,
0000
0000
0000
0000
0000
0000
0000
1000
,
0000
0000
0000
0000
0000
0000
0000
1000
,
0000
0000
0000
0000
0000
0000
0000
1000
,
0000
0000
0000
0000
0000
0000
0000
2000
,
0000
0000
0000
0000
,
0000
0000
0000
3000
1000
0000
0000
0100
,
0000
1000
0000
0002
,
0003
1000
0000
0020
,
0030
0100
0000
0020
,
0030
1000
0000
0010
,
0000
0100
0000
0010
,
0000
0000
1000
0000
0000
0100
0000
0000
,
0020
0000
0000
0030
2000
0000
0000
3000
,
0020
0000
0000
0030
2000
0000
0000
3000
,
0010
0000
0001
0000
,
1000
0000
0100
0000
,
0001
0000
0001
0000
,
1000
0000
1000
0000
,
0010
0000
0010
0000
,
1000
0000
1000
0000
,
0010
0000
0010
0000
,
0100
0000
0100
0000
,
0010
0000
0000
0010
,
0000
0000
0010
0000
,
0010
0000
0000
0010
,
0000
0000
0010
0000
,
1000
0000
0001
0000
,
1000
0000
0001
0000
,
1000
0000
0000
0001
0000
0000
1000
0000
,
0000
0000
0000
0000
,
1000
0000
0000
0001
0000
0000
2000
0000
,
0000
0000
0000
0000
0000
0000
0000
3000
,
0000
0000
0000
0000
,
0000
1000
0000
0010
,
0000
1000
0000
0001
,
0000
0100
0000
0010
,
0000
1000
0000
0001
,
0000
0100
0000
0010
,
0000
1000
0000
0020
,
0000
0000
0130
0000
0000
0100
0000
0000
,
0000
0200
0000
0300
,
1000
0001
1000
0001
,
0000
1000
0000
1000
,
0000
0001
0000
0001
,
0000
1000
0000
1000
,
0000
0001
0000
0001
,
0000
1000
0000
1000
,
0000
0001
0000
1000
,
0000
0010
0000
0000
,
1000
0000
0001
0000
,
1000
0000
0001
0000
,
0200
0000
0300
0000
,
1000
0000
0000
0000
0010
0000
0000
1000
,
0000
0000
0010
0000
0000
0000
0000
0001
,
0000
0000
0010
0000
0000
0000
0000
1000
,
0000
0000
0010
0000
0000
0000
0000
0001
,
0000
0000
0010
0000
0000
0000
0000
0100
,
0000
0000
0010
0000
0000
0000
0000
0100
,
0000
0000
0010
0000
0000
0000
0000
0010
,
0000
0000
0010
0000
0000
0000
0000
1000
,
0000
0000
0010
0000
0000
1000
0000
0001
;
