#TITLE:Step! Zero to one;
#SUBTITLE:;
#ARTIST:Aqours;
#TITLETRANSLIT:;
#SUBTITLETRANSLIT:;
#ARTISTTRANSLIT:;
#GENRE:;
#CREDIT:CHMX;
#BANNER:Banner.png;
#BACKGROUND:BGI.png;
#LYRICSPATH:;
#CDTITLE:;
#MUSIC:Step! Zero to one.MP3;
#OFFSET:0.000;
#SAMPLESTART:80.380;
#SAMPLELENGTH:12.000;
#SELECTABLE:YES;
#BPMS:0.000=141.000;
#STOPS:0.000=0.220
;
#BGCHANGES:0.000=BGA.avi=1.000=0=0=1=StretchNormal====,
99999=-nosongbg-=1.000=0=0=0 // don't automatically add -songbackground-
;
#KEYSOUNDS:;

//---------------dance-single - Blank----------------
#NOTES:
     dance-single:
     Blank:
     Hard:
     8:
     0.630,0.674,0.102,0.408,0.514:
0000
0000
0000
0000
,
0000
0000
0000
0000
,
0000
0000
0000
0000
,
0000
0000
0000
0000
,
0000
0000
0000
0000
,
0000
0000
0000
0000
0000
0000
0000
1000
,
0010
0000
0100
0000
0001
0000
0000
0010
0000
0000
1000
0000
0000
0000
0010
0000
,
0100
0000
0001
0000
0010
0000
0000
1000
0000
0000
0010
0000
0000
0000
0100
0000
,
0001
0000
0100
0000
0010
0000
0000
1000
0000
0000
0010
0000
0000
0000
0000
0000
,
0010
0000
0100
0000
0010
0000
0000
1000
0000
0000
0001
0000
1000
0000
0100
0000
,
0010
0100
0001
0010
0100
2000
3000
0100
,
0010
0000
0100
0000
0001
0000
0000
0010
0000
0000
2000
0000
0000
0000
3000
0000
,
0000
0000
0010
0000
0100
0000
0001
0000
0100
0000
0010
0000
1000
0000
0000
0001
,
0000
0000
0000
0000
0000
0000
0010
0000
0001
0000
0000
0000
1000
0000
0000
0000
0001
0000
0000
0000
1000
0000
0000
0000
0002
0000
0000
0000
0000
0000
0000
0000
0000
0000
0000
0000
1003
0000
0000
0001
0000
0000
0000
0000
0000
1000
0000
0000
,
0001
0000
0100
0000
0010
0000
0100
0000
0020
0000
0000
0030
0010
1000
0000
0010
,
1000
0000
0010
0000
0100
0000
0001
0000
0020
0000
0000
0030
0001
1000
0000
0001
,
0100
0000
0010
0000
0100
0000
0001
0000
0010
0000
0001
0000
1000
0000
0000
0010
,
0000
0000
0100
0000
0020
0000
0000
0000
0000
0000
0030
0000
1000
0001
0000
1000
,
0001
0000
0100
0000
0010
0000
0100
0000
0020
0000
0000
0030
0010
1000
0000
0010
,
1000
0010
0100
0001
0010
1000
0002
0000
,
0000
0003
0001
0100
0002
0000
0003
0000
0020
0000
0000
0030
0002
0000
0003
0020
,
0000
0030
0200
0000
0320
0000
0000
0030
0010
0000
0100
0000
0001
0000
0010
0000
,
1000
0000
0020
0000
0000
0030
0010
0000
0100
0000
0001
0000
0010
0000
1000
0000
,
0010
0000
0200
0000
0000
0000
0000
0000
0000
0300
1000
0000
0010
0000
0100
0000
,
0010
0000
0010
0100
0000
0000
0001
0000
1000
0000
0010
0000
0000
0000
0000
0000
,
0000
0000
0000
0100
0001
0100
0010
0001
,
0010
0100
0000
0010
0100
0001
0010
1000
,
0010
0200
0000
0000
0300
0000
0000
0010
,
0100
0000
0001
0000
0010
0000
0000
1000
0000
0000
0020
0030
0202
0000
0000
0000
,
0303
0000
0000
0000
0202
0303
0000
0000
2002
0000
3003
0000
1001
0000
0000
0001
,
0100
0000
0010
0000
1000
0000
0000
0100
0010
0000
0100
0000
0001
0000
0000
0001
,
0010
0000
1000
0000
0010
0000
0000
0001
0100
0000
0010
0000
0100
0000
0000
0010
,
1000
0000
0010
0000
0100
0000
0000
1000
0010
0000
0100
0000
0010
0000
0000
0100
,
0010
0000
0010
0000
0010
0000
0000
0100
0010
0000
0100
0000
0010
0000
0000
0010
,
1000
0000
0010
0000
0100
0000
0000
0100
0010
0000
0100
0000
0001
0000
0000
0001
,
0010
0000
1000
0000
0100
0000
0000
0100
0001
0000
0100
0000
0010
0000
0000
0100
,
0010
0000
0001
0000
0100
0000
0010
0000
1000
0000
0010
0000
0200
0000
0310
0100
,
0020
0030
0001
0100
0002
0003
0001
0010
0002
0000
0013
0000
0100
0000
0000
0010
,
0000
1000
0000
0010
0100
0002
0000
0013
,
0100
0000
0020
0000
0030
0000
0000
0000
0000
0000
1000
0000
0010
0000
0000
0100
,
0000
0000
0002
0000
0000
0003
0010
0000
1000
0000
0002
0000
0000
0000
0013
0000
,
0000
0000
0200
0000
0000
0300
0010
0000
2000
0000
0000
3000
0020
0000
0000
0030
,
0000
0000
0010
0100
0010
0000
1000
0000
0001
0000
0200
0000
0000
0000
0310
0000
,
0000
0000
0200
0000
0000
0000
0000
0300
0000
0000
0000
0000
0010
0000
0100
0000
,
0010
0000
0100
0001
0000
1000
0020
0000
0030
0000
0100
0001
0100
0000
1000
0000
,
0010
0000
0000
0000
0000
0000
0100
0000
0000
0001
0000
0000
0000
0000
0000
0100
0000
0000
0020
0000
0000
0000
0000
0000
0000
0000
0000
0030
0000
0000
1000
0000
0000
0000
0000
0000
0001
0000
0000
0000
1000
0000
0000
0000
0001
0000
0000
0000
,
0100
0000
0000
0010
1000
0010
0100
0001
0100
0010
1000
0010
,
0200
0000
1000
0000
0310
0000
0000
0000
0100
0000
0000
0000
0010
1000
0000
0010
,
1000
0000
0010
0000
0100
0001
0000
0100
0001
0000
0100
0000
0001
0010
0000
0001
,
0010
0000
0001
0000
0001
0100
0000
0001
0100
0000
0010
0000
0010
1000
0000
0010
,
1000
0000
0010
0000
0010
0100
0000
0010
0100
0000
0100
0000
0001
0010
0000
0001
,
0010
0000
0001
0000
0100
0010
0000
0100
0010
0000
0100
0000
0010
1000
0000
0010
,
1000
0000
1000
0000
0100
0010
0000
0100
0010
0000
0010
0000
0010
0001
0000
0010
,
0001
0000
0001
0000
0100
0010
0000
0100
0010
0000
0100
0000
0100
1000
0000
0100
,
2000
0000
0010
3000
0100
0001
0000
0100
0002
0000
1003
0000
0001
0010
0000
0001
,
0020
0000
1000
0030
0001
0100
0000
0001
0100
0000
0010
0000
2001
0000
0000
0000
,
0000
0000
0000
0000
0000
3100
0010
0001
,
0010
0000
1000
0000
0001
0000
0010
0000
0100
0000
0000
0000
1001
0000
0000
0100
,
0001
0000
0010
0000
0010
1000
0000
1000
0010
0000
0010
0000
0100
0001
0000
0100
,
0001
0000
1000
0000
0100
0010
0000
0010
0100
0000
0010
0000
1000
0001
0000
0100
,
0001
0000
0010
0000
0001
0100
0000
0010
0100
0000
0010
0000
1000
0100
0000
1000
,
0010
0000
0100
0000
0001
0010
0000
0001
0010
0000
0100
0000
1000
0100
0000
0100
,
0010
0000
0100
0000
0001
0010
0000
0001
0100
0000
0010
0000
1000
0010
0000
0100
,
0010
0000
0100
0000
0001
0010
0000
0001
0010
0000
0010
0000
1000
0000
0001
1000
,
0100
0000
0010
0100
0000
0000
0001
1000
0001
0000
0100
0010
0000
0000
0001
1000
,
0001
0000
0100
0010
0000
0000
0001
0000
2002
0000
3003
0000
0000
0000
0100
0010
,
0001
0000
0001
1000
0000
0000
0100
0000
0001
0000
0010
0000
0202
0000
0000
0000
,
0000
0000
0000
1313
1010
1010
1010
0000
0000
0000
0000
0000
,
0000
0000
0000
0000
,
M000
0000
0000
0000
;

//---------------dance-single - Hard----------------
#NOTES:
     dance-single:
     Hard:
     Challenge:
     12:
     0.769,0.821,0.739,0.416,0.578:
0000
0000
0000
0000
,
0000
0000
0000
0000
0000
0000
0000
0000
0000
0000
0000
0000
1000
0000
0000
0001
,
0000
0000
1000
0000
0000
0010
0000
0000
0001
0000
0100
0000
0001
0000
0000
1000
,
0000
0000
0010
0000
0000
0100
0000
0000
0010
0000
0100
0000
1000
0000
0000
0100
,
0000
0000
0010
0000
0000
0001
0000
0000
1000
0000
0100
0000
0010
0000
0000
0001
,
0000
0000
0100
0000
0000
0010
0000
0000
1000
0000
0010
0000
0001
0000
1000
0000
,
0010
0000
0100
0000
0001
0000
0000
0010
0000
0000
1000
0000
0000
0000
0010
0000
,
0100
0000
0001
0000
0010
0000
0000
1000
0000
0000
0010
0000
0000
0000
0100
0000
,
0001
0000
0100
0000
0010
0000
0000
1000
0000
0000
0010
0000
0000
0000
0000
0000
,
0010
0000
0100
0000
0010
0000
0000
1000
0000
0000
0001
0000
1000
0000
0100
0000
,
0010
0100
0001
0010
0100
2000
3000
0100
,
0010
0000
0100
0000
0001
0000
0000
0010
0000
0000
2000
0000
0000
0000
3000
0000
,
0000
0000
0010
0000
0100
0000
0001
0000
0100
0000
0010
0000
1000
0000
0000
0001
,
0000
0000
0000
0000
0000
0000
1000
0000
0010
0000
0000
0000
1000
0000
0000
0000
0001
0000
0000
0000
1000
0000
0000
0000
0002
0000
0000
0000
0000
0000
0000
0000
0003
0000
0000
0000
1000
0000
0000
0001
0000
0000
0000
0000
0000
1000
0000
0000
,
1001
0000
0110
0000
0010
0000
0100
0000
1020
0000
0000
0030
0010
1000
0000
0010
,
1010
0000
0110
0000
0100
0000
0001
0000
0120
0000
0000
0030
0001
1000
0000
0001
,
0101
0000
0011
0000
0100
0000
0001
0000
0010
0000
0001
0000
1000
0000
0000
0010
,
0000
0000
0100
0000
0020
0000
0000
0000
0000
0000
0030
0000
1000
0001
0000
1000
,
1001
0000
0110
0000
0010
0000
0100
0000
0021
0000
0000
0030
0010
1000
0000
1000
,
1010
0110
0100
0001
0010
1000
0002
0000
,
0000
0003
0001
0100
0002
0000
0003
0000
0020
0000
0000
0030
0002
0000
0003
0020
,
0000
0030
0200
0000
0320
0000
0001
0030
0010
0000
0100
0000
0001
0000
0010
0000
,
1000
0020
0030
0010
0100
0001
0010
1000
,
0010
0000
0200
0000
0000
0000
0000
0000
0000
0300
1000
0000
0010
0000
0100
0000
,
0010
0000
0010
0100
0000
0000
0001
0000
1000
0000
0010
0000
0001
1000
0001
1000
,
0002
0000
1003
0001
1000
0100
1000
0001
0200
0000
0010
0300
0001
0000
0001
0000
,
0010
0100
0000
0010
0100
0001
0010
1000
,
0010
0200
0000
0000
0300
0000
0000
0010
,
0100
0000
0001
0000
0010
0000
0000
1000
0000
0000
0001
0100
0202
0000
0000
0000
,
0303
0000
0000
0000
0202
0303
0000
0000
2002
0000
3003
0000
1001
0000
0000
0101
,
0100
0000
0010
0000
1000
0000
0000
0110
0010
0000
0100
0000
0001
0000
0000
0011
,
0010
0000
1000
0000
0010
0000
0000
0101
0100
0000
0010
0000
0100
0000
0000
1010
,
1000
0000
0010
0000
0100
0000
0000
1010
0010
0000
0100
0000
0010
0000
0000
0101
,
0010
0000
0010
0000
0010
0000
0000
0110
0010
0000
1000
0000
0010
0000
0000
1010
,
1000
0000
0010
0000
0100
0000
0000
0110
0010
0000
0100
0000
0001
0000
0000
1001
,
0010
0000
1000
0000
0100
0000
0000
0101
0001
0000
0100
0000
0010
0000
0000
1100
,
0010
0000
0001
0000
0100
0000
0010
0000
1000
0000
0010
0000
0200
0000
0310
0100
,
0020
0030
0001
0100
0002
0003
0001
0010
0002
0000
0013
0000
0100
0000
0000
0010
,
0000
1000
0000
0010
0100
0002
0000
0013
,
0100
0000
0020
0000
0030
0000
0000
0000
0000
0000
1000
0000
0010
0000
0000
0100
,
0000
0000
0002
0000
0000
0003
0010
0000
1000
0000
0002
0000
0000
0000
0013
0000
,
0000
0000
0200
0000
0000
0300
0010
0000
2000
0000
0000
3000
0020
0000
0000
0030
,
0000
0000
0010
0100
0010
0000
1000
0000
0001
0000
0200
0000
0000
0000
0310
0000
,
0000
0000
0200
0000
0000
0000
0000
0300
0000
0000
0000
0000
0010
0000
0100
0000
,
0010
0000
0100
0001
0000
1000
0020
0000
0030
0000
0100
0001
0100
0000
1000
0000
,
0010
0000
0000
0000
0000
0000
0100
0000
0000
0001
0000
0000
0000
0000
0000
0100
0000
0000
0020
0000
0000
0000
0000
0000
0000
0000
0000
0030
0000
0000
1000
0000
0000
0000
0000
0000
0001
0000
0000
0000
1000
0000
0000
0000
0001
0000
0000
0000
,
0100
0000
0000
0010
1000
0010
0100
0001
0100
0010
1000
0010
,
0200
0000
1000
0000
0310
0000
0000
0000
0100
0000
0000
0000
1010
1000
0000
0010
,
1000
0000
0110
0000
0101
0001
0000
0100
0001
0000
0110
0000
0101
0010
0000
0001
,
0010
0000
0101
0000
0101
0100
0000
0001
0100
0000
0110
0000
1010
1000
0000
0010
,
1000
0000
0110
0000
0110
0100
0000
0010
0100
0000
0110
0000
0101
0010
0000
0001
,
0010
0000
0101
0000
0110
0010
0000
0100
0010
0000
0110
0000
1010
1000
0000
0010
,
1000
0000
1010
0000
0110
0010
0000
0100
0010
0000
0110
0000
0110
0001
0000
0010
,
0001
0000
0101
0000
0110
0010
0000
0100
0010
0000
1100
0000
1010
1000
0000
0100
,
2000
0000
0010
3000
0100
0001
0000
0010
0002
0000
1000
0003
0001
1000
0000
0001
,
2000
0000
0010
3000
0001
0100
0000
0001
0100
0000
0010
0000
2001
0000
0000
0000
,
0000
0000
0000
0000
0000
3100
0010
0001
,
0010
0000
1000
0000
0001
0000
0010
0000
0100
0000
0000
0000
1001
0001
0000
0100
,
0001
0000
0110
0000
1010
1000
0000
1000
0010
0000
0110
0000
0101
0001
0000
0100
,
0001
0000
1100
0000
0110
0010
0000
0010
0100
0000
0110
0000
1001
0001
0000
0100
,
0001
0000
0110
0000
0101
0100
0000
0010
0100
0000
1010
0000
1100
0100
0000
1000
,
0010
0000
0110
0000
0101
0010
0000
0001
0010
0000
0110
0000
1010
0100
0000
0100
,
0010
0000
0101
0000
0101
0010
0000
0001
0100
0000
1010
0000
1100
0010
0000
0100
,
0010
0000
0110
0000
0101
0010
0000
0001
0010
0000
0110
0000
1010
0000
0001
1000
,
0100
0000
0010
0100
0000
0000
0001
1000
0001
0000
0100
0010
0000
0000
0001
1000
,
0001
0000
0100
0010
0000
0000
0001
0000
2002
0000
3003
0000
0000
0000
0100
0010
,
0001
0000
0001
1000
0000
0000
0100
0000
0001
0000
0010
0000
0202
0000
0000
0000
,
0000
0000
0000
1313
1010
1010
1010
0000
0000
0000
0000
0000
,
0000
0000
0000
0000
,
M000
0000
0000
0000
;

//---------------dance-single - Hard----------------
#NOTES:
     dance-single:
     Hard:
     Medium:
     7:
     0.555,0.616,0.059,0.416,0.370:
0000
0000
0000
0000
,
0000
0000
0000
0000
,
0000
0000
0000
0000
,
0000
0000
0000
0000
,
0000
0000
0000
0000
,
0000
0000
0000
0000
0000
0000
0000
1000
,
0010
0000
0100
0000
0000
0002
0000
0000
0003
0000
1000
0000
0000
0000
0010
0000
,
0100
0000
0001
0000
0010
0000
0000
2000
0000
0000
3000
0000
0000
0000
0100
0000
,
0001
0000
0100
0000
0010
0000
0000
2000
0000
0000
3000
0000
0000
0000
0000
0000
,
0010
0000
0100
0000
0010
0000
0000
1000
0000
0000
0001
0000
1000
0000
0100
0000
,
0010
0100
0001
0010
0100
2000
3000
0100
,
0010
0000
0100
0000
0001
0000
0000
0010
0000
0000
2000
0000
0000
0000
3000
0000
,
0000
0000
0010
0000
0100
0000
0001
0000
0100
0000
0010
0000
1000
0000
0000
0001
,
0000
0000
0000
0000
0000
0000
0010
0000
0001
0000
0000
0000
1000
0000
0000
0000
0001
0000
0000
0000
1000
0000
0000
0000
0002
0000
0000
0000
0000
0000
0000
0000
0000
0000
0000
0000
1003
0000
0000
0001
0000
0000
0000
0000
0000
0000
0000
0000
,
0001
0000
0100
0000
0010
0000
0100
0000
0020
0000
0000
0030
0010
1000
0000
0000
,
1000
0000
0010
0000
0100
0000
0001
0000
0020
0000
0000
0030
0001
0100
0000
0000
,
0100
0000
0010
0000
0100
0000
0001
0000
0010
0000
0001
0000
1000
0000
0000
0010
,
0000
0000
0100
0000
0020
0000
0000
0000
0000
0000
0030
0000
1000
0001
0000
0000
,
0001
0000
0100
0000
0010
0000
0100
0000
0020
0000
0000
0030
0010
1000
0000
0000
,
1000
0010
0100
0001
0010
1000
0002
0000
,
0000
0000
0010
0000
2000
0000
0000
3003
0020
0000
0000
0030
0002
0000
0000
0000
,
0000
0000
0000
0003
0002
0000
0000
0000
0013
0000
0100
0000
0001
0000
0010
0000
,
1000
0000
0020
0000
0000
0030
0010
0000
0100
0000
0001
0000
0010
0000
1000
0000
,
0010
0000
0200
0000
0000
0000
0000
0000
0000
0300
1000
0000
0010
0000
0100
0000
,
0010
0010
0000
0001
1000
0010
0000
0000
,
0000
0000
0000
0100
0001
0100
0010
0001
,
0010
0100
0000
0010
0100
0001
0010
1000
,
0010
0200
0000
0000
0300
0000
0000
0010
,
0100
0000
0001
0000
0010
0000
0000
1000
0000
0000
0020
0030
0202
0000
0000
0000
,
0303
0000
0000
0000
0202
0303
0000
0000
2002
0000
3003
0000
1001
0000
0000
0001
,
0100
0000
0001
0000
0100
0000
0000
0001
0010
0000
0001
0000
0010
0000
0000
0010
,
1000
0000
0010
0000
1000
0000
0000
0010
0100
0000
0010
0000
0100
0000
0000
0001
,
1000
0000
0001
0000
1000
0000
0000
0010
0100
0000
0010
0000
0100
0000
0000
0100
,
0010
0000
0010
0000
0010
0000
0000
0100
0010
0000
0100
0000
0010
0000
0000
0010
,
1000
0000
0010
0000
1000
0000
0000
0100
0010
0000
0100
0000
0010
0000
0000
0100
,
0010
0000
0100
0000
0001
0000
0000
0010
0001
0000
0010
0000
0001
0000
0000
0010
,
0001
0010
0001
0010
1000
0010
0200
0000
,
0000
0300
0000
0000
0000
0000
0000
0000
0000
0000
0010
0000
0100
0000
0000
0010
,
0000
1000
0000
0010
0100
0002
0000
0013
,
0100
0000
0020
0000
0030
0000
0000
0000
0000
0000
1000
0000
0010
0000
0000
0100
,
0000
0000
0002
0000
0000
0003
0010
0000
1000
0000
0002
0000
0000
0000
0013
0000
,
0000
0000
0200
0000
0000
0300
0010
0000
2000
0000
0000
3000
0020
0000
0000
0030
,
0000
0010
0100
1000
0001
0200
0000
0310
,
0000
0000
0200
0000
0000
0000
0000
0300
0000
0000
0000
0000
0010
0000
0000
1000
,
0000
0100
0000
0020
0030
0100
0100
1000
,
0010
0000
0000
0000
0000
0000
0000
0000
0000
0100
0000
0000
0000
0000
0000
0000
0000
0000
0001
0000
0000
0000
0000
0000
0100
0000
0000
0000
0000
0000
1000
0000
0000
0000
0000
0000
0001
0000
0000
0000
1000
0000
0000
0000
0001
0000
0000
0000
,
0100
0000
0000
0010
1000
0010
0100
0001
0100
0010
1000
0010
,
0200
1000
0310
0000
0100
0000
0020
0000
,
0000
0000
0000
0000
0000
0000
0000
0000
0000
0030
0100
0000
0001
0000
0100
0000
,
0010
0000
0001
0000
0001
0000
0010
0000
0100
0000
0000
0000
0010
1000
0000
0010
,
1000
0000
0010
0000
0010
0100
0000
0010
0100
0000
0010
0000
0010
0001
0000
0010
,
0001
0000
0001
0000
0100
0010
0000
0100
0010
0000
0100
0000
0010
1000
0000
0010
,
1000
0000
1000
0000
0100
0010
0000
0100
0010
0000
0010
0000
0010
0001
0000
0010
,
0001
0000
0001
0000
0100
0010
0000
0100
0010
0000
0100
0000
0100
1000
0000
0100
,
2000
0000
0000
3000
0100
0001
0000
0100
0002
0000
0003
0000
0001
0010
0000
0001
,
0020
0000
0000
0030
0001
0100
0000
0001
0100
0000
0010
0000
2001
0000
0000
0000
,
0000
0000
0000
0000
0000
3100
0010
0001
,
0010
1000
0001
0010
0100
0000
2000
0000
,
0002
3000
2000
0000
0000
0000
0000
0000
0000
0000
0000
0000
0000
0000
0000
3003
,
0000
0000
0000
0000
0000
0000
0010
0000
0100
0000
0010
0000
1000
0001
0000
0100
,
0001
0000
0010
0000
0001
0100
0000
0010
0100
0000
0010
0000
1000
0100
0000
1000
,
0010
0000
0100
0000
0001
0010
0000
0001
0010
0000
0100
0000
1000
0100
0000
0100
,
0010
0000
0100
0000
0001
0010
0000
0001
0100
0000
0010
0000
1000
0010
0000
0100
,
0010
0000
0100
0000
0001
0010
0000
0001
0010
0000
0010
0000
1000
0000
0001
0000
,
0100
0000
0010
0100
0000
0000
1000
0000
0001
0000
0100
0010
0000
0000
0001
0000
,
0001
0000
0100
0010
0000
0000
0001
0000
2002
0000
3003
0000
0000
0000
0100
0000
,
0001
0000
0001
1000
0000
0000
0100
0000
0001
0000
0010
0000
0202
0000
0000
0000
,
0000
0000
0303
0001
0100
0001
0100
0000
0000
0000
0000
0000
,
0000
0000
0000
0000
,
M000
0000
0000
0000
;

//---------------dance-single - Blank----------------
#NOTES:
     dance-single:
     Blank:
     Easy:
     6:
     0.328,0.430,0.119,0.238,0.000:
0000
0000
0000
0000
,
0000
0000
0000
0000
,
0000
0000
0000
0000
,
0000
0000
0000
0000
,
0000
0000
0000
0000
,
0000
0000
0000
0000
,
0000
0000
0000
0000
,
0000
0000
0000
0000
,
0000
0000
0000
0000
,
0000
0000
0000
1000
,
0000
0001
0000
0100
,
0000
0001
1000
0001
,
0100
0010
0100
0010
,
1000
0000
0001
1000
0001
0000
0010
0000
,
0001
0000
0010
0001
0010
0000
1000
0000
,
0010
0000
0001
0010
0001
0000
1000
0000
,
0010
0000
0001
0010
0001
0000
0020
0000
,
0000
0230
0000
0310
,
1000
0000
0010
0100
0010
0000
1000
0000
,
0001
0000
0100
0001
0100
0000
0020
0000
,
0000
2030
3020
0230
,
0000
0320
0000
1030
,
0000
0000
0000
0001
,
0000
0000
0000
1000
,
0000
0001
0100
0010
,
0000
0000
0000
1000
,
0000
0000
0000
0001
,
0000
0000
0000
0200
,
0000
0300
0020
0000
0000
0030
2002
0000
,
0000
3003
1001
0000
1001
0000
0010
0000
,
0100
0010
0100
0000
0010
1000
0010
0000
,
0100
0001
0000
0100
0010
1000
0010
0000
,
0100
0010
0100
0000
0010
0100
0010
0000
,
0100
0010
0100
0000
0100
0010
0100
0000
,
0100
0010
0100
0000
0010
0100
0010
0000
,
0001
1000
0001
0000
1000
0001
1000
0000
,
0001
1000
0001
0010
0100
0001
2000
0000
,
3002
0203
0320
0130
,
0000
0000
0000
0001
,
0000
0000
0000
1000
,
0000
0000
0000
0010
,
0000
0000
0000
2002
,
3003
0010
0100
0010
,
0001
0010
1000
1000
,
0000
0100
0000
0000
0001
0000
0010
0000
,
0000
0100
0000
0000
1000
0000
0200
0000
,
0000
0320
0230
0320
,
0230
0310
1001
0010
,
0100
0010
0100
0000
0010
0100
0010
0000
,
0100
0010
0100
0000
0010
0100
0010
0000
,
0001
1000
0001
0000
1000
0001
1000
0000
,
0001
1000
0001
0000
0010
0100
0001
0000
,
0010
1000
0010
0000
0100
0010
0100
0000
,
0010
0100
0010
0000
0001
0000
0010
0000
,
1001
0010
1001
0010
,
1001
0010
1001
2002
,
0000
0000
0000
0000
0000
3003
0001
0000
,
1000
0000
0001
0000
0010
0000
0010
0100
,
0010
0000
0100
0010
0100
0000
0001
0100
,
0001
0000
1000
0001
1000
0000
0010
0100
,
0010
0000
0010
1000
0010
0000
0100
0001
,
0100
0000
0010
0100
0010
0000
0010
0100
,
0010
0000
1000
0001
1000
0000
0001
0100
,
0001
0000
0010
1000
0010
0000
0010
0000
,
0001
0010
0001
0010
,
0001
0010
2002
3003
,
0001
1000
0001
0220
,
0000
0000
0000
0330
0110
0000
0000
0000
1001
0000
0000
0000
0000
0000
0000
0000
;

//---------------dance-single - Blank----------------
#NOTES:
     dance-single:
     Blank:
     Beginner:
     5:
     0.195,0.287,0.025,0.136,0.000:
0000
0000
0000
0000
,
0000
0000
0000
0000
,
0000
0000
0000
0000
,
0000
0000
0000
0000
,
0000
0000
0000
0000
,
0000
0000
0000
0000
,
0000
0000
0000
0000
,
0000
0000
0000
0000
,
0000
0000
0000
0000
,
0000
0000
0000
0000
,
0000
0000
0000
0000
,
0000
0000
0000
0000
,
0000
0000
0000
0000
,
0000
1000
1000
0001
,
0001
0100
0010
0010
,
0001
0001
0010
0100
,
1000
1000
0100
0020
,
0000
0230
0000
0310
,
0001
0010
0010
0100
,
1000
0100
0100
2000
,
0000
3002
0000
0203
,
0000
0000
0000
0000
0000
0300
0000
0000
,
0000
0000
0000
1000
,
0000
0000
0000
0001
,
0000
0000
0000
1000
,
0000
0000
0000
0001
,
0000
0000
0000
1000
,
0000
0000
0000
0001
,
0000
1000
0000
0002
,
0000
1003
0001
1000
,
0000
0001
0000
1000
,
0000
0001
0000
1000
,
0000
0010
0000
1000
,
0000
0010
0000
0001
,
0000
1000
0000
0010
,
0000
0100
0000
0010
,
0000
0010
0000
2000
,
3002
2003
3002
1003
,
0000
0000
0000
1000
,
0000
0000
0000
0001
,
0000
0000
0000
1000
,
0000
0000
0000
0002
,
0003
1000
0000
0001
,
0000
1000
0000
0001
,
0000
1000
0000
0001
,
0000
1000
0000
0001
,
0000
1000
0000
0001
,
1001
0000
0000
0001
,
0010
0010
0100
0100
,
1000
0100
0100
0010
,
0001
0001
0010
0100
,
0100
1000
0100
0100
,
0001
0010
0010
1000
,
0100
0100
0010
0001
,
0001
0010
0100
0100
,
1000
0100
0100
0002
,
0000
0000
0003
1000
,
0001
0100
0010
0020
,
0130
0020
0000
0000
0000
0000
0000
0000
,
0030
0000
1000
0001
,
1000
0001
0010
0100
,
0010
0001
0010
0100
,
1000
1000
0010
0001
,
0010
0100
0100
1000
,
0001
1000
0001
1000
,
0001
0000
0010
0000
0200
0000
0000
0300
,
1000
0001
1000
0200
,
0000
0300
0101
0000
0101
0000
0000
0000
;
