#TITLE:Mijuku DREAMER;
#SUBTITLE:;
#ARTIST:Aqours;
#TITLETRANSLIT:;
#SUBTITLETRANSLIT:;
#ARTISTTRANSLIT:;
#GENRE:;
#CREDIT:CHMX;
#BANNER:banner.png;
#BACKGROUND:BGI.png;
#LYRICSPATH:;
#CDTITLE:;
#MUSIC:Mijuku DREAMER.mp3;
#OFFSET:0.020;
#SAMPLESTART:108.080;
#SAMPLELENGTH:12.000;
#SELECTABLE:YES;
#BPMS:0.000=160.150,14.000=320.300,18.000=160.150,18.500=150.130,19.000=140.110,19.500=128.491,20.000=118.471,20.500=106.051,21.000=96.831,21.500=80.075,35.000=95.195,35.500=100.135,36.000=112.555,36.500=120.175,37.000=131.796,37.500=141.656,38.000=150.916,38.500=160.150,86.500=183.431,87.000=192.651,87.500=203.471,88.000=224.691,88.500=237.912,89.000=249.532,89.500=259.553,90.000=271.973,90.500=282.013,91.000=291.213,91.500=302.834,92.000=160.150,148.000=150.130,148.500=136.910,149.000=119.690,149.500=108.871,150.000=80.075,162.750=90.000,165.000=160.150,229.000=320.300,261.000=160.150,265.000=172.570,265.500=184.991,266.000=192.611,266.500=204.231,267.000=215.851,267.500=224.271,268.000=234.292,268.500=245.912,269.000=262.332,269.500=273.953,270.000=283.173,270.500=297.193,271.000=310.434,271.500=320.300,279.000=160.150,457.000=320.300,464.000=160.150,464.500=144.750,465.000=126.730,465.500=111.910,466.000=100.291,466.500=80.075;
#STOPS:268.000=0.060
,269.000=0.080
,269.750=0.080
,270.000=0.080
,271.000=0.060
,272.500=0.100
,273.000=0.100
,273.500=0.100
,274.000=0.100
,274.500=0.100
,276.000=0.100
,276.500=0.100
,277.000=0.100
,277.500=0.100
,278.000=0.100
,278.500=0.100
,457.000=0.100
,457.500=0.100
,458.000=0.100
,459.750=0.100
,461.000=0.100
,461.500=0.100
,462.000=0.100
,462.500=0.100
,463.000=0.100
,463.500=0.100
;
#BGCHANGES:0.000=Mijuku DREAMER.avi=1.000=0=0=1=StretchNormal====,
99999=-nosongbg-=1.000=0=0=0 // don't automatically add -songbackground-
;
#KEYSOUNDS:;

//---------------dance-single - Blank----------------
#NOTES:
     dance-single:
     Blank:
     Hard:
     8:
     0.433,0.538,0.157,0.664,0.068:
0000
0000
0000
0000
,
0000
0000
0000
0000
,
0001
0000
0100
0000
,
1000
0000
0200
0000
,
0000
0000
0320
0000
,
0000
1030
0000
0100
0002
0000
0000
0000
0003
2000
0000
0000
,
3002
0000
0000
0000
0203
0000
0010
0300
0020
0000
0000
0000
0032
0000
0000
0000
,
0003
0000
0000
0010
0000
0002
0000
0000
0000
0000
0000
0013
0100
0020
0000
0000
,
0000
0230
0000
0000
0300
0020
0000
0000
0000
2030
0000
0000
0000
0000
0000
0000
,
0000
0000
3000
0000
0010
1000
0000
0001
,
0010
0100
0000
0010
1000
0000
0010
0200
,
0000
0000
0301
0000
0010
1000
0000
0010
,
0100
0010
0000
0010
0200
0000
0310
0001
,
0000
0000
0001
0010
0200
0000
0000
0000
,
0000
0300
0010
0000
1000
0000
0100
1000
,
0000
0010
0000
0200
0000
0000
0000
0300
,
0000
0000
0010
0000
0002
0000
0000
0003
,
0020
0000
0030
0000
0100
0000
0001
0020
,
0000
0030
0000
0100
0010
0000
0001
0020
,
0000
0000
0030
1000
0200
0000
0310
0001
,
0000
0010
0000
0200
0000
0000
0300
0000
,
0000
0010
0200
0000
,
0000
0000
0000
0000
0000
0000
0000
0300
,
0100
2000
0000
3010
0100
0002
0000
0013
,
2000
0000
3100
0010
0000
0000
0010
0000
,
0001
2000
0000
3100
0010
0002
0000
0013
,
2000
0000
3100
0020
0030
0000
0001
1000
,
0020
0000
0030
0100
,
0010
0000
0001
0010
0000
1000
0000
0200
,
0000
0000
0300
0010
,
0002
0000
0000
0013
0200
0300
0000
0000
,
0010
0000
0001
0020
0000
0000
0000
1030
,
0010
0000
0001
0020
0000
0000
0000
0230
,
0010
0000
0302
0010
0003
0200
0310
0200
,
0000
0300
0000
0000
0020
0030
0002
0003
,
0000
0000
0000
1000
,
0010
0000
0001
0100
0000
0010
0000
0000
,
0220
0000
0000
0000
0000
0000
0330
0000
0000
0010
0000
1000
0020
0000
0000
0000
,
0000
0030
0000
0200
0000
0000
0000
0302
0000
0000
0003
1000
0000
0010
0000
0200
,
0000
0000
0300
0020
0000
0000
0000
0000
0030
0001
0000
0020
0000
0000
0000
0030
,
0000
0000
0000
0010
0000
0000
0100
0000
0000
0020
0000
0000
0000
0000
0000
0000
0000
0000
0000
0000
0000
2030
0000
0000
0000
0000
0000
0000
0000
0000
0000
0000
0200
3000
0000
0000
0000
0000
0000
0000
0000
0000
0000
0000
0000
0000
2300
0000
,
0000
0000
0000
0000
3000
0000
0100
0000
0000
0002
0000
0000
0000
0000
0000
0103
0000
0000
0010
0000
0000
0200
0000
0000
,
0000
0301
2000
0000
3010
0002
0003
0000
,
0010
0001
1010
0000
1001
0000
0010
0100
,
0000
0001
1000
0000
0010
0100
0000
0000
,
0010
0001
1020
0000
0000
0030
0000
0000
,
0001
0000
0010
0000
0100
0001
0000
0010
,
0000
0100
1001
0000
1001
0000
0000
0000
,
0010
0000
0200
0000
0300
0010
0001
0000
,
0000
0000
0101
0000
0010
2000
0000
0000
,
3000
0010
0100
0000
0001
0020
0000
0030
,
0000
0001
1010
0000
1010
0020
0000
0031
,
0010
0200
0000
0000
0300
0000
0001
0010
,
0200
0000
0300
0000
,
0010
0000
1000
0000
0100
0010
0000
0001
,
0000
0100
0101
0000
0101
0000
0000
0000
,
0001
0000
0001
0000
0010
0100
0000
0010
,
1000
0001
0100
0000
0000
0000
0010
0000
,
0000
1000
0000
0010
,
0000
0100
0000
0001
,
1000
0000
0010
0000
,
0200
0000
0000
0000
0000
0000
0000
0300
,
0000
0000
0000
0000
0000
0010
0000
1000
,
0000
0001
0000
0010
0000
0000
0000
0100
,
0000
0010
0000
0000
0000
0001
0000
0000
,
0000
0000
1001
0000
0100
0010
0000
1000
,
0000
0020
0000
0000
0000
0000
0000
0000
,
0000
0030
0000
0000
,
0000
0000
0000
0000
,
0000
0000
0000
1010
,
0000
0010
2000
0000
3000
0100
0001
0000
,
0010
1000
0000
0000
0010
0000
0110
0000
,
0000
0001
2000
0000
0000
3100
0020
0030
,
0001
0010
0000
0000
0100
0000
0110
0000
,
0000
1000
0010
0000
0000
0001
0100
0000
,
0010
1000
0010
0101
,
0010
0200
0000
0000
0000
0300
0000
0000
,
0002
0000
2003
0100
3010
1000
0200
0000
,
0300
0010
2000
0000
0000
0000
3000
0000
,
0010
0100
0001
1001
,
1010
0110
1002
0003
,
0000
0002
0023
0032
,
0013
0200
0000
0301
0000
0200
0000
0000
,
0320
0000
0032
0000
0013
2000
0000
0000
,
0000
3000
0000
0000
0010
0200
0000
0000
,
0310
0200
0000
0301
0000
0000
1001
0000
,
0000
0010
2000
0000
0000
3001
0200
0300
,
0100
0020
0030
0000
0001
0000
0011
0000
,
0000
0100
0002
0000
0003
0010
2000
3000
,
0100
0010
0000
0000
0100
0000
0110
0000
,
0000
0010
0200
0000
0300
0001
0010
0000
,
1000
0100
0010
0001
,
0010
0200
0000
0000
0000
0300
0000
0000
,
0001
0000
0100
0001
0010
0100
2000
0000
,
3000
0100
0020
0000
0000
0030
0000
0000
,
0001
1000
0010
1001
,
1010
0110
2002
0000
,
3003
0010
0100
0002
,
0013
2000
0000
0100
3000
0200
0000
0300
,
0010
0000
0001
0000
0010
2000
0100
0000
,
0100
0000
3100
0000
0010
0200
0000
0300
,
0100
0020
0000
0030
0020
0000
0131
0001
,
0100
0000
1000
0000
0010
0100
0001
0010
,
1000
0010
0100
0001
0010
1000
0020
0030
,
0010
0000
0001
0100
0010
0100
2000
0000
,
0000
3000
0110
0100
0000
0000
1001
0001
,
1000
0000
1000
0010
0100
0010
0100
0001
,
0001
0010
1000
0010
0100
0001
0010
0000
,
0010
0000
2000
0100
3020
0000
0000
0030
,
0000
0001
0010
0100
0010
1000
0020
0000
,
0000
0031
0200
0000
0000
0310
2000
0000
,
3100
0020
0000
0031
0000
0020
0000
0000
,
0000
0000
0030
0000
1000
0002
0000
0000
,
0003
0020
0000
0000
,
0000
0000
0000
0000
,
0030
0000
0000
0000
,
2000
0000
0000
0000
0000
0000
0000
0000
3000
0000
0010
0000
0001
0020
0000
0000
,
0000
0000
0000
0030
2000
0000
0000
0000
3020
0000
0000
0000
0130
0000
0001
0000
,
2000
0000
0000
3000
0200
0000
0000
0000
0300
0000
0010
0000
0002
0000
0000
0000
,
0000
0003
0010
1000
0020
0000
0000
0030
0200
0000
0000
0300
0020
0000
0000
0000
,
2030
0000
3000
0M00
00M0
M000
0000
000M
,
00M0
0000
0000
0000
;

//---------------dance-single - Hard----------------
#NOTES:
     dance-single:
     Hard:
     Challenge:
     11:
     0.538,0.664,0.377,0.586,0.107:
0000
0000
0000
0000
,
0000
0000
0000
0000
,
0001
0001
0100
0100
,
1000
1000
0200
0000
,
0000
0000
0320
0100
,
0000
0000
0000
0000
1030
0000
0000
0000
0000
0000
0000
0000
0100
0000
0000
0000
0002
0000
0000
0000
0000
0000
0000
0000
0000
0000
0000
0000
0000
0000
0000
0000
0003
0000
0000
0000
0000
0000
0000
2000
0000
0000
0000
0000
0000
0100
0000
0000
,
0000
3002
0000
0010
0000
0203
0000
0010
0300
2000
0000
0000
3000
0002
0000
0000
,
0003
0000
0010
0000
0002
0000
0000
0000
0000
0000
0000
0013
0100
0020
0000
1000
,
0030
2000
0000
0100
3000
0020
0000
0100
0030
2000
0000
0020
0000
0000
0000
0000
,
0000
0000
0000
3030
0010
1000
0000
0001
,
0010
0100
0000
0010
1000
0000
0010
0200
,
0000
0000
0301
0000
0010
1000
0000
0010
,
0100
0010
0000
0010
0200
0000
0310
0001
,
0000
0000
0001
0010
0200
0000
0001
0310
,
0110
0000
0010
0000
1000
0000
0100
1000
,
0000
0010
0000
0200
0000
0000
0010
1300
,
1010
0000
0010
0000
0002
0000
0000
0003
,
0020
0000
0030
0000
0100
0000
0001
0020
,
0100
0030
0000
0100
0010
0000
0001
0020
,
0000
0000
0030
1000
0200
0000
0310
0001
,
0000
0010
0000
0200
0000
0000
0300
0000
,
0000
0000
0010
0000
0200
0000
0000
0010
,
0002
0000
0000
0000
0000
0000
0000
0303
,
0101
2000
0000
3010
0100
0002
0000
0013
,
2000
3000
1100
0100
0110
0000
0110
0000
,
0101
2000
0000
3100
0010
0002
0000
0013
,
2000
0000
3100
0020
0130
0000
0101
1000
,
0020
0100
0130
0101
,
0010
0000
0001
0010
0100
1000
0010
0200
,
0001
0010
0301
0110
,
0002
0000
0100
0013
0200
0300
0110
0000
,
0010
0000
0001
0020
0100
0000
0100
1030
,
0010
0000
0001
0020
0100
0000
0001
0230
,
0010
0000
0302
0010
0003
0200
0310
0200
,
1000
0300
0010
0000
0020
0030
0002
0003
,
0001
0001
0010
1000
,
0010
0000
0001
0100
0000
0010
0000
0000
,
0220
0000
0000
0000
0000
0000
0000
0000
0330
0010
0000
1000
0020
0000
0000
0000
,
0000
0030
0000
0200
0000
0000
0000
0302
0000
0000
0003
1000
0000
0010
0000
0200
,
0000
0000
0300
0020
0000
0000
0000
0000
0030
0001
0000
0020
0000
0000
0000
0030
,
0000
0000
0000
0010
0000
0000
0100
0000
0000
0020
0000
0000
0000
0000
0000
0000
0000
0000
0000
0000
0000
2030
0000
0000
0000
0000
0000
0000
0000
0000
0000
0000
0200
3000
0000
0000
0000
0000
0000
0000
0000
0000
0000
0000
0000
0000
2300
0000
,
0000
0000
0000
0000
3000
0000
0101
0000
0000
0002
0000
0000
0000
0000
0000
0103
0000
0000
0010
0000
0000
0200
0000
0000
,
0000
0301
2000
0000
3010
0002
0003
0000
,
0010
0001
2010
3000
1001
0000
0010
0100
,
0000
0001
1000
0000
0010
0100
0000
0000
,
0010
0001
1020
0000
0000
0000
0030
0000
,
0001
0000
0010
0000
0100
0001
0000
0010
,
0000
0100
1001
0000
1001
0000
0000
0000
,
0010
0000
0200
0000
0300
0010
0001
0000
,
0000
0000
0101
0000
0010
2000
0000
0000
,
3000
0010
0100
0000
0001
0020
0000
0030
,
0000
0001
1010
0000
1010
0020
0000
0031
,
0010
0200
0000
0000
0300
0000
0001
0010
,
0200
0300
0110
0000
0000
0000
0000
0000
,
0010
0000
1000
0000
0100
0010
0000
0001
,
0000
0100
0101
0000
0101
0000
0100
0000
,
0001
0000
0001
0000
0010
0100
0000
0010
,
1000
0001
0110
0000
0000
0000
0010
0000
,
0000
1000
0000
0010
,
0000
0100
0000
0001
,
1000
0000
0010
0000
,
0200
0000
0000
0000
0000
0000
0000
0300
,
0000
0000
0000
0000
0000
0010
0000
1000
,
0000
0001
0000
0010
0000
0000
0000
0100
,
0000
0010
0000
0000
0000
0001
0000
0000
,
0000
0000
1001
0000
0100
0010
0000
1000
,
0000
0020
0000
0000
0000
0000
0000
0000
,
0000
0000
0000
0000
0000
0000
0000
0030
,
0000
0000
0000
0000
,
0000
0000
0000
2001
,
3000
0010
1000
0000
0001
0100
0010
0000
,
0010
0000
1001
0000
0010
0100
0001
0000
,
0010
0000
1100
0000
0100
0010
1000
0000
,
0100
0000
1001
0000
0100
0010
0101
0000
,
0010
1000
0101
0000
0010
1000
0100
0000
,
0010
0000
1001
0000
0100
0010
1000
0000
,
0100
0010
1001
0000
0010
0100
0001
0000
,
0010
0000
1010
0100
0001
0010
2100
0000
,
3000
0100
0100
0000
0001
0010
1000
0000
,
0010
0101
0011
1001
,
1010
0000
0110
0000
1002
0010
0103
0010
,
1000
0000
0001
0100
0001
0000
0100
0000
0010
0000
0001
0000
0102
0000
0000
0000
,
0013
0200
0000
0301
0000
0200
0000
0000
,
0320
0000
0032
0000
0013
1000
0110
0000
,
0001
0000
0100
0000
0010
0000
1000
0000
0010
0000
2020
0000
3030
0000
0010
1000
,
0010
1000
0001
0100
0010
0100
1001
0000
,
0010
0000
1000
0000
0001
0100
0010
0000
,
0001
0000
1001
0000
0010
0100
0001
0000
,
0010
0000
1010
0000
0001
0100
0010
0000
,
0001
0000
1010
0000
0100
1000
0110
0000
,
0010
0000
0101
0000
0010
1000
0001
0000
,
0010
0000
0101
0000
0010
1000
0001
0000
,
0010
0000
0101
0000
0010
1000
0010
0100
,
0001
0010
1000
0010
0100
0001
1100
0000
,
0000
0001
0020
0030
0001
0000
0010
0000
,
0001
0000
1000
0100
0011
0100
1001
0000
,
1010
0000
0110
0000
2002
3103
0010
1000
,
0010
0000
0001
1000
0010
0000
1000
0000
0100
0000
0010
0000
0102
0000
0000
0000
,
0013
2000
0000
0100
3000
0200
0000
0300
,
0010
0000
0000
0000
0001
0000
0000
0000
0010
0000
2000
0000
0100
0000
0000
3000
,
1100
0000
1001
0000
0010
0200
0000
0300
,
0100
0020
0000
0030
0020
0000
0131
0101
,
0100
0000
1000
0000
0010
0100
0001
0010
,
1100
0010
0100
0001
0010
1000
0020
0030
,
0110
0000
0001
0100
0010
0100
1000
0010
,
0100
0001
0110
0200
0000
0300
0101
1001
,
1000
0000
1000
0010
0100
0010
0110
0001
,
0001
0010
1000
0010
0100
0001
0010
0000
,
0110
0000
0000
0000
2000
0000
0100
0000
3020
0000
0100
0000
0000
0000
1030
0100
,
0010
0001
0010
0210
0310
1000
0020
0000
,
0000
0031
0200
0000
0000
0310
2000
0000
,
3100
0020
0000
0031
0000
0020
0000
0000
,
0000
0000
0030
0000
1000
0002
0000
0000
,
0003
0020
0000
0000
,
0000
0000
0000
0000
,
0000
0030
0000
0000
0000
0000
0000
0000
,
2000
0000
0000
0000
0000
0000
0000
0000
3000
0010
0000
0020
0000
0000
0100
0000
,
0000
0100
2030
0001
3020
1000
0130
0001
,
2000
0000
0010
3000
0200
0000
0010
0000
0301
0000
0002
0000
0100
0000
0000
0000
,
0100
0000
0013
1000
0100
0000
0020
0000
0100
0000
1000
0030
0010
0000
0001
0000
,
2000
0000
0000
3000
0000
0000
0M00
0000
00M0
0000
M000
0000
0000
0000
000M
0000
,
00M0
0000
0000
0000
;

//---------------dance-single - Hard----------------
#NOTES:
     dance-single:
     Hard:
     Medium:
     6:
     0.267,0.442,0.000,0.314,0.018:
0000
0000
0000
0000
,
0000
0000
0000
0000
,
0001
0000
0100
0000
,
1000
0000
0200
0000
,
0000
0000
0320
0000
,
0000
0000
0030
0000
0000
0000
0200
0000
0000
0000
0000
0000
0000
0000
0000
0300
0000
0000
2000
0000
0000
0000
0000
0000
,
3002
0000
0103
0010
0020
0000
0032
0000
,
0003
0000
0000
0010
0000
0002
0000
0000
0000
0000
0000
0013
0000
0020
0000
0000
,
0000
0230
0000
0000
0300
0020
0000
0000
0000
2030
0000
0000
0000
0000
0000
0000
,
0000
0000
0000
0000
0000
3000
0000
0000
,
1000
0000
0010
0010
,
0200
0300
0100
0010
,
1000
0000
0010
0100
,
0010
0000
0001
0010
,
0100
0000
0010
0100
,
1000
0000
0100
0010
,
0001
0000
2000
0000
,
3020
0000
0000
0030
0100
0000
0001
0000
,
0010
0000
1000
0100
,
1000
0000
0100
0000
,
1000
0000
0010
0000
,
0000
0100
0200
0000
,
0000
0000
0000
0000
0000
0000
0000
0300
,
0100
0010
0100
0000
,
2000
0000
3200
0300
0020
0030
0000
0000
,
0002
2003
3010
0000
,
2000
3100
0010
0001
,
0020
0000
0030
0100
,
0010
0001
0010
0000
,
0010
1000
0100
0000
,
1000
0000
0010
0000
0200
0300
0010
0000
,
0010
0002
0000
0003
,
0010
0000
2000
0000
0000
0000
0000
3000
,
0010
0002
0003
0020
,
0000
0000
0030
0000
0020
0030
0002
0003
,
0000
0000
0000
1000
,
0010
0000
0001
0010
0000
0100
0000
0000
,
0200
0000
0300
0000
,
0000
0000
0000
0000
,
0000
0000
0000
0000
,
0000
0000
0000
0000
,
0000
1000
0000
0001
,
0000
1000
0000
0001
,
0000
0100
0100
0000
,
0001
0000
1000
0000
,
0010
0000
0020
0000
0000
0030
0000
0000
,
0001
0010
1000
0010
,
0001
0100
0010
0000
,
1000
0000
0001
0000
0000
0100
1000
0000
,
0000
0001
0000
0200
,
0000
0300
0010
0000
0000
0000
2000
0000
,
0000
3001
0000
0020
,
0030
0000
2000
0000
0000
3000
0010
0000
,
0002
0003
0000
0000
,
1000
0001
0010
0100
,
0010
0002
0000
0003
,
0000
0000
0010
0000
0000
1000
0000
0010
,
1000
0001
0100
0000
0000
0000
0010
0000
,
0000
1000
0000
0010
,
0000
0100
0000
0001
,
0000
1000
0000
0001
,
0000
1000
0000
0010
,
0000
0100
0000
0010
,
0000
1000
0000
0001
,
0000
0100
0000
0001
,
0000
0000
1000
0000
0100
0010
0000
1000
,
0000
0020
0000
0000
0000
0000
0000
0000
,
0000
0000
0000
0000
,
0000
0000
0000
0000
,
0000
0000
0000
0000
0000
0000
0000
0000
0030
0000
0000
0000
0000
0000
0000
0000
0000
0000
0000
0000
0000
1000
0000
0000
,
0000
0001
0000
1000
,
0001
1000
0000
0001
,
0100
0001
0000
1000
,
0010
1000
0000
0001
,
0100
0010
0000
0100
,
0010
0100
0000
0001
,
0100
1000
0000
1000
,
0100
0010
0000
0001
,
0010
0100
0000
0010
,
1000
0010
0000
0001
,
0100
0010
1000
0000
,
0000
1000
0010
0001
,
0010
0100
0000
0010
,
1000
0010
0000
0001
,
0100
0000
0010
0000
0000
0001
0000
0000
,
0000
1000
0000
0000
0000
0000
0010
0000
,
0100
0001
0000
1000
,
0010
1000
0000
0001
,
0100
0001
0000
0010
,
0100
0010
0000
0100
,
0010
0100
0000
0001
,
0100
0010
0000
0001
,
0100
0010
0000
1000
,
0100
0010
0001
0010
,
0000
0100
0010
0100
,
0001
0010
0000
1000
,
0100
0000
0010
0000
0002
0003
0000
0000
,
0000
1000
0100
0002
,
0003
1000
0000
0010
,
0100
0001
0000
0001
,
0010
0001
0000
0000
,
0000
0000
0000
1000
,
0010
0001
0000
0010
,
0100
0010
1000
0001
,
0010
0100
0010
1000
,
0001
0010
0100
0010
,
0001
1000
0010
0001
,
0010
0100
0001
1000
,
0010
0001
0010
0000
,
0000
1000
0010
0002
,
0003
2000
3000
0002
,
0003
2000
3000
0020
,
0000
0230
0000
0320
,
0000
0230
0000
0000
,
0000
0000
0000
0000
,
0300
0000
0000
0000
,
2000
0000
0000
0000
3000
0010
0020
0000
,
0000
0000
0000
0030
2000
0000
0000
0000
3020
0000
0000
0000
0130
0000
0001
0000
,
2000
0000
0000
3000
0200
0000
0000
0000
0300
0000
0010
0000
0002
0000
0000
0000
,
0000
0003
0010
0000
0020
0000
0000
0030
0200
0000
0000
0300
0020
0000
0000
0000
,
2030
0000
3000
0M00
00M0
M000
0000
000M
;

//---------------dance-single - Medium----------------
#NOTES:
     dance-single:
     Medium:
     Easy:
     4:
     0.185,0.253,0.026,0.277,0.000:
0000
0000
0000
0000
,
0000
0000
0000
0000
,
0001
0000
0100
0000
,
1000
0000
0200
0000
,
0000
0000
0300
0000
,
0000
0000
0000
0000
,
0000
0000
0000
0000
,
0000
0000
0000
0000
,
0000
0000
0000
0000
,
0000
0000
0000
0000
,
1000
0000
0010
0000
,
0200
0300
0010
0000
,
1000
0000
0010
0000
,
0010
0000
0002
0000
,
0013
0000
0010
0000
,
1000
0000
0200
0000
,
0310
0000
2000
0000
,
3020
0000
0000
0030
0200
0000
0000
0000
,
0310
0000
2000
0000
,
3100
0000
0200
0000
,
1300
0000
0020
0000
,
1030
0000
0200
0000
,
0000
0000
0000
0000
0000
0000
0000
0300
,
0100
0000
0100
0000
,
2000
0000
3000
0000
0020
0030
0000
0000
,
0002
0003
0010
0000
,
2000
3000
0010
0000
,
0020
0000
0130
0000
,
0010
0000
0010
0000
,
0010
0000
0100
0000
,
2000
0000
3200
0300
,
0010
0000
0001
0000
,
0010
0000
1000
0000
,
0010
0000
0001
0000
,
0020
0030
0200
0320
,
0130
0000
0010
0000
,
1000
0000
0001
0000
,
0210
0000
0000
0300
0000
0000
0000
0000
,
0000
0000
0000
0000
,
0000
0000
0000
0000
,
0000
0000
0000
0000
,
0000
1000
0000
0000
,
0000
0002
0000
0000
,
0000
0013
0010
0000
,
0000
2000
0000
0000
,
3100
0000
1020
0000
0000
0030
0001
0000
,
0000
2000
0000
0010
,
0000
3001
0001
0200
,
0000
0320
0000
2030
,
0000
3020
0000
0130
,
0000
2000
0000
3010
,
0000
0002
0000
0103
,
0000
0020
0000
0100
,
0000
0030
1010
0000
0000
0000
0000
0000
,
0000
0010
0000
0000
,
0000
0002
0000
0003
,
0000
2000
0000
0000
,
0000
3020
0000
0000
,
0000
0030
0000
0000
,
0000
0000
0000
0000
,
0000
0000
0000
0000
,
0000
0000
0000
0000
,
0000
0000
0000
0000
,
0000
0000
0000
0000
,
0000
0000
0000
0000
,
0000
0000
1000
0000
0000
0010
0000
1000
,
0000
0020
0000
0000
0000
0000
0000
0000
,
0000
0030
0000
0000
,
0000
0000
0000
0000
,
0000
0000
0000
1000
,
0000
0001
0000
1000
,
0100
1000
0000
0001
,
0000
0001
0000
1000
,
0010
1000
0000
0001
,
0000
0010
0000
0100
,
0010
0100
0000
0001
,
0000
0010
0000
1000
,
0100
0010
0100
0001
,
0010
0100
0000
0010
,
0000
0010
0000
0001
,
1000
0010
2000
3000
,
0000
1000
0100
0001
,
0000
0100
0000
0010
,
0100
0010
0000
0022
,
0000
0033
0000
0000
1002
0000
0000
0000
,
0003
2000
0000
3100
0000
0000
0010
0000
,
0100
0001
0000
1000
,
0000
1000
0000
0001
,
1000
0001
0000
0010
,
0000
0010
0000
0100
,
1000
0100
0000
0001
,
0000
0010
0000
0001
,
1000
0010
0000
1000
,
0000
0010
0000
0020
,
0000
0130
0000
0100
,
0000
0010
0000
1000
,
0100
0000
0010
0000
0002
0003
0000
0000
,
0000
1000
0000
0002
,
0003
1000
0000
0010
,
0000
0001
0000
0001
,
0000
0001
0000
0000
,
0000
0000
0000
1000
,
0000
0001
0000
0010
,
0000
0010
0000
0001
,
0000
0100
0000
1000
,
0000
0010
0000
0010
,
0000
1000
0000
0001
,
0000
0100
0000
1000
,
0010
0000
0010
0000
,
0000
1000
0000
0002
,
0003
2000
3000
0002
,
0003
2000
3000
0020
,
0000
0230
0000
0320
,
0000
0230
0000
0000
,
0000
0000
0000
0000
,
0300
0000
0000
0000
,
0000
0000
0000
0000
,
0000
0000
0000
0000
,
0000
0000
0000
0000
,
0000
0000
0000
0000
,
0000
0000
0000
0000
0000
0000
0000
000M
;

//---------------dance-single - Blank----------------
#NOTES:
     dance-single:
     Blank:
     Beginner:
     2:
     0.166,0.211,0.000,0.340,0.000:
0000
0000
0000
0000
,
0000
0000
0000
0000
,
0000
0000
0000
0000
,
0000
0000
0000
0000
,
0000
0000
0000
0000
,
0000
0000
0000
0000
,
0000
0000
0000
0000
,
0000
0000
0000
0000
,
0000
0000
0000
2000
,
0000
0000
0000
0000
0000
0000
0000
3000
,
2000
0000
0000
0000
0000
3000
0000
0000
,
0000
0000
0000
0000
,
0002
0000
0000
0000
0000
0003
0000
0000
,
0000
0000
0000
0000
,
2000
0000
0000
0000
0000
3000
0000
0000
,
0000
0000
0000
0000
,
0020
0000
0030
0000
,
0000
0000
0000
0000
,
2000
0000
0000
0000
0000
3000
0000
0000
,
0000
0000
0000
0000
,
0002
0000
0000
0000
0000
0003
0000
0000
,
0000
0000
0020
0000
,
0000
0000
0000
0000
0000
0000
0000
0030
,
0020
0000
2030
0000
,
3010
0000
0001
0000
,
0020
0000
2030
0000
,
3200
0000
0310
0000
,
0001
0000
0010
0000
,
0100
0000
1000
0000
,
0200
0000
0310
0000
,
0002
0000
0023
0000
,
1030
0000
0200
0000
,
0320
0000
2030
0000
,
3010
0000
0001
0000
,
0020
0000
2030
0000
,
3020
0000
0000
0030
0010
0000
0000
0000
,
0001
0000
1000
0000
,
0020
0000
0030
0000
,
0000
0000
0000
0000
,
0000
0000
0000
0000
,
0000
0000
0000
0000
,
0000
1000
0000
0000
,
0000
0001
0000
0000
,
0000
0200
0000
0320
,
0000
1030
0000
0001
,
0000
0000
0020
0000
0000
0000
0000
0030
,
0000
0010
0000
0001
,
0000
2000
0000
3100
,
0000
0002
0000
0013
,
0000
2000
0000
3010
,
0000
0002
0000
0013
,
0000
2000
0000
3100
,
0000
0020
0000
0130
,
0000
0020
0000
0031
,
0000
0010
0000
1000
,
0000
0020
0000
0031
,
0000
0010
0000
0100
,
0000
2000
0000
3000
,
0000
0000
0000
0000
,
0000
0000
0000
0000
,
0000
0000
0000
0000
,
0000
0000
0000
0000
,
0000
0000
0000
0000
,
0000
0000
0000
0000
,
0000
0000
0000
0000
,
0000
1000
0000
0001
,
0000
2000
0000
0000
,
0000
0000
0000
3000
0000
0000
0000
0000
,
0000
0000
0000
0000
,
0000
0000
0000
2000
,
0000
3001
0000
0100
,
0000
0010
0000
2000
,
0000
3010
0000
0001
,
0000
0010
0000
0200
,
0000
0310
0000
0001
,
0000
0010
0000
0020
,
0000
1030
0000
0010
,
0000
0001
0000
2000
,
0000
3100
0000
0010
,
0000
0001
0000
0100
,
0000
1000
0000
0100
,
0000
0010
0000
0002
,
0000
0013
0000
2000
,
0000
3100
0000
0020
,
0000
2030
0000
3020
,
0000
0230
0000
0310
,
0000
0002
0000
0013
,
0000
2000
0000
3010
,
0000
0002
0000
0013
,
0000
2000
0000
3010
,
0000
0002
0000
0103
,
0000
2000
0000
3010
,
0000
0002
0000
0013
,
0000
2000
0000
3010
,
0000
0200
0000
0310
,
0000
0002
0000
0013
,
0000
1000
0000
0010
,
0000
0001
0000
0010
,
0000
2000
0000
3010
,
0000
0000
0002
0000
0000
0003
0010
0000
,
0001
0020
0030
0000
,
0000
0000
0000
1000
,
0000
0001
0000
0100
,
0000
0010
0000
1000
,
0000
0100
0000
0010
,
0000
0000
0002
0003
0000
0000
0001
0000
,
0000
1000
0000
0010
,
0000
0100
0000
0010
,
0000
0002
0000
0013
,
0000
2000
0000
3010
,
0000
0001
0000
0010
,
0000
1000
0000
0010
,
0000
0100
0000
0020
,
0000
0230
0000
0000
,
0000
0000
0000
0000
,
0000
0300
0000
0000
0000
0000
0000
0000
;

//---------------dance-double - Easy----------------
#NOTES:
     dance-double:
     Easy:
     Easy:
     4:
     0.202,0.379,0.000,0.288,0.018:
00000000
00000000
00000000
00000000
,
00000000
00000000
00000000
00000000
,
00010000
00000000
01000000
00000000
,
10000000
00000000
02000000
00000000
,
00000000
00000000
03200000
00000000
,
00000000
00000000
00300000
00000000
00000000
00000000
00200000
00000000
00000000
00000000
00000000
00000000
00000000
00000000
00000000
00300000
00000000
00000000
02000000
00000000
00000000
00000000
00000000
00000000
,
03002000
00103000
00020000
00032000
,
00003000
00000000
00000000
00010000
00000000
00002000
00000000
00000000
00000000
00000000
00000000
00003000
00000000
00020000
00000000
00000000
,
00000000
00230000
00000000
00000000
00300000
00020000
00000000
00000000
00000000
02030000
00000000
00000000
00000000
00000000
00000000
00000000
,
00000000
00000000
00000000
00000000
00000000
03000000
00000000
00000000
,
00100000
00000000
00001000
00000000
,
00020000
00030000
00001000
00000000
,
00100000
00000000
00001000
00000000
,
00001000
00000000
00000200
00000000
,
00000300
00000000
00000100
00000000
,
00010000
00000000
00002000
00000000
,
00003010
00000000
00020000
00000000
,
00030200
00000000
00000000
00000300
00001000
00000000
00000000
00000000
,
00000010
00000000
00001000
00000000
,
00001000
00000000
00000100
00000000
,
00001000
00000000
00000010
00000000
,
00000000
00000000
00000200
00000000
,
00000000
00000000
00000000
00000000
00000000
00000000
00000000
00000300
,
00001000
00000000
00001000
00000000
,
00020000
00000000
00030000
00000000
00000200
00000300
00000000
00000000
,
00000020
00000030
00000100
00000000
,
00020000
00030000
00000100
00000000
,
00002000
00000000
00003000
00000000
,
00001000
00000000
00001000
00000000
,
00001000
00000000
00010000
00000000
,
00100000
00000000
00000000
00000000
00020000
00030000
00000000
00000000
,
00010000
00000000
00001000
00000000
,
00010000
00000000
01000000
00000000
,
00010000
00000000
00001000
00000000
,
00020000
00030000
00000000
00000000
,
00000000
00000000
00000000
00000000
,
10000000
00000000
00000000
00000000
00000000
00000000
00010000
00000000
00000000
00000000
00000000
02000000
,
00000000
00000000
00000000
00000000
00000000
00000000
00000000
03000000
00000000
00000000
00000000
00000000
,
00000000
00000000
00000000
00000000
,
00000000
00000000
00000000
00000000
,
00000000
00000000
00000000
00000000
,
00000000
10000000
00000000
00000000
,
00010000
00000000
00000000
10000000
,
00000000
00000000
01000000
00000000
,
00001000
00000000
01000000
00000000
,
00010000
00000000
00020000
00000000
00000000
00030000
00000000
00000000
,
00001000
00000000
01000000
00000000
,
00001000
00000000
00010000
00000000
,
00000000
00000100
00000000
00100000
,
00000000
00000100
00000000
00020000
,
00000000
00030000
00001000
00000000
00000000
00000000
00200000
00000000
,
00000000
00300100
00000000
00002000
,
00003000
00000000
00020000
00000000
00000000
00030000
00000100
00000000
,
00000020
00000030
00000000
00000000
,
00010000
00000000
00000100
00000000
,
00000100
00000020
00000000
00000030
,
00000000
00000000
00000010
00000000
00000000
00001000
00000000
00000010
,
00000000
00000001
00000100
00000000
00000000
00000000
00000010
00000000
,
00000000
00001000
00000000
00000010
,
00000000
00000100
00000000
00000001
,
00000000
00010000
00000000
00000010
,
00000000
00010000
00000000
00000100
,
00000000
00001000
00000000
00000100
,
00000000
00010000
00000000
00000010
,
00000000
00010000
00000000
00000100
,
00000000
00000000
00100000
00000000
00010000
00001000
00000000
00100000
,
00000000
00002000
00000000
00000000
00000000
00000000
00000000
00000000
,
00000000
00000000
00000000
00000000
,
00000000
00000000
00000000
00000000
,
00000000
00000000
00000000
00000000
00000000
00000000
00000000
00000000
00003000
00000000
00000000
00000000
00000000
00000000
00000000
00000000
00000000
00000000
00000000
00000000
00000000
00100000
00000000
00000000
,
00000000
00001000
00000000
01000000
,
00000000
01000000
00000000
00001000
,
00000000
00001000
00000000
01000000
,
00000000
01000000
00000000
00001000
,
00000000
00100000
00000000
01000000
,
00000000
01000000
00000000
00010000
,
01000000
00000000
00000000
10000000
,
00000000
00100000
00000000
00010000
,
00000000
00100000
00000000
00010000
,
00000000
00010000
00000000
00001000
,
00000000
00010000
00000000
01000000
,
00000000
01000000
00000000
00001000
,
00000000
00010000
00000000
00001000
,
00000000
00001000
00000000
00000100
,
00000000
00001000
00000000
00000100
,
00000000
00010000
00000000
00001000
,
00000000
00000010
00000000
00010000
,
00000000
00010000
00000000
00000010
,
00000000
00000010
00000000
00000100
,
00000000
00000100
00000000
00001000
,
00000000
00000100
00000000
00000001
,
00000000
00000010
00000000
00000001
,
00000000
00000010
00000000
00001000
,
00000000
00000010
00000000
00000010
,
00000000
00001000
00000000
00001000
,
00000000
00000100
00000000
00010000
,
00001000
00000000
00000100
00000000
00000020
00000030
00000000
00000000
,
00000000
00010000
00000000
00000020
,
00000030
00100000
00000000
00001000
,
00000000
00000100
00000000
00000100
,
00000000
00000100
00000000
00000000
,
00000000
00000000
00000000
00100000
,
00000000
00001000
00000000
00010000
,
00000000
00010000
00000000
00001000
,
00000000
00100000
00000000
01000000
,
00000000
00010000
00000000
00010000
,
00000000
10000000
00000000
00010000
,
00000000
01000000
00000000
10000000
,
00100000
00000000
00100000
00000000
,
00000000
10000000
00000000
00020000
,
00030000
02000000
03000000
00002000
,
00003000
02000000
03000000
00020000
,
00000000
00230000
00000000
00320000
,
00000000
00230000
00000000
00000000
,
00000000
00000000
00000000
00000000
,
00300000
00000000
00000000
00000000
,
00200000
00000000
00300000
00002000
,
00000000
00000000
00000000
00003000
00200000
00000000
00000000
00000000
00302000
00000000
00000000
00000000
00013000
00000000
00000000
00000000
,
00200000
00000000
00000000
00300000
00020000
00000000
00000000
00000000
00030000
00000000
00000000
00000000
00000200
00000000
00000000
00000000
,
00000000
00000300
00000000
00000000
00002000
00000000
00000000
00003000
00020000
00000000
00000000
00030000
00002000
00000000
00000000
00000000
,
00203000
00000000
00300000
000M0000
0000M000
00M00000
00000000
00000M00
;

//---------------dance-double - Medium----------------
#NOTES:
     dance-double:
     Medium:
     Medium:
     6:
     0.267,0.442,0.000,0.314,0.021:
00000000
00000000
00000000
00000000
,
00000000
00000000
00000000
00000000
,
00010000
00000000
01000000
00000000
,
10000000
00000000
02000000
00000000
,
00000000
00000000
03200000
00000000
,
00000000
00000000
00300000
00000000
00000000
00000000
00200000
00000000
00000000
00000000
00000000
00000000
00000000
00000000
00000000
00300000
00000000
00000000
02000000
00000000
00000000
00000000
00000000
00000000
,
03002000
00000000
00103000
00010000
00020000
00000000
00032000
00000000
,
00003000
00000000
00000000
00010000
00000000
00002000
00000000
00000000
00000000
00000000
00000000
00013000
00000000
00020000
00000000
00000000
,
00000000
00230000
00000000
00000000
00300000
00020000
00000000
00000000
00000000
02030000
00000000
00000000
00000000
00000000
00000000
00000000
,
00000000
00000000
00000000
00000000
00000000
03000000
00000000
00000000
,
00100000
00000000
00001000
00001000
,
00020000
00030000
00010000
00001000
,
00100000
00000000
00001000
00010000
,
00001000
00000000
00000100
00001000
,
00001000
00000000
00000100
00001000
,
00010000
00000000
00001000
00000100
,
00000010
00000000
00020000
00000000
,
00030200
00000000
00000000
00000300
00001000
00000000
00000010
00000000
,
00000010
00000000
00001000
00000100
,
00001000
00000000
00000100
00000000
,
00001000
00000000
00000010
00000000
,
00000000
00000100
00000200
00000000
,
00000000
00000000
00000000
00000000
00000000
00000000
00000000
00000300
,
00001000
00000100
00001000
00000000
,
00020000
00000000
00032000
00003000
00000200
00000300
00000000
00000000
,
00000020
00020030
00030100
00000000
,
00020000
00031000
00000100
00000010
,
00002000
00000000
00003000
00010000
,
00001000
00000100
00001000
00000000
,
00001000
00100000
00010000
00000000
,
00100000
00000000
00001000
00000000
00020000
00030000
00001000
00000000
,
00010000
00002000
00000000
00003000
,
00010000
00000000
02000000
00000000
00000000
00000000
00000000
03000000
,
00010000
00002000
00003000
00020000
,
00000000
00000000
00030000
00000000
00020000
00030000
00002000
00003000
,
00000000
00000000
00000000
10000000
,
00100000
00000000
00000000
00000000
00000000
00000000
00010000
00000000
00000000
00100000
00000000
00000000
00000000
00000000
00000000
01000000
00000000
00000000
00000000
00000000
00000000
00000000
02000000
00000000
,
00000000
00000000
00000000
00000000
00000000
00000000
00000000
03000000
00000000
00000000
00000000
00000000
,
00000000
00000000
00000000
00000000
,
00000000
00000000
00000000
00000000
,
00000000
00000000
00000000
00000000
,
00000000
10000000
00000000
00010000
,
00000000
10000000
00000000
00010000
,
00000000
00100000
00100000
00000000
,
00001000
00000000
01000000
00000000
,
00010000
00000000
00020000
00000000
00000000
00030000
00000000
00000000
,
00001000
00010000
01000000
00010000
,
00000100
00010000
00001000
00000000
,
00100000
00000000
00000100
00000000
00000000
00010000
00100000
00000000
,
00000000
00000100
00000000
00020000
,
00000000
00030000
00001000
00000000
00000000
00000000
00200000
00000000
,
00000000
00300100
00000000
00002000
,
00003000
00000000
00020000
00000000
00000000
00030000
00000100
00000000
,
00000020
00000030
00000000
00000000
,
00010000
00000010
00000100
00001000
,
00000100
00000020
00000000
00000030
,
00000000
00000000
00000010
00000000
00000000
00001000
00000000
00000010
,
00001000
00000001
00000100
00000000
00000000
00000000
00000010
00000000
,
00000000
00001000
00000000
00000010
,
00000000
00000100
00000000
00000001
,
00000000
00010000
00000000
00000010
,
00000000
00010000
00000000
00000100
,
00000000
00001000
00000000
00000100
,
00000000
00010000
00000000
00000010
,
00000000
00010000
00000000
00000100
,
00000000
00000000
00100000
00000000
00010000
00001000
00000000
00100000
,
00000000
00002000
00000000
00000000
00000000
00000000
00000000
00000000
,
00000000
00000000
00000000
00000000
,
00000000
00000000
00000000
00000000
,
00000000
00000000
00000000
00000000
00000000
00000000
00000000
00000000
00003000
00000000
00000000
00000000
00000000
00000000
00000000
00000000
00000000
00000000
00000000
00000000
00000000
00100000
00000000
00000000
,
00000000
00001000
00000000
01000000
,
00001000
01000000
00000000
00001000
,
00100000
00001000
00000000
01000000
,
00010000
01000000
00000000
00001000
,
01000000
00100000
00000000
01000000
,
00100000
01000000
00000000
00010000
,
01000000
10000000
00000000
10000000
,
01000000
00100000
00000000
00010000
,
00010000
00100000
00000000
00010000
,
01000000
00010000
00000000
00001000
,
00100000
00010000
01000000
00000000
,
00000000
01000000
00010000
00001000
,
00001000
00010000
00000000
00001000
,
00100000
00001000
00000000
00000100
,
00010000
00000000
00001000
00000000
00000000
00000100
00000000
00000000
,
00000000
00100000
00000000
00000000
00000000
00000000
00001000
00000000
,
00001000
00000010
00000000
00010000
,
00000100
00010000
00000000
00000010
,
00001000
00000010
00000000
00000100
,
00001000
00000100
00000000
00001000
,
00000010
00000100
00000000
00000001
,
00000100
00000010
00000000
00000001
,
00000100
00000010
00000000
00001000
,
00000100
00000010
00000001
00000010
,
00000000
00001000
00000100
00001000
,
00000010
00000100
00000000
00010000
,
00001000
00000000
00000100
00000000
00000020
00000030
00000000
00000000
,
00000000
00010000
00001000
00000020
,
00000030
00100000
00000000
00001000
,
00010000
00000100
00000000
00000100
,
00001000
00000100
00000000
00000000
,
00000000
00000000
00000000
00100000
,
00010000
00001000
00000000
00010000
,
00100000
00010000
01000000
00001000
,
00010000
00100000
00010000
01000000
,
00001000
00010000
00100000
00010000
,
00010000
10000000
00100000
00010000
,
00100000
01000000
00010000
10000000
,
00100000
00010000
00100000
00000000
,
00000000
10000000
00100000
00020000
,
00030000
02000000
03000000
00002000
,
00003000
02000000
03000000
00020000
,
00000000
00230000
00000000
00320000
,
00000000
00230000
00000000
00000000
,
00000000
00000000
00000000
00000000
,
00300000
00000000
00000000
00000000
,
00200000
00000000
00000000
00000000
00300000
00001000
00002000
00000000
,
00000000
00000000
00000000
00003000
00200000
00000000
00000000
00000000
00302000
00000000
00000000
00000000
00013000
00000000
00000100
00000000
,
00200000
00000000
00000000
00300000
00020000
00000000
00000000
00000000
00030000
00000000
00001000
00000000
00000200
00000000
00000000
00000000
,
00000000
00000300
00001000
00000000
00002000
00000000
00000000
00003000
00020000
00000000
00000000
00030000
00002000
00000000
00000000
00000000
,
00203000
00000000
00300000
000M0000
0000M000
00M00000
00000000
00000M00
;

//---------------dance-double - Hard----------------
#NOTES:
     dance-double:
     Hard:
     Hard:
     8:
     0.430,0.538,0.136,0.659,0.073:
00000000
00000000
00000000
00000000
,
00000000
00000000
00000000
00000000
,
00010000
00000000
01000000
00000000
,
10000000
00000000
02000000
00000000
,
00000000
00000000
03200000
00000000
,
00000000
10300000
00000000
01000000
00020000
00000000
00000000
00000000
00030000
20000000
00000000
00000000
,
30020000
00000000
00000000
00000000
02030000
00000000
00100000
03000000
00200000
00000000
00000000
00000000
00320000
00000000
00000000
00000000
,
00030000
00000000
00000000
00010000
00000000
00002000
00000000
00000000
00000000
00000000
00000000
00013000
00100000
00020000
00000000
00000000
,
00000000
00230000
00000000
00000000
00300000
00020000
00000000
00000000
00000000
02030000
00000000
00000000
00000000
00000000
00000000
00000000
,
00000000
00000000
03000000
00000000
00010000
01000000
00000000
00001000
,
00010000
00100000
00000000
00010000
01000000
00000000
00010000
00200000
,
00000000
00000000
00301000
00000000
00010000
01000000
00000000
00010000
,
00010000
00001000
00000000
00001000
00020000
00000000
00031000
00000100
,
00000000
00000000
00000100
00001000
00020000
00000000
00000000
00000000
,
00000000
00030000
00001000
00000000
00100000
00000000
00010000
00100000
,
00000000
00001000
00000000
00020000
00000000
00000000
00000000
00030000
,
00000000
00000000
00000100
00000000
00000020
00000000
00000000
00000030
,
00000200
00000000
00000300
00000000
00001000
00000000
00000010
00000200
,
00000000
00000300
00000000
00001000
00000100
00000000
00000010
00000200
,
00000000
00000000
00000300
00010000
00002000
00000000
00003100
00000010
,
00000000
00000010
00000000
00000200
00000000
00000000
00000300
00000000
,
00000000
00000010
00000200
00000000
,
00000000
00000000
00000000
00000000
00000000
00000000
00000000
00000300
,
00000100
00002000
00000000
00003010
00000100
00000002
00000000
00000013
,
00002000
00000000
00003100
00000010
00000000
00000000
00000010
00000000
,
00000010
00020000
00000000
00031000
00000100
00000020
00000000
00000130
,
00020000
00000000
00031000
00000200
00000300
00000000
00000010
00010000
,
00000200
00000000
00000300
00001000
,
00000100
00000000
00000010
00000100
00000000
00010000
00000000
00002000
,
00000000
00000000
00003000
00001000
,
00000200
00000000
00000000
00001300
00020000
00030000
00000000
00000000
,
00001000
00000000
00000100
00002000
00000000
00000000
00000000
00103000
,
00001000
00000000
00000100
00002000
00000000
00000000
00000000
00023000
,
00001000
00000000
00030200
00001000
00000300
00020000
00031000
00020000
,
00000000
00030000
00000000
00000000
00020000
00030000
00002000
00003000
,
00000000
00000000
00000000
01000000
,
00010000
00000000
00000000
00000000
00000000
00000000
00001000
00000000
00000000
00100000
00000000
00000000
00000000
00000000
00000000
00010000
00000000
00000000
00000000
00000000
00000000
00000000
00210000
00000000
,
00000000
00000000
00000000
00000000
00000000
00000000
00000000
00000000
00300000
00010000
00000000
01000000
00020000
00000000
00000000
00000000
,
00000000
00030000
00000000
02000000
00000000
00000000
00000000
03020000
00000000
00000000
00030000
10000000
00000000
00100000
00000000
02000000
,
00000000
00000000
03000000
00200000
00000000
00000000
00000000
00000000
00300000
00010000
00000000
00200000
00000000
00000000
00000000
00300000
,
00000000
00000000
00000000
00100000
00000000
00000000
01000000
00000000
00000000
00200000
00000000
00000000
00000000
00000000
00000000
00000000
00000000
00000000
00000000
00000000
00000000
20300000
00000000
00000000
00000000
00000000
00000000
00000000
00000000
00000000
00000000
00000000
02000000
30000000
00000000
00000000
00000000
00000000
00000000
00000000
00000000
00000000
00000000
00000000
00000000
00000000
23000000
00000000
,
00000000
00000000
00000000
00000000
30000000
00000000
01000000
00000000
00000000
00020000
00000000
00000000
00000000
00000000
00000000
01030000
00000000
00000000
00100000
00000000
00000000
02000000
00000000
00000000
,
00000000
03010000
20000000
00000000
30100000
00020000
00030000
00000000
,
00010000
00001000
01010000
00000000
01001000
00000000
00010000
00100000
,
00000000
00001000
01000000
00000000
00010000
00100000
00000000
00000000
,
00010000
00001000
01020000
00000000
00000000
00030000
00000000
00000000
,
00001000
00000000
00010000
00000000
00100000
00001000
00000000
00010000
,
00000000
00010000
00100000
00000000
00100000
00000000
00000000
00000000
,
00001000
00000000
00020000
00000000
00030000
00001000
00000100
00000000
,
00000000
00000000
00010100
00000000
00001000
00200000
00000000
00000000
,
00300000
00001000
00010000
00000000
00000100
00002000
00000000
00003000
,
00000000
00000010
00010100
00000000
00010100
00000200
00000000
00000310
,
00000100
00002000
00000000
00000000
00003000
00000000
00000010
00000100
,
00002000
00000000
00003000
00000000
,
00000100
00000000
00010000
00000000
00001000
00000100
00000000
00000010
,
00000000
00000100
00000101
00000000
00000101
00000000
00000000
00000000
,
00000001
00000000
00000001
00000000
00000010
00000100
00000000
00000010
,
00001000
00000001
00000100
00000000
00000000
00000000
00000010
00000000
,
00000000
00001000
00000000
00000010
,
00000000
00001000
00000000
00000010
,
00010000
00000000
00000100
00000000
,
00002000
00000000
00000000
00000000
00000000
00000000
00000000
00003000
,
00000000
00000000
00000000
00000000
00000000
00000100
00000000
00010000
,
00000000
00000100
00000000
00001000
00000000
00000000
00000000
00010000
,
00000000
00001000
00000000
00000000
00000000
00000100
00000000
00000000
,
00000000
00000000
00100000
00000000
00010000
00001000
00000000
00100000
,
00000000
00002000
00000000
00000000
00000000
00000000
00000000
00000000
,
00000000
00000000
00000000
00000000
,
00000000
00000000
00000000
00000000
,
00000000
00000000
00000000
00000000
00000000
00003000
01010000
00000000
,
00000000
00010000
02000000
00000000
03000000
00100000
00001000
00000000
,
00010000
01000000
00000000
00000000
00010000
00000000
00110000
00000000
,
00000000
00001000
02000000
00000000
00000000
03100000
00020000
00030000
,
00010000
00100000
00000000
00000000
01000000
00000000
01100000
00000000
,
00000000
10000000
00100000
00000000
00000000
00010000
01000000
00000000
,
00100000
10000000
00100000
01010000
,
00100000
02000000
00000000
00000000
00000000
03000000
00000000
00000000
,
00002000
00000000
02003000
00100000
03010000
01000000
00200000
00000000
,
00300000
00010000
02000000
00000000
00000000
00000000
03000000
00000000
,
00010000
00100000
00001000
01001000
,
01010000
00110000
01002000
00003000
,
00000000
00000200
00002300
00003200
,
00001300
00020000
00000000
00030100
00000000
00020000
00000000
00000000
,
00032000
00000000
00003200
00000000
00001300
00200000
00000000
00000000
,
00000000
00300000
00000000
00000000
00001000
00020000
00000000
00000000
,
00031000
00020000
00000000
00030100
00000000
00000000
00100000
00000000
,
00000000
00000100
00020000
00000000
00000000
00030010
00002000
00003000
,
00001000
00000200
00000300
00000000
00000010
00000000
00000110
00000000
,
00000000
00001000
00000020
00000000
00000030
00000100
00020000
00030000
,
00001000
00000100
00000000
00000000
00001000
00000000
00001100
00000000
,
00000000
00000010
00000200
00000000
00000300
00000001
00000010
00000000
,
00001000
00000100
00000010
00000001
,
00000010
00000200
00000000
00000000
00000000
00000300
00000000
00000000
,
00000001
00000000
00000100
00000001
00000010
00000100
00002000
00000000
,
00003000
00001000
00000200
00000000
00000000
00000300
00000000
00000000
,
00000010
00010000
00000100
00010010
,
00010100
00001100
00020020
00000000
,
00030030
00000100
00001000
00000020
,
00000130
00020000
00000000
00001000
00030000
00002000
00000000
00003000
,
00001000
00000000
00000100
00000000
00001000
00200000
00010000
00000000
,
00010000
00000000
00310000
00000000
00001000
00020000
00000000
00030000
,
00010000
00002000
00000000
00003000
00002000
00000000
00013100
00000100
,
00010000
00000000
00100000
00000000
00001000
00010000
00000100
00001000
,
01000000
00010000
00100000
00001000
00010000
01000000
00020000
00030000
,
00010000
00000000
00001000
00100000
00010000
00100000
02000000
00000000
,
00000000
00000000
00000000
03000000
00000000
00000000
00110000
00000000
00100000
00000000
00000000
00000000
00000000
00000000
00000000
00000000
00000000
00000000
01001000
00000000
00000000
00001000
00000000
00000000
,
01000000
00000000
01000000
00010000
00100000
00010000
00100000
00001000
,
00010000
00100000
10000000
00100000
01000000
00010000
00100000
00000000
,
00100000
00000000
20000000
01000000
30200000
00000000
00000000
00300000
,
00000000
00010000
00100000
01000000
00100000
10000000
00200000
00000000
,
00000000
00310000
02000000
00000000
00000000
03100000
20000000
00000000
,
31000000
00200000
00000000
00310000
00000000
00200000
00000000
00000000
,
00000000
00000000
00300000
00000000
01000000
00002000
00000000
00000000
,
00003000
00020000
00000000
00000000
,
00000000
00000000
00000000
00000000
,
00030000
00000000
00000000
00000000
,
02000000
00000000
00000000
00000000
00000000
00000000
00000000
00000000
03000000
00000000
00010000
00000000
00001000
00020000
00000000
00000000
,
00000000
00000000
00000000
00030000
02000000
00000000
00000000
00000000
03020000
00000000
00000000
00000000
00130000
00000000
00001000
00000000
,
00200000
00000000
00000000
00300000
00020000
00000000
00000000
00000000
00030000
00000000
00001000
00000000
00000200
00000000
00000000
00000000
,
00000000
00000300
00001000
00100000
00002000
00000000
00000000
00003000
00020000
00000000
00000000
00030000
00002000
00000000
00000000
00000000
,
00203000
00000000
00300000
000M0000
0000M000
00M00000
00000000
00000M00
,
0000M000
00000000
00000000
00000000
;
