#TITLE:Mattete Ai no Uta;
#SUBTITLE:;
#ARTIST:Aqours;
#TITLETRANSLIT:;
#SUBTITLETRANSLIT:;
#ARTISTTRANSLIT:;
#GENRE:;
#CREDIT:CHMEX;
#BANNER:banner.png;
#BACKGROUND:BGI.png;
#LYRICSPATH:;
#CDTITLE:;
#MUSIC:Mattete Ai no Uta.mp3;
#OFFSET:0.000;
#SAMPLESTART:70.720;
#SAMPLELENGTH:12.000;
#SELECTABLE:YES;
#BPMS:0.000=110.000;
#STOPS:0.000=0.480
;
#BGCHANGES:0.000=BGA.avi=1.000=0=0=1=StretchNormal====,
99999=-nosongbg-=1.000=0=0=0 // don't automatically add -songbackground-
;
#KEYSOUNDS:;

//---------------dance-single - Blank----------------
#NOTES:
     dance-single:
     Blank:
     Hard:
     7:
     0.458,0.457,0.082,0.122,0.110:
0000
0000
0000
0000
,
0000
0000
0000
0000
,
1000
0000
0000
0000
0001
0000
0010
0100
0000
0010
2000
0000
0000
3000
0000
0000
,
1000
0001
1000
0001
1000
0000
0001
0000
1000
0000
0010
0000
0010
0000
0100
0000
,
1000
0000
0010
0000
0001
0000
0100
1000
0000
0100
0020
0000
0000
0030
1000
0000
,
1002
0000
1003
0010
0001
0010
0010
0100
,
0001
0100
1000
0100
0001
0100
1000
0100
,
0010
0100
1010
0000
1000
0010
0100
0010
,
0000
0000
0000
0000
0001
0000
0010
1000
0000
1000
0020
0000
0000
0000
0000
0030
,
0010
0000
1000
0001
0100
0010
1000
0001
,
0000
0000
0010
0000
0100
0000
0010
0001
0000
0001
1000
0000
0000
0000
0010
0000
,
0001
1000
0001
0100
0010
0100
0000
0010
,
1000
0001
0100
0000
0010
1000
0000
0001
,
0100
0000
0010
0000
0200
0000
0000
0300
0010
0000
1000
0000
0000
0000
0010
0000
,
0100
0000
0010
0000
0100
0000
0010
0001
0000
0001
0200
0000
0000
0300
0010
0000
,
0100
0010
0001
0010
1000
0010
0100
0010
,
0000
0000
0001
0000
0010
0000
0100
0010
0000
0001
0020
0000
0000
0000
0000
0030
,
0010
0000
0000
0001
1000
0010
0100
0010
,
0000
0000
0010
0000
0100
0000
0001
0010
0000
0010
1000
0000
0000
0000
0010
0000
,
0100
0001
0010
0100
0010
0100
0100
0010
,
0100
0010
0100
0000
0010
2000
3000
0001
,
0100
0020
0000
0000
0000
0000
0000
0000
,
0000
0030
0000
0000
0000
0000
0000
1000
,
0001
1000
0010
0100
0010
0011
0010
0100
,
0010
1000
0010
0001
0010
0100
0010
0100
,
0010
0001
0010
1000
0001
1000
0001
0100
,
0010
1000
0100
1000
0010
1000
0001
0100
,
0001
0000
0001
1000
0001
0000
1000
0000
0001
0000
1000
0000
1000
0000
1000
0000
,
0100
0001
0010
1000
0010
0200
0010
0001
,
0001
0300
0100
0000
0010
0000
0001
0000
0010
0000
1000
0000
0010
0000
0001
0000
,
0010
0000
1000
0000
0001
0000
0010
0100
1000
0000
0001
0000
1000
0000
0001
0000
,
0100
0010
0001
0000
0010
0000
1000
0000
,
0010
0000
0200
0000
0010
0000
0301
0010
,
0100
0000
0010
0100
0010
0001
0010
0001
,
0100
0000
0010
1000
0001
0000
0010
0100
,
0010
0000
0001
0010
0100
0010
0000
0010
,
0100
0000
0001
1000
0010
0000
0001
0000
1000
0000
0000
0000
0001
0000
1000
0000
,
0001
0000
0010
0100
0010
1001
0000
0001
,
0001
0010
0100
0010
0001
0010
1000
0010
,
0100
0000
0202
0000
0303
0000
0001
0000
0010
0000
0001
1000
0010
1000
0001
0000
,
0010
1000
0001
1000
0001
0000
0001
0000
0100
0000
0000
0000
0010
0000
1000
0000
,
0001
0000
1000
0010
0100
0001
0010
0010
,
0100
0000
0010
1000
0001
0000
0010
0100
,
0010
0000
0001
0010
0100
0010
0000
0010
,
0100
0000
0001
0100
0010
0000
1000
0000
0001
0000
0000
0000
1000
0000
0001
0000
,
1000
0000
0010
0100
0001
1001
0000
0000
,
0010
1000
0010
0010
0100
0001
1000
0001
,
0100
0000
0001
0000
0010
0000
0001
0000
0010
0000
0001
0010
0100
0000
0001
0000
,
1000
0100
0001
0100
0001
0010
1000
0010
,
1000
1001
0000
0010
0100
0001
0010
1000
,
0001
0100
0001
0100
0001
0000
0000
0000
0001
0000
0000
0000
0010
0000
0000
0000
,
1000
0000
1010
0001
0100
0010
0100
0010
,
0100
0001
0010
1000
0010
1000
0001
0010
,
0101
0010
1000
0010
0100
0010
0001
0010
,
0100
0000
0010
0000
2002
0000
0000
3003
0000
0000
0000
0000
0000
0000
0000
0000
,
0000
0000
0000
0000
,
M000
0000
0000
0000
;

//---------------dance-single - Novice----------------
#NOTES:
     dance-single:
     Novice:
     Challenge:
     11:
     0.574,0.520,0.082,0.171,0.379:
0000
0000
0000
0000
,
0000
0000
0000
0000
,
1000
0000
0000
0000
0001
0000
0010
0100
0000
0010
2000
0000
0000
3000
0000
0000
,
1000
0001
1000
0001
1000
0100
0001
0100
0000
0100
0010
0000
0010
0000
0100
0000
,
1000
0000
0010
0000
0001
0000
0100
1000
0000
0100
0020
0000
0000
0030
1000
0000
,
1002
0000
0000
0000
1003
0100
0010
0100
0000
0001
0010
0000
0010
0000
0100
0000
,
0001
0100
1000
0100
0001
0100
1000
0100
,
0010
0100
1010
0100
1000
0010
0100
0010
,
0000
0000
0100
0000
0001
0000
0010
1000
0000
1000
0020
0000
0000
0000
0000
0030
,
0110
0000
1000
0001
0100
0010
1000
0001
,
0000
0000
0010
0000
0100
0000
0010
0001
0000
0001
1000
0000
0000
0000
0010
0000
,
0001
1000
0001
0100
0010
0200
0000
0310
,
1000
0001
0100
0000
0010
1000
0000
0001
,
0100
0000
0010
0000
0100
0010
0001
0100
0000
0100
2000
0000
0000
0000
3100
0000
,
0100
0000
0010
0000
0100
0000
0010
0001
0000
0001
0200
0000
0000
0300
0010
0000
,
0100
0010
0001
0010
1000
0010
0100
0010
,
0000
0000
0001
0000
0010
0000
0100
0010
0000
0001
0020
0000
0000
0000
0200
0030
,
0310
0100
0010
0000
0100
0000
0001
0000
1000
0000
0010
0000
0100
0000
0010
0000
,
0100
0010
0100
0000
0100
0000
0001
0010
0000
0010
1000
0000
0000
0000
0010
0000
,
0100
1000
0001
1000
0010
0000
0100
0000
0010
0000
0100
0000
0100
0000
0010
0000
,
0100
0001
0010
0001
0100
0000
0010
0000
0000
0000
2000
0000
3000
0000
0001
0100
,
0001
0100
0001
0100
0020
0000
0000
0000
0000
0000
0000
0000
0000
0000
0001
0000
,
0100
0031
0100
0000
0010
0000
0100
1000
0000
1000
0200
0000
0000
0300
1000
0000
,
0001
0000
0001
0100
0010
0000
0100
0000
0010
0000
0011
0000
0010
0000
0100
0000
,
0010
1000
0010
0001
0010
0100
0010
0100
,
0010
0001
0010
1000
0001
1000
0001
0100
,
0010
1000
0100
1000
0010
1000
0001
0100
,
0001
0000
0001
1000
0001
0000
1000
0000
0001
0000
1000
0000
1000
0000
1000
0000
,
0100
0001
0010
1000
0010
0200
0010
0001
,
0001
0300
0100
0000
0010
0000
0001
0000
0010
0000
1000
0000
0010
0000
0001
0000
,
0010
0000
1000
0000
0001
0000
0010
0100
1000
0000
0001
0000
1000
0000
0001
0000
,
0100
0010
0001
0000
0010
0000
1000
0000
,
0010
0000
0000
0000
0200
0000
0000
0000
0010
0000
0000
1000
0301
1000
0010
0000
,
0100
0000
0000
0000
0010
0000
0100
0000
0010
0000
0001
0100
0010
0100
0001
0000
,
0001
0000
0000
0000
0010
0000
1000
0000
0001
0000
0100
0001
0010
0001
0100
0000
,
0010
0000
1000
0000
0001
0000
0010
0000
0100
0000
0010
0000
0010
0100
0010
0000
,
0100
0000
0001
1000
0010
0000
0001
0000
1000
0000
0100
0010
0001
0010
1000
0000
,
0001
0000
0010
0100
0010
0000
0100
0000
0010
0000
1001
0000
0000
0000
0001
0000
,
0001
0000
0000
0000
0010
0000
1000
0000
0100
0000
0000
0000
0010
0000
0000
0000
0001
0000
0000
0000
0010
0000
1000
0100
1000
0000
0000
0000
0010
0000
0000
0000
,
0100
0000
0202
0000
0303
0000
0001
0000
0010
0000
0001
1000
0010
1000
0001
0000
,
0010
1000
0001
1000
0001
0000
0001
0000
0100
0000
0001
0100
0010
0100
1000
0000
,
0010
0000
0010
0000
1000
0000
0010
0000
0100
0000
0001
1000
0010
1000
0010
0000
,
0100
0000
0010
0000
0010
0000
1000
0000
0001
0000
0100
0001
0010
0001
0100
0000
,
0010
0000
0001
0000
0001
0000
0010
0000
0100
0000
0010
0000
0010
0100
0010
0000
,
0100
0000
0001
0100
0010
0000
1000
0000
0001
0000
0100
0010
1000
0010
0001
0000
,
1000
0000
0001
0010
0010
0000
0100
0000
0001
0000
2002
0000
3003
0100
0010
0000
,
0010
0000
1000
0100
0010
0000
0010
0000
0100
0000
0001
0100
1000
0100
0001
0000
,
0100
0000
0001
0000
0010
0000
0001
0000
0010
0000
0001
0010
0100
0010
0001
0000
,
1000
0000
0000
0000
0100
0000
0000
0000
0001
0000
0000
0000
0100
0000
0000
0000
0001
0000
0000
0000
0010
0000
0100
1000
0100
0000
0000
0000
0010
0000
0000
0000
,
1000
1001
0000
0010
0100
0001
0010
1000
,
0001
0100
0001
0100
0001
0000
0000
0000
0001
0000
0000
0000
0010
0000
0000
0000
,
1000
0000
0100
0000
1000
0010
0001
0010
0000
0100
0010
0000
0100
0000
0010
0000
,
0100
0000
0001
0000
0010
0000
1000
0010
0000
0010
1000
0000
0001
0000
0010
0000
,
0101
0000
0010
0000
1000
0100
0010
0100
0000
0100
0010
0000
0001
0000
0010
0000
,
0100
0000
0010
0000
2002
0000
0000
3003
0001
0010
1000
0010
0000
0001
1000
0010
,
1000
0010
0100
0002
0000
0000
0000
0003
0000
0000
0000
0000
0000
0000
0000
0000
;

//---------------dance-single - Hard----------------
#NOTES:
     dance-single:
     Hard:
     Medium:
     5:
     0.402,0.411,0.057,0.236,0.029:
0000
0000
0000
0000
,
0000
0000
0000
0000
,
1000
0000
0000
0000
0001
0000
0000
0100
0000
0000
2000
0000
0000
3000
0000
0000
,
1000
0001
1000
0001
1000
0020
0000
0030
,
1000
0000
0010
0000
0001
0000
0000
0010
0000
0000
0200
0000
0000
0000
1000
0000
,
1300
0000
1000
0010
0001
0010
0010
0100
,
0001
0100
2000
0000
0001
0000
3002
0000
,
1000
0000
2000
3003
1000
0010
0100
0010
,
0000
0000
0000
0000
0001
0000
0000
1000
0000
0000
0020
0000
0000
0000
0000
0030
,
0000
0000
1000
0001
0100
0010
1000
0001
,
0000
0000
0010
0000
0100
0000
0000
0001
0000
0000
0200
0000
0300
0000
0010
0000
,
0001
0000
2000
0000
0000
0000
3100
0000
0010
0000
0200
0000
0000
0300
0010
0000
,
1000
0000
0001
0000
0200
0000
0000
0300
0010
0000
2000
0000
0000
3000
0001
0000
,
0100
0020
0000
0000
0000
0000
0000
0030
,
0100
0000
0010
0000
0100
0000
0000
0001
0000
0000
0200
0000
0000
0300
0010
0000
,
0100
0010
0001
0010
1000
0010
0100
0010
,
0000
0000
0001
0000
0010
0000
0000
0100
0000
0000
0020
0000
0000
0000
0000
0030
,
0000
0000
0000
0001
1000
0010
0100
0010
,
0000
0000
0010
0000
0100
0000
0000
0010
0000
0000
2000
0000
0000
3000
0010
0000
,
0100
0000
0002
0000
0000
0003
0100
0000
0010
0000
0200
0000
0000
0000
0310
0000
,
0100
0010
0100
0000
0010
2000
3000
0001
,
0100
0020
0000
0000
0000
0000
0000
0000
,
0000
0030
0000
0000
0000
0000
0000
1000
,
0001
1000
0000
0100
0010
0010
0000
0100
,
0010
1000
0010
0001
0010
0100
0010
0100
,
0010
0001
0010
1000
0001
1000
0001
0100
,
0010
1000
0100
1000
0010
1000
0000
0100
,
0001
0001
0000
1000
0001
1000
0000
1000
,
0100
0001
0010
1000
0010
0200
0010
0001
,
0001
0300
0100
0000
0010
0000
0001
0000
0010
0000
1000
0000
0010
0000
0001
0000
,
0010
0200
0000
0000
0000
0000
1300
0000
,
0100
0001
0010
1000
,
0010
0000
0200
0000
0010
0000
0301
0010
,
0100
0000
0010
0100
0010
0000
0010
0001
,
0100
0000
0010
1000
0001
0000
0010
0100
,
0010
0000
0001
0010
0100
0010
0000
0010
,
0100
0001
1000
0001
1000
0000
0001
1000
,
0001
0000
0010
0100
0010
1001
0000
0001
,
0001
0010
0100
0010
0001
0010
1000
0010
,
0100
0202
0303
0001
0010
0001
2000
0000
,
3002
0000
0000
0003
0001
0000
0001
0000
0100
0000
0000
0000
0010
0000
1000
0000
,
0001
0000
1000
0010
0100
0001
0010
0010
,
0100
0000
0010
1000
0001
0000
0010
0100
,
0010
0000
0001
0010
0100
0010
0000
0010
,
0100
0001
0010
1000
0001
0000
1000
0001
,
1000
0000
0010
0100
0001
1001
0000
0000
,
0010
1000
0010
0010
0100
0001
1000
0001
,
0100
0001
0010
0001
0010
0001
0100
0001
,
1000
0100
0001
0100
0001
0010
1000
0010
,
1000
1001
0000
0010
0100
0001
0010
1000
,
0001
1000
0001
0000
0001
0000
0010
0000
,
1000
0000
1010
0001
0100
0000
0100
0010
,
0100
0000
0010
1000
0010
1000
0001
0010
,
0101
0010
1000
0010
0100
0000
0001
0010
,
0100
0000
0010
0000
2002
0000
0000
3003
0000
0000
0000
0000
0000
0000
0000
0000
,
0000
0000
0000
0000
,
M000
0000
0000
0000
;

//---------------dance-single - Medium----------------
#NOTES:
     dance-single:
     Medium:
     Easy:
     4:
     0.241,0.251,0.016,0.245,0.000:
0000
0000
0000
0000
,
0000
0000
0000
0000
,
1000
0001
0100
2000
,
3000
0001
1000
0020
,
1030
0001
0010
0200
,
1300
1000
0001
0010
,
0001
2000
0001
3002
,
1000
2000
3003
0100
,
0010
0001
1000
0020
,
0030
1000
0001
0010
,
0001
0000
0100
0000
0001
0000
0200
0300
,
0000
2000
3000
0200
,
0300
0200
0300
2000
,
3000
0020
0000
0000
,
0030
0010
0001
0200
,
0300
0001
0010
0010
,
0010
0001
0100
0020
,
0030
0000
0001
0010
,
0010
0010
0010
2000
,
3000
0002
0003
0200
,
0300
0010
0010
2000
,
3000
0020
0000
0000
,
0000
0030
0000
0000
,
0001
1000
0010
0001
,
0100
0010
0001
0010
,
0010
0001
0010
0001
,
0010
0100
0010
1000
,
0001
1000
0001
1000
,
0100
0001
0010
0200
,
0000
0300
0001
0010
,
0001
0200
0000
0000
,
0300
0001
0010
1000
,
0010
0200
0000
0300
,
0010
0100
0001
0010
,
0001
0010
0001
1000
,
0010
0001
0010
0100
,
0010
0001
1000
0001
,
0100
0010
0010
0001
,
0001
0010
0001
0010
,
1000
0202
0303
2000
,
3002
0003
0001
0010
,
0001
1000
0010
0001
,
0010
0010
0001
0010
,
0010
0001
0010
0010
,
0010
0001
0001
1000
,
0001
0010
0001
1000
,
0010
0100
0010
0001
,
1000
0001
1000
0001
,
0100
0001
0100
0010
,
0010
0001
0010
0001
,
0001
0020
0000
0030
,
1000
0010
0001
0100
,
0010
0010
0010
0001
,
0001
0010
0010
0001
,
0010
2002
3003
0000
,
0000
0000
0000
0000
,
M000
0000
0000
0000
;

//---------------dance-single - Blank----------------
#NOTES:
     dance-single:
     Blank:
     Beginner:
     2:
     0.141,0.156,0.016,0.008,0.000:
0000
0000
0000
0000
,
0000
0000
0000
0000
,
1000
0000
0000
0000
,
0001
0000
1000
0000
,
0001
0000
0100
0000
,
0010
0000
0010
0000
,
1000
0000
0001
0000
,
0100
0000
0010
0000
,
1000
0000
0000
0000
,
0001
0000
0000
0000
,
1000
0000
0000
0000
,
0001
0000
0000
0000
,
0100
0000
0000
0000
,
1000
0010
0000
0000
,
1000
0000
0000
0000
,
0001
0000
0000
0000
,
1000
0000
0000
0000
,
0001
0000
0000
0000
,
0100
0000
0000
0000
,
0000
0000
0000
0000
,
0010
0000
0000
0000
,
1000
0000
0000
0000
,
0001
0000
0000
0000
,
1000
0001
0100
0000
,
0001
0000
0100
0000
,
0010
0000
1000
0000
,
0001
0000
1000
0000
,
0010
0100
0001
0000
,
0001
0000
1000
0000
,
1000
0001
0010
0100
,
0001
1000
0001
1000
,
0001
0010
0000
1000
,
0000
0001
1000
0000
,
0001
0100
0010
0000
,
1000
0001
0100
0000
,
0010
1000
0010
0000
,
0100
0100
1000
0000
,
0001
1000
0001
1000
,
0000
0001
1000
0001
,
0000
0010
0100
0010
,
1001
0010
0100
0000
,
1000
0001
0100
0000
,
0010
1000
0001
0000
,
0010
0100
0010
0100
,
0001
1000
1000
0000
,
0001
0100
0010
0000
,
0010
0001
0001
0000
,
1000
0001
0001
0000
,
0010
1000
0001
0100
,
1001
0000
0000
0001
,
1000
0010
0000
0100
,
0000
0001
1000
0000
,
0001
0000
1000
0000
,
0010
0001
0100
0000
,
1000
0020
0030
0000
;
