#TITLE:Landing action Yeah!!;
#SUBTITLE:;
#ARTIST:Aqours;
#TITLETRANSLIT:;
#SUBTITLETRANSLIT:;
#ARTISTTRANSLIT:;
#GENRE:;
#CREDIT:CHMEX;
#BANNER:banner.png;
#BACKGROUND:BGI.png;
#LYRICSPATH:;
#CDTITLE:;
#MUSIC:Landing action Yeah!!.mp3;
#OFFSET:0.000;
#SAMPLESTART:74.940;
#SAMPLELENGTH:12.000;
#SELECTABLE:YES;
#BPMS:0.000=160.000,8.500=57.000,9.000=85.000,9.500=100.000,10.000=147.000,10.500=175.000,16.000=147.000;
#STOPS:0.000=0.020
,8.500=0.020
;
#BGCHANGES:0.000=BGA.avi=1.000=0=0=1=StretchNormal====,
99999=-nosongbg-=1.000=0=0=0 // don't automatically add -songbackground-
;
#KEYSOUNDS:;

//---------------dance-single - Blank----------------
#NOTES:
     dance-single:
     Blank:
     Hard:
     8:
     0.946,1.000,0.379,0.623,0.054:
0000
0000
0000
0000
,
0000
0000
0000
0000
,
0000
2002
0000
0000
0000
0000
0000
0000
,
0000
0000
0000
0000
0000
0000
0000
3003
,
2002
0000
0000
0000
,
0000
0000
0000
3003
,
0000
0000
0002
0000
0000
2003
0000
0000
,
3001
0000
1000
0001
0000
0000
0001
1000
,
0002
0003
0001
2000
0000
3000
1000
0001
,
0000
0000
0001
0000
2000
0000
0000
0000
3000
0000
0100
0000
0010
0100
1000
0000
,
2000
0001
3002
1000
1003
0001
1000
0001
,
1001
0000
0000
0000
,
0001
0000
1000
0000
0001
1000
0001
0010
,
1000
0000
0001
0000
1000
0000
0010
0000
0100
0000
0010
0000
0100
0000
0000
1000
,
0010
0001
1000
0010
1000
0001
0010
0100
,
0001
0010
0100
0001
0010
0001
0100
0000
,
0001
1000
0010
1000
0001
0010
0100
0010
,
0001
0000
0010
0000
1000
0000
0100
0000
1000
0000
0010
0000
0100
0000
0000
1000
,
0010
0100
0001
1000
0100
0001
1000
0001
,
0100
0010
0001
0010
0000
0020
0000
0000
,
0130
0000
0010
0000
1000
0100
0001
0001
,
0010
0000
0100
2000
0000
3000
0100
0010
,
0001
0000
0010
0100
0000
1000
0000
0002
,
0000
0003
1000
0010
0001
0000
1001
0000
,
1010
0000
0001
1000
0001
1000
0001
0010
,
0100
0000
0100
0010
0100
0010
0100
0010
,
1000
0000
1000
0001
1000
0001
0100
0020
,
0000
0000
0000
0000
0000
0000
0030
0000
0000
0000
0000
0000
0001
0000
0000
0000
0000
0000
1002
0000
0000
0000
0000
0000
0000
0000
0000
0003
0000
0000
0002
0000
0003
0000
0000
0000
1000
0000
0000
0000
0000
0000
0001
0000
0000
0000
0000
0000
,
0010
0100
0001
0010
0100
1000
0100
1000
,
0100
0010
0001
0001
0010
0100
1000
0100
,
1000
0010
0100
0001
0010
0001
1000
0001
,
0010
0001
0100
0010
0101
0000
1001
0000
,
1000
0001
1010
0001
0001
0110
1000
0010
,
0001
0010
0101
0010
0001
0010
1010
0010
,
0001
0010
0100
0010
0001
0010
0100
0020
,
0000
0000
0030
0000
0000
0002
0000
1003
,
0001
0000
2002
3003
0000
2002
3003
2020
,
3030
0020
0000
1030
0001
1000
0000
0001
,
1000
0000
2002
0000
3003
2020
3030
2002
,
0000
0000
3003
1000
0000
0000
0001
0000
0000
0200
0000
0000
0000
0000
0000
0300
0000
0000
0010
0000
0000
0002
0000
0000
,
0010
0013
0101
0010
0100
1000
0100
0010
,
0001
0100
1000
0100
0010
0001
0100
0011
,
0001
0010
1000
1100
1000
0010
0010
0101
,
0010
0100
0010
1001
0010
0100
1000
0020
,
0000
0000
0000
0000
,
0030
1000
0001
0000
0000
0000
0000
0000
,
0200
0000
0320
0000
0031
0010
0100
0010
,
0001
0010
1000
0001
0010
0010
0100
0001
,
0010
0100
1000
0100
0010
0100
0010
1000
,
0001
0010
0100
0010
1000
0010
1000
0001
,
0110
0001
0100
0001
0010
0001
0010
0010
,
1000
0100
1000
0100
0100
0010
0001
0010
,
1000
0001
1000
0001
1000
0001
0010
0200
,
0000
0300
1000
0001
1000
0010
0001
0010
,
1000
0001
1000
0001
0100
0010
0001
0010
,
1000
0001
1000
0001
1000
0001
0010
0100
,
0010
1000
0100
1000
0010
0001
0010
1000
,
0001
1000
0001
0001
0010
0100
0010
0001
,
0010
0001
1000
0001
0010
0001
0100
0110
,
0000
0101
0000
1010
0000
0010
0000
0202
,
0000
0000
0000
0000
0000
0303
0000
0000
0001
1000
0001
1000
0001
1000
0002
0000
,
0000
0003
0010
0000
0000
0000
0200
0000
0300
0000
1000
0000
0000
0000
0200
0000
,
0000
0000
0301
0010
1000
0001
1000
0001
,
0100
0000
0010
0000
0001
0000
0010
0000
1000
0000
0001
0000
1000
0000
0000
1000
,
0001
1000
0010
0100
0001
0010
0100
0010
,
0001
0010
1000
0100
1000
0010
0001
0010
,
0001
0000
1000
0001
0010
0001
0010
0100
,
0001
0000
0010
0000
1000
0000
0010
0000
0100
0000
0010
0000
0001
0000
0000
0001
,
0010
1000
0001
0100
0010
0001
1000
0010
,
2000
3000
1000
0001
0000
1000
0000
0020
,
0000
0000
0000
0000
,
0000
0000
0000
0000
,
0200
0000
0000
0000
,
0000
0000
0000
0000
,
0330
0000
0000
0000
;

//---------------dance-single - Hard----------------
#NOTES:
     dance-single:
     Hard:
     Challenge:
     11:
     1.000,1.000,0.433,0.772,0.284:
0000
0000
0000
0000
,
0000
0000
0000
0000
,
0000
2002
0000
0000
0000
0000
0000
0000
,
0000
0000
0000
0000
0000
0000
0000
3003
,
2002
0000
0000
0000
0000
0000
0023
0000
0000
0000
0000
0000
0000
0000
3000
2000
0000
0000
0000
0000
0000
0000
0000
0000
,
0230
0000
0000
0000
0000
0000
0000
0000
3000
2000
0000
0000
0000
0000
0000
0000
0000
0000
0000
0000
0000
0000
3300
0000
,
2000
0000
0000
0000
0000
0000
0002
0000
0000
0000
0000
0000
0000
0000
3000
2000
0000
0000
0000
0000
0000
0000
0003
0000
,
0002
0000
0000
0000
3000
0000
2000
0000
0003
0002
0000
0000
0000
0000
3000
0003
0000
0000
0001
0000
0000
1000
0000
0000
,
0001
0000
0001
2000
0000
3000
1000
0001
,
0000
0000
0001
0000
2000
0000
0000
0000
3000
0000
0100
0000
0010
0100
1000
0000
,
2000
0000
0001
0000
3002
0000
1000
0000
1003
0001
1000
0001
1000
0001
0010
0100
,
1001
0000
0000
0000
0000
0000
2000
0000
0000
3000
0002
0000
0000
0003
0200
0000
,
0001
0000
1300
0000
0001
1000
0001
0010
,
1000
0000
0001
0000
1000
0000
0010
0000
0100
0000
0010
0000
0100
0000
0001
1000
,
0010
0001
1000
0010
1000
0001
0010
0100
,
0001
0000
0010
0000
0100
0000
0001
0000
0010
0100
0001
0000
0100
0000
0010
0100
,
1000
1000
0010
1000
0001
0010
0100
0010
,
0001
0000
0010
0000
1000
0000
0100
0000
1000
0000
0010
0000
0100
0000
0010
1000
,
0010
0000
0100
0000
0001
0000
1000
0000
0100
0000
0001
0000
1000
0000
0001
0010
,
0100
0000
0010
0000
0001
0000
0010
0000
0000
0010
1000
0000
1000
0010
1000
0010
,
0100
0010
0010
0100
1000
1000
0100
0010
,
0010
0000
0100
2000
0000
3000
0100
0010
,
0001
0001
0010
0100
0100
0010
0001
0002
,
0000
0003
1000
0010
0001
0000
1001
0000
,
1010
0000
0001
1000
0001
1000
0001
0010
,
0100
0000
0100
0010
0100
0010
0100
0010
,
1000
0000
1000
0001
1000
0001
0100
0020
,
0000
0000
0000
0000
0000
0000
0030
0000
0000
0000
0000
0000
0001
0000
0000
0000
0000
0000
1002
0000
0000
0000
0000
0000
0000
0000
0000
0003
0000
0000
0002
0000
0003
0000
0000
0000
1000
0000
0000
0000
0000
0000
0001
0000
0000
0000
0000
0000
,
0010
0100
0001
0010
0100
1000
0100
1000
,
0100
0010
0001
0001
0010
0100
1000
0100
,
1000
0010
0100
0001
0010
0001
1000
0001
,
0010
0000
0001
0000
0100
0000
0010
0000
0101
0100
0000
0000
1001
0000
1000
0001
,
1000
0001
1010
0001
0001
0110
1000
0010
,
0001
0010
0101
0010
0001
0010
1010
0010
,
0001
0010
0100
0010
0001
0010
0100
0020
,
0000
0030
0100
0000
1000
0001
0100
0010
0100
1000
0100
0001
1000
0010
0100
0020
,
0000
0030
0000
0000
2002
0000
3003
0000
0000
0000
2002
0000
3003
0000
2020
0000
,
3030
0020
0000
1030
0001
1000
0000
0001
,
1000
0000
2002
0000
3003
2020
3030
2002
,
0000
0000
3003
1000
0000
0000
0001
0000
0000
0200
0000
0000
0000
0000
0000
0300
0000
0000
0010
0000
0000
0002
0000
0000
,
0010
0013
0101
0010
0100
1000
0100
0010
,
0001
0000
0100
0000
1000
0000
0100
0000
0010
0001
0010
0001
0010
0001
0011
0000
,
0001
0010
1000
1100
1000
0010
0010
0101
,
0010
0100
0010
1001
0010
0100
1000
0020
,
0000
0000
1030
0000
0001
0000
0100
0000
0010
0100
0001
0100
0010
0001
1000
0000
,
0000
1001
1001
2000
0000
3002
0013
0100
,
0200
0000
0320
0000
0031
0010
0100
0010
,
0001
0010
1000
0001
0010
0010
0100
0001
,
0010
0100
1000
0100
0010
0100
0010
1000
,
0001
0000
0010
0000
0100
0000
0010
0000
1000
0100
0010
0000
1000
0000
0001
0000
,
0110
0001
0100
0001
0010
0001
0010
0010
,
1000
0100
1000
0100
0100
0010
0001
0010
,
1000
0001
1000
0001
1000
0001
0010
0200
,
0000
0000
0000
0000
0300
1000
0100
0000
1000
0000
0000
0000
0001
0000
1000
0000
0000
0000
1000
0000
0010
0000
0000
0000
0001
0000
0010
0000
0001
0000
0100
0000
,
0010
0001
1000
0001
0100
0010
0001
0010
,
1000
0001
1000
0001
1000
0001
0010
0100
,
0010
1000
0100
1000
0010
0001
0010
1000
,
0001
0000
1000
0000
0001
0000
0001
0000
0010
0100
1000
0000
0010
0000
0001
0000
,
1001
0001
1000
0001
0010
0001
0100
0110
,
0000
0101
0010
1010
0000
0110
0010
0202
,
0000
0000
0000
0000
0000
0303
0000
0000
0001
1000
0001
1000
0001
1000
0002
0000
,
0000
0003
0010
0000
0000
0000
0200
0000
0300
0000
0001
0000
0000
0000
2000
0000
,
0000
3000
0001
0010
1000
0001
1000
0001
,
0100
0000
0010
0000
0001
0000
0010
0000
1000
0000
0001
0000
1000
0000
0000
1000
,
0001
1000
0010
0100
0001
0010
0100
0010
,
0001
0000
0010
0000
1000
0000
0100
0000
1000
0100
0010
0000
0001
0000
0010
0001
,
0010
0100
1000
0001
0010
0001
0010
0100
,
0001
0000
0010
0000
1000
0000
0010
0000
0100
0000
0010
0000
0001
0000
0100
0001
,
0010
1000
0001
0100
0010
0001
1000
0010
,
2000
3001
1000
0001
0000
1000
0000
0020
,
0000
0000
0000
0000
,
0000
0000
0000
0000
,
0200
0000
0000
0000
,
0000
0000
0000
0000
,
0330
0000
0000
0000
;

//---------------dance-single - Hard----------------
#NOTES:
     dance-single:
     Hard:
     Medium:
     6:
     0.787,0.952,0.366,0.596,0.000:
0000
0000
0000
0000
,
0000
0000
0000
0000
,
0000
2002
0000
0000
0000
0000
0000
0000
,
0000
0000
0000
0000
0000
0000
0000
3003
,
2002
0000
0000
0000
,
0000
0000
0000
3003
,
0000
0000
0002
0000
0000
2003
0000
0000
,
3001
0000
1000
0001
0000
0000
0001
1000
,
0202
0000
0000
0000
0000
0000
0000
0303
,
2020
0000
0000
3030
,
1000
0001
0001
1000
1000
0001
1000
0001
,
1001
0000
0000
0000
,
0001
0000
1000
0000
0001
1000
0001
0000
,
1000
0001
1000
0010
0100
0010
0100
0000
,
0010
0000
1000
0000
1000
0001
0010
0000
,
0001
0010
0100
0001
0010
0001
0100
0000
,
0001
0000
0010
0000
0001
0010
0100
0000
,
0001
0010
1000
0100
1000
0010
0100
0000
,
0010
0000
0001
0000
0100
0001
1000
0000
,
0100
0010
0001
0010
0000
0020
0000
0000
,
0130
0000
0010
0000
1000
0000
0001
0010
,
0010
0000
1000
0100
1000
0000
0100
0010
,
0001
0000
0010
0100
0000
1000
0000
0002
,
0000
0003
1000
0000
0001
0000
1001
0000
,
1010
0000
0001
0000
1000
0000
0001
0010
,
0200
0300
0100
0010
0100
0010
0100
0010
,
1000
0000
1000
0001
1000
0001
0100
0020
,
0000
0000
0000
0000
0000
0000
0030
0000
0000
0000
0000
0000
0001
0000
0000
0000
0000
0000
1002
0000
0000
0000
0000
0000
0000
0000
0000
0003
0000
0000
0002
0000
0003
0000
0000
0000
1000
0000
0000
0000
0000
0000
0002
0000
0000
0000
0000
0000
,
0000
0003
0001
0010
0100
0000
0100
1000
,
0100
0010
0001
0001
0010
0100
1000
0000
,
1000
0010
0100
0001
0010
0001
1000
0001
,
0010
0001
0100
0010
0101
0000
1001
0000
,
1000
0001
1010
0000
0001
0110
0000
0000
,
0001
0010
0100
0010
0001
0010
1000
0010
,
0001
0010
0100
0010
0001
0010
0100
0020
,
0000
0000
0030
0000
0000
0002
0000
1003
,
0001
0000
2002
3003
0000
2002
3003
2020
,
3030
0020
0000
1030
0001
1000
0000
0001
,
1000
0000
2002
0000
3003
2020
3030
2002
,
0000
0000
3003
1000
0000
0000
0001
0000
0000
0200
0000
0000
0000
0000
0000
0300
0000
0000
0000
0000
0000
0000
0000
0000
,
0010
0001
0100
0000
0100
1000
0100
0010
,
0001
0100
1000
0100
0010
0001
0100
0011
,
0000
0010
0000
1100
0000
0010
0000
0101
,
0000
0100
0000
1001
0000
0100
1000
0020
,
0000
0000
0000
0000
,
0030
1000
0001
0000
0000
0000
0000
0000
,
0200
0000
0320
0000
0031
0010
0100
0000
,
0001
0010
1000
0001
0010
0010
0100
0001
,
0010
0100
1000
0000
0010
0100
0010
0000
,
0001
0010
0100
0010
1000
0010
1000
0001
,
0110
0000
0100
0000
0010
0001
0010
0000
,
1000
0100
1000
0100
0100
0010
0001
0010
,
1000
0001
1000
0000
1000
0001
0010
0200
,
0000
0300
1000
0001
1000
0010
0001
0010
,
1000
0001
1000
0000
0100
0010
0001
0000
,
1000
0001
1000
0001
1000
0001
0010
0100
,
0010
1000
0100
0000
0010
0001
0010
0000
,
0001
1000
0001
0001
0010
0100
0010
0001
,
0010
0001
1000
0000
0010
0001
0100
0110
,
0000
0101
0000
1010
0000
0010
0000
0202
,
0000
0000
0000
0000
0000
0303
0000
0000
0000
0000
0000
0000
0001
0000
1000
0000
,
0000
0001
0000
0200
0300
1000
0000
0020
,
0000
0000
0000
0000
,
0000
0000
0000
0000
0000
0000
0000
0030
,
0001
0000
1000
0000
0001
0010
0100
0000
,
0001
0010
1000
0100
1000
0010
0001
0010
,
0001
0000
1000
0000
0010
0001
0010
0000
,
0001
0010
1000
0010
0100
0010
0001
0000
,
0010
1000
0001
0000
0010
0001
1000
0010
,
2000
3000
1000
0001
0000
1000
0000
0020
,
0000
0000
0000
0000
,
0000
0000
0000
0000
,
0200
0000
0000
0000
,
0000
0000
0000
0000
,
0330
0000
0000
0000
;

//---------------dance-single - Medium----------------
#NOTES:
     dance-single:
     Medium:
     Easy:
     4:
     0.468,0.603,0.122,0.447,0.000:
0000
0000
0000
0000
,
0000
0000
0000
0000
,
0000
0000
0000
0000
,
0000
0000
0000
0000
,
2002
0000
0000
0000
,
0000
0000
0000
3003
,
0000
0002
0000
0003
,
2000
0000
0000
3000
0000
0000
0001
0000
,
0002
0000
0000
0000
,
2003
0000
0000
3000
,
1000
0001
1000
0001
,
1001
0000
0000
0000
,
0001
1000
0001
0001
,
1000
0001
0100
0010
,
0100
1000
0100
0001
,
0001
0100
0001
0100
,
0001
0010
0001
0010
,
0001
0010
0100
0010
,
0010
0001
0100
1001
,
0100
0000
0020
0000
,
0030
0010
1000
0001
,
0010
1000
1000
0100
,
0001
0010
0100
1000
,
0002
1003
0020
1030
,
0200
0310
1000
0001
,
0200
0310
0100
0010
,
1000
1000
0001
0100
,
0020
0030
0002
1003
,
0002
0013
0100
0010
,
1000
0001
0001
1000
,
1000
0010
0001
1000
,
0001
0100
0010
1000
,
0100
1000
0001
0100
,
0001
0100
0001
1000
,
0001
0100
0001
0100
,
0020
0000
0030
0002
,
1003
0000
2002
0000
3003
0000
0000
2002
,
0000
3003
0000
0000
1000
0000
1000
0000
,
0001
0000
2002
0000
3003
0000
0000
2002
,
0000
3003
1000
0000
0200
0000
0300
0000
,
0010
0001
0100
1000
,
0001
0000
1000
0000
0100
0000
0000
0001
,
0000
0000
0000
1000
0000
0000
0000
0001
,
0000
0000
0000
1000
0000
0000
0000
0020
,
0000
0000
0000
0000
,
0000
0030
0000
0000
,
0100
0010
0001
0000
,
0001
0010
0001
0000
,
0010
1000
0010
0000
,
0001
0010
1000
0010
,
1001
0100
0010
0001
,
1000
1000
0100
0001
,
0010
0001
1000
0010
,
0200
0300
1000
0001
,
0010
1001
0100
0001
,
1000
0001
1000
0001
,
0100
0100
0010
0001
,
0010
0001
0010
0100
,
0001
1000
0010
0001
,
0000
0000
1000
0000
0000
0000
0000
0002
,
0000
0000
0003
0002
,
0003
0000
2000
0000
3000
0000
0000
0020
,
0000
0000
0000
0000
,
0000
0000
0000
0000
,
0031
1000
0001
0100
,
0001
0010
1000
0001
,
0010
1000
0010
0001
,
0001
1000
0010
0001
,
0010
1000
0010
1000
,
0020
0030
0001
1000
,
0020
0000
0000
0000
,
0000
0000
0000
0000
,
0000
0000
0000
0000
,
0000
0000
0000
0000
,
0000
0030
0000
0000
;

//---------------dance-single - Blank----------------
#NOTES:
     dance-single:
     Blank:
     Beginner:
     2:
     0.298,0.440,0.054,0.149,0.000:
0000
0000
0000
0000
,
0000
0000
0000
0000
,
0000
0000
0000
0000
,
0000
0000
0000
0000
,
2000
0000
0000
0000
,
0000
0000
0000
0000
,
3000
0000
0000
0000
,
0000
0000
0000
0000
,
0002
0000
0000
0000
,
2003
0000
0000
0000
0000
0000
0000
3000
,
0010
0000
0001
0000
,
0200
0300
0000
0000
,
0001
1000
0000
0001
,
0000
0100
0000
0010
,
0100
0001
0000
0100
,
0000
0010
0000
0100
,
0010
1000
0000
0001
,
0000
1000
0000
0001
,
0100
0010
0000
0100
,
0000
0001
0000
0000
,
1000
0001
1000
0000
,
0001
0001
0010
0000
,
0100
1000
0100
0000
,
0010
0001
0010
0000
,
0100
1000
1000
0000
,
0100
0010
0010
0000
,
0001
0001
0001
0000
,
0000
0000
0000
0000
,
1000
0001
0000
1000
,
0000
0001
0000
0100
,
0001
0000
0100
0000
,
0010
0000
1000
0001
,
0010
0100
0000
1000
,
0000
0001
0000
0100
,
0001
0000
1000
0000
,
0001
0000
0100
0000
,
0010
0011
0000
0000
,
0000
0000
0000
0000
,
0100
1010
0000
0000
,
0000
0000
0000
0010
,
0001
0010
0000
0100
,
0000
1000
0000
0002
,
0000
0003
2000
0000
0000
3000
0200
0000
,
0000
0300
0002
0000
0000
0003
0200
0000
,
0000
0000
0000
0000
,
0300
0000
0000
0000
,
1000
0001
0000
0100
,
0000
0010
0000
0100
,
0010
0100
1000
1000
,
0001
0001
1000
1001
,
0010
0100
0000
0001
,
0000
1000
0000
0010
,
0000
0100
0000
0001
,
0000
1000
0000
0001
,
1000
0001
0000
1000
,
0000
0010
0000
0100
,
0000
0001
0010
0001
,
1000
0001
1001
0001
,
1000
0001
0000
1000
,
0000
0010
0000
0002
,
0000
0003
0000
0000
,
1000
0000
0001
0000
,
0100
0001
1000
0001
,
0000
1000
0000
0001
,
0000
0100
0000
0010
,
0000
1000
0000
0001
,
0100
0001
0000
1000
,
0000
0010
0000
0100
,
0000
0010
0000
1000
,
0000
0000
0001
0000
0000
0000
0000
0200
,
0000
0000
0000
0000
,
0000
0000
0000
0000
,
0000
0300
0000
0000
0000
0000
0000
0000
;
