#TITLE:Genki Zenkai Day Day Day;
#SUBTITLE:;
#ARTIST:Cyaron;
#TITLETRANSLIT:;
#SUBTITLETRANSLIT:;
#ARTISTTRANSLIT:;
#GENRE:CHMX;
#CREDIT:;
#BANNER:banner.png;
#BACKGROUND:BGI.png;
#LYRICSPATH:;
#CDTITLE:;
#MUSIC:Genki Zenkai Day Day Day.mp3;
#OFFSET:0.000;
#SAMPLESTART:66.640;
#SAMPLELENGTH:12.000;
#SELECTABLE:YES;
#BPMS:0.000=190.000;
#STOPS:0.000=0.240
;
#BGCHANGES:0.000=BGA.avi=1.000=0=0=0=StretchNoLoop====,
99999=-nosongbg-=1.000=0=0=0 // don't automatically add -songbackground-
;
#KEYSOUNDS:;

//---------------dance-single - Blank----------------
#NOTES:
     dance-single:
     Blank:
     Easy:
     4:
     0.310,0.474,0.082,0.321,0.000:
0000
0000
0000
0000
,
0000
0000
0000
0000
,
0100
0001
0100
2000
,
0000
3002
0000
0203
,
0000
0320
0000
2030
,
0000
0000
0000
0000
,
3200
0300
0020
0030
0002
0003
0020
0000
,
0000
2030
0000
3002
,
0000
0000
0203
0000
0000
0300
0020
0000
,
0000
0000
0000
0000
,
0000
0000
0000
0030
0000
0000
1000
0000
,
0001
0001
1000
1000
,
0001
0010
1001
0000
,
1000
1000
1000
0001
,
0010
0100
0110
0000
,
0001
0001
1000
1000
,
0001
0010
0001
0010
,
0000
2000
0000
0000
0000
0000
3000
0001
,
0000
0000
0000
0001
0000
2002
0000
0000
,
0000
0000
0000
0000
,
0000
0000
0000
3103
,
0000
0000
0000
0002
,
0000
2003
0000
0000
3001
0000
0000
0000
,
2000
0000
0000
3020
,
0000
0230
0000
0000
0310
0000
2000
0000
,
0000
3000
0000
0000
0000
0000
0001
0000
,
0000
1000
0001
0010
,
0000
0000
0000
1000
,
0000
0001
0000
0010
,
0000
0010
0000
0000
0010
0000
0010
0000
,
0100
1000
0100
0100
,
0000
0100
0000
0000
0100
0000
0000
0000
,
0100
0001
1000
0010
,
2000
0000
0000
3100
,
0000
0100
0000
0000
0010
0000
0002
0000
,
0000
0000
0000
0013
,
0000
1000
0000
0000
0100
0000
0010
0000
,
0000
0000
0020
0000
0000
0030
2000
0000
,
0000
3000
0020
0030
0000
0000
0002
0000
,
1000
0003
0001
0000
1000
0000
0010
0000
,
0000
2000
0000
3100
,
0000
0001
0000
0000
0100
0000
0000
0000
,
0100
0000
0000
1000
0000
0000
0100
0000
,
0000
0000
0000
0000
,
0000
0000
0000
0001
,
0000
1000
0000
0000
0001
0000
0000
0000
,
1000
0000
0000
0001
0000
1000
0000
0000
,
0000
0000
0000
0010
,
0000
1000
0000
0001
,
0000
1000
0000
1000
,
0000
0001
0000
0010
,
0000
0000
0100
0000
0000
0100
0000
0000
,
0000
0000
0000
0000
,
0000
0000
0000
0001
,
1000
0001
0000
0010
,
0010
0001
0000
2000
,
0000
0000
3000
0000
,
0000
1000
0000
0001
,
0000
1000
0000
0001
,
0000
0100
0000
0020
,
0000
0000
0000
0000
0000
0030
0000
0000
,
0100
0001
0100
1000
,
0000
0001
0000
0100
,
0000
0010
0000
0000
0000
0000
1000
0000
,
0000
0010
0000
0001
,
0000
0100
0000
0010
,
0000
1000
0000
0010
,
0000
0001
0000
0020
,
0000
0000
0000
0030
,
0000
0010
0100
1000
,
0000
0002
0000
0003
0000
0000
0100
0000
,
0000
0020
0000
0000
0000
0030
0000
0000
,
0000
0100
0000
0010
,
0000
0000
0000
0000
,
0000
0000
0000
0000
,
0001
0001
1000
1000
,
1000
0001
1001
0000
,
1000
1000
0100
0100
,
0010
0010
0110
0000
,
0001
0001
0010
0010
,
0100
1000
1100
0010
,
0000
0200
0000
0000
0000
0300
0001
0000
,
1000
0001
1001
0000
,
1000
1000
0001
0001
,
0010
0010
0110
0000
,
0010
0010
0001
0001
,
0001
1000
1001
0000
,
1000
1000
0100
0100
,
0010
0010
0001
0010
,
0010
0001
0001
0010
,
0010
0001
0010
0001
,
0010
0001
0010
0002
,
0000
2000
0000
0000
0000
0000
3003
0100
,
0000
0010
0000
0100
0000
2002
0000
0000
,
0000
0000
0000
0000
,
0000
0000
0000
0000
0000
0000
0000
3003
;

//---------------dance-single - Blank----------------
#NOTES:
     dance-single:
     Blank:
     Hard:
     9:
     0.646,0.709,0.429,0.775,0.021:
0000
0000
0000
0000
,
0000
0000
0000
0002
,
2003
3020
2030
0000
,
3002
0000
0203
0000
,
0320
0000
0000
0030
2000
0000
0000
0000
,
0000
0000
0000
3000
0000
0000
2000
3000
,
0200
0300
0020
0030
0002
0000
0000
0000
,
0203
0000
0000
0300
0020
0000
0000
0030
,
2000
0000
0000
3000
0010
1000
0100
0010
,
0000
0010
1000
0002
0000
0000
0000
0100
,
0013
0000
0100
0000
0100
1000
0010
1000
0010
0000
0010
0000
0101
0000
0000
0000
,
0101
0000
0000
2000
3010
0001
0010
0100
,
0010
1010
0100
1010
,
1010
0000
0000
0200
0301
0010
0001
0010
,
1000
1001
0010
0101
,
0101
0000
0000
2000
3100
0001
0010
0100
,
0010
0000
0100
0000
2000
0000
0000
0020
,
0030
3010
1000
0010
0000
0001
1000
0010
,
0000
0010
0100
0002
0000
0000
0000
0000
,
0000
0000
0000
0000
,
0000
0000
0000
0003
0001
0000
0010
0000
,
1000
0000
0010
0000
0002
0000
0003
2000
,
0000
3000
0002
0000
0003
0000
0010
0000
,
1000
0000
0001
0000
0020
0000
0030
0100
,
0000
0010
0002
0000
,
0003
0000
0001
1000
0002
0000
0003
0000
,
0001
0000
0010
1000
0020
0000
0000
0030
,
0000
0000
0001
1000
0002
0000
0003
0000
,
0100
0000
0010
0000
1001
0000
0000
1001
,
0000
0000
1001
0000
0000
0100
0010
0100
,
0001
0010
1000
0100
1010
0000
0000
1010
,
0000
0000
1010
0000
0000
0010
0000
0100
,
0001
0000
0010
1000
0001
0000
0010
0000
,
0100
1000
0010
0000
0002
0000
0100
0003
,
0010
0001
2000
0000
3010
0000
0100
0000
,
0010
1000
0001
0000
0020
0000
1030
0000
,
0100
0001
0020
0000
0031
0000
0100
0000
,
0002
0000
1000
0003
0020
0000
1000
0030
,
0200
0000
0001
0300
0010
0100
0001
1000
,
0000
0001
0000
0200
0000
0300
0000
0001
,
0200
0000
0000
0300
0100
0000
0101
0040
,
0000
0030
0001
0040
0000
0030
1001
0040
,
0000
0030
0100
4000
0000
3000
0100
0000
,
0010
0001
0200
0010
0000
0300
0200
1000
,
0000
0300
2000
0010
0000
3000
0110
0020
,
0000
0030
0010
2000
0000
3000
0100
0020
,
0000
0030
0001
0020
0000
0000
0030
0000
,
0000
0010
2002
3003
,
0220
0000
0330
0000
1001
0000
0001
1000
,
0010
0100
0001
0010
0001
0000
0001
2000
,
0000
0000
3000
0000
0000
0000
1000
0001
,
0010
0100
0001
0010
0100
0001
0000
1000
,
0001
0000
1000
0001
0000
0000
2000
0000
,
3020
0230
1302
0103
,
0010
0100
0001
0000
1020
0000
0130
0000
,
0100
0001
0100
0000
0020
0000
0000
0030
,
0200
0000
0000
0300
2000
0000
3200
0000
,
0320
0031
0120
1030
,
0100
1000
0010
0000
0201
0000
0310
0000
,
0100
1000
0100
0000
0020
0000
0000
0000
,
0000
0000
0000
0000
0000
0000
0000
0000
0030
1010
0000
0000
0000
0000
0000
0110
0000
0000
0000
0000
0000
0101
0000
0000
,
0000
0000
0022
0000
0000
0033
0010
0001
0010
0000
0100
0000
1000
0000
0001
0000
,
0010
0100
0010
0001
0100
0010
0100
1000
,
1000
0100
0001
1000
0010
0100
0001
1000
,
0100
0010
0100
0001
0010
0010
0100
1000
,
0010
0100
0010
0000
0001
0000
0010
2000
,
0000
3010
0100
0000
0001
0000
0010
2000
,
0000
3000
0010
0000
0101
0000
0100
0020
,
0000
1030
0200
0300
,
2000
3010
0200
0300
0020
0000
0030
0202
,
0000
0303
0000
0000
1000
0001
0000
0220
,
0330
0010
0000
0202
0000
0000
0303
0000
,
0001
0000
0010
0000
0100
1000
0000
1000
,
0001
0100
0010
0100
0001
1000
0100
0010
,
0000
0000
0001
0000
1000
0100
0010
0100
0010
0000
0000
0000
0101
0000
0000
0000
,
0101
0000
0000
2000
3000
0001
0010
0100
,
0010
1100
0010
1001
,
1001
0000
0000
0200
0300
0001
0010
1000
,
0100
1010
0001
0110
,
0110
0000
0000
2000
3000
0010
0100
0001
,
0010
1000
0200
2300
,
3010
0001
0100
0000
0010
0000
1010
0000
,
0101
0011
0010
1010
,
1010
0000
0000
0200
0300
0001
0010
1000
,
0100
0110
0001
0101
,
0101
0000
0000
2000
3000
0001
0010
0100
,
0001
1001
0010
0101
,
0101
0000
0000
0200
0300
0010
1000
0010
,
0001
0000
0100
0020
0030
0001
1000
0010
,
0100
0000
0001
0020
0030
1000
0001
0020
,
0030
1000
0001
0020
0030
0100
1000
0010
,
0001
0000
0100
0000
0010
0000
0000
1001
,
0000
0010
0100
0001
0000
0010
0001
1000
,
0000
2000
3002
2000
0000
0000
0000
0000
,
0000
0000
0000
0000
,
0000
0000
0000
0000
0000
3003
0000
0000
;

//---------------dance-single - Hard----------------
#NOTES:
     dance-single:
     Hard:
     Challenge:
     12:
     0.758,0.788,0.470,0.593,0.021:
0000
0000
0000
0000
,
0000
0000
0000
0002
,
2003
3020
2030
0000
,
3002
0000
0203
0000
,
0320
0000
0000
0030
2000
0000
0000
0000
,
0000
0000
0000
3000
0000
0000
2000
3000
,
0200
0300
0020
0030
0102
0000
0000
0000
,
0203
0000
0000
0300
1020
0000
0000
0030
,
2000
0000
0000
3000
1010
1000
0100
0010
,
0000
0010
1000
0002
0000
0000
0003
0100
,
0001
0000
0100
0000
0001
1000
0010
0100
1000
0000
0010
0000
0101
0000
0010
0000
,
0101
1000
0010
1000
0100
0001
0010
0100
,
0010
0001
1010
0001
0100
0001
1010
0100
,
1010
0100
0001
0100
1000
0010
0001
0010
,
1000
0100
1001
0100
0010
1000
0101
0010
,
0101
0010
0100
1000
0010
0001
0010
0100
,
0010
0000
0100
0000
2000
0000
0000
0020
,
0030
3010
1000
0010
0000
0001
1000
0010
,
0000
0010
0100
0002
0000
0000
0000
0000
,
0000
0000
0000
0000
,
0000
0000
0000
0003
0021
0030
0010
0000
,
1000
0000
0010
0000
0002
0000
0003
2000
,
0000
3000
0002
0010
0013
0000
0010
0000
,
1000
0000
0001
0000
0020
0000
0030
0100
,
0000
0000
0010
1000
0002
0000
0000
0000
,
0003
0000
0001
1000
0002
0000
0003
0000
,
0001
0000
0010
1000
0020
0000
0000
0030
,
0000
0000
0001
1000
0002
0000
0003
0000
,
0100
0000
0010
0000
1010
0000
0100
0101
,
0000
0100
0011
0000
0000
0100
0010
0100
,
0001
0010
1000
0100
1010
0000
1000
0110
,
0000
0010
0101
0000
0000
0020
0030
0100
,
0001
1000
0010
1000
0110
0000
0001
1000
,
0010
0100
0001
0010
1000
0010
0100
0100
,
0001
0010
0100
0100
0010
0001
0010
0100
,
1000
0100
1000
0010
0100
0010
0001
0010
,
0100
1000
0010
0100
1000
0010
2000
0001
,
0010
3100
0201
0010
1300
0100
0010
0001
,
0010
0001
0100
0010
0100
0001
0010
1000
,
0001
0010
0000
0200
0000
0000
0300
1000
,
0020
0000
0000
0030
0100
0000
0101
0040
,
0000
0030
0001
0040
0000
0030
1001
0040
,
0000
0030
0100
4000
0000
3000
0100
0000
,
0010
0001
0400
0010
0000
0300
0400
1000
,
0000
0300
4000
0010
0000
3000
0400
0010
,
0000
0300
0010
4000
0000
3000
0200
0010
,
0000
0300
0002
0010
0000
0003
0000
0000
,
0000
0010
2002
3003
,
0220
0000
0330
0000
1001
0000
0001
1000
,
0010
0100
0001
0010
0001
0000
0001
2000
,
0000
0000
3000
0000
0000
0000
1000
0001
,
0010
0100
0001
0010
1000
0010
0000
0001
,
1000
0000
0001
1000
0000
0000
2000
0000
,
3020
0230
1302
0103
,
0010
0100
0001
0000
0120
0000
1000
0000
,
0130
0001
0100
0000
0020
0000
0000
0030
,
0200
0000
0000
0300
2000
0000
3200
0000
,
0320
0000
0031
0000
0120
0000
0100
0030
,
0001
1000
0010
0000
0102
0000
0010
0003
,
0010
1000
0001
0000
0020
0000
0000
0000
,
0000
0000
0000
0000
0000
0000
0000
0000
0030
1010
0000
0000
0000
0000
0000
0110
0000
0000
0000
0000
0000
0101
0000
0000
,
0000
0000
0022
0000
0000
0033
0010
0001
0010
0000
0100
0000
1000
0000
0001
0000
,
0010
0100
1000
0001
0100
0010
0001
1000
,
0010
0100
1000
0100
0010
0100
0001
1000
,
0100
0010
0100
0001
0100
0010
0100
1000
,
0001
0100
1000
0010
0001
0100
0010
0001
,
0100
0010
0100
0010
0001
0100
0010
1000
,
0100
1000
0010
0100
0001
1000
0100
0010
,
0100
0010
1000
0100
0200
0000
0300
0000
,
2000
3010
0200
0300
0020
0000
0030
0202
,
0000
0313
0010
0100
1000
0100
0010
0220
,
0000
0330
2002
0000
0000
3003
2002
0000
0000
0000
0000
3003
0000
0000
0000
0000
,
0001
0000
0010
0000
0100
1000
0000
1000
,
0001
0100
0010
0100
0001
1000
0100
0010
,
0000
0000
0001
0000
1000
0001
0100
0001
0010
0000
1000
0000
0101
0000
0010
0000
,
0101
0010
0010
1000
0100
0001
0010
0100
,
0010
0001
1100
0100
0010
0100
1001
0010
,
1001
0100
0010
0100
1000
0001
0010
1000
,
0100
0001
1010
0100
0001
1000
0110
0100
,
0110
1000
0001
1000
0100
0010
0100
0001
,
0010
0100
1000
0010
0200
0310
2000
3100
,
0010
0001
0100
1000
0010
0100
1010
0100
,
0101
0010
0011
0100
0010
1000
1010
0100
,
1010
0100
0010
0100
1000
0001
0010
1000
,
0100
0001
0110
1000
0001
0010
0101
0010
,
0101
0100
0010
1000
0100
0001
0010
0100
,
0001
0010
1001
0100
1000
0010
0101
0010
,
0101
1000
0010
1000
0100
0010
1000
0010
,
0001
1000
0100
0010
0100
0001
1000
0010
,
0001
1000
0100
0010
0100
0001
0010
1000
,
0100
0010
0100
0001
0010
1000
0100
0010
,
0100
0000
0001
0000
0010
0000
0000
1001
,
0000
0010
0100
0001
0000
0010
0001
1000
,
0000
2000
3002
2000
0000
0000
0000
0000
,
0000
0000
0000
0000
,
0000
0000
0000
0000
0000
3003
0000
0000
;

//---------------dance-single - Blank----------------
#NOTES:
     dance-single:
     Blank:
     Beginner:
     2:
     0.235,0.314,0.016,0.165,0.000:
0000
0000
0000
0000
,
0000
0000
0000
0000
,
0000
0000
2000
0000
,
0000
0000
3002
0000
,
0000
0000
0203
0000
,
0000
0000
0000
0300
,
0000
0000
0020
0000
,
0000
0000
2030
0000
,
0000
0000
3010
0000
,
1000
0000
0001
0000
,
0100
0000
0010
1000
,
0001
0000
0010
0000
,
0100
0000
1000
0010
,
1000
0000
0010
0000
,
0001
0000
0001
0100
,
0001
0000
1000
0000
,
0010
0000
0100
0000
,
0000
0001
0000
0000
0000
1000
0000
0000
,
0000
0020
0000
0200
0000
0000
0000
0000
,
0000
0000
0000
0000
,
0000
0000
0000
0330
0000
0000
0000
0000
,
0000
0000
0000
0000
,
0000
0000
0000
0000
,
0000
0000
0000
0000
,
0000
0000
0000
0000
,
0000
0000
0000
0000
,
0000
0000
0000
0000
,
0000
0000
2000
0000
,
3001
0000
0000
0000
1001
0000
0000
1000
,
0000
1000
0000
0000
,
0000
0000
0000
0000
1001
0000
0000
0001
,
0000
0001
0000
0000
,
1000
0000
0001
1000
,
0001
0000
0100
0000
,
0010
0000
1000
0001
,
1000
0000
0010
0000
,
0001
0000
0100
0000
,
0002
0000
2003
0000
,
3002
0000
0103
0000
,
0010
0000
2000
0000
,
3001
0000
0001
0000
,
1000
0000
1000
0000
,
0001
0000
0001
0000
,
0100
0000
0010
0000
,
0100
0000
0001
0000
,
1000
0000
0001
0000
,
1000
0000
1000
0000
,
0001
0000
0001
0000
,
0010
0000
1000
0000
,
0001
0000
0100
0000
,
0100
0000
0010
0000
,
0010
0000
0000
0000
0010
0000
0000
1000
,
0000
0001
0000
0000
,
0000
0000
1000
0001
,
1000
0000
0010
0000
,
0100
0000
0020
0000
,
2030
0000
0000
0000
3020
0000
0000
0030
,
0200
0000
0310
1000
,
0010
0000
0001
0000
,
0010
0000
0000
0000
0010
0000
0000
1000
,
0000
0000
0000
0001
0000
1000
0000
0010
,
0000
0100
0000
0000
0010
0000
1000
0000
,
0001
0000
0010
0100
,
1000
0000
0010
0100
,
0010
0000
1000
0001
,
1000
0000
0001
0010
,
1000
0000
1000
0010
,
0001
0000
0010
1000
,
0001
0000
1000
0000
0020
0000
0000
0030
,
0100
0000
0010
0000
2000
0000
0000
3000
,
0000
0000
0200
0000
,
0000
0000
0000
0300
0000
0000
0000
0000
,
0000
0000
1000
0000
,
0001
0000
1000
0000
,
0000
0000
0000
0001
,
1000
0000
0001
0000
,
0100
0000
1000
0010
,
1000
0000
0010
0000
,
0001
0000
0100
0001
,
1000
0000
0010
0000
,
0001
0000
0100
0000
,
0010
0000
1000
0001
,
1000
0001
1000
0010
,
0001
0000
1000
0000
,
0010
0000
0100
0010
,
0100
0000
1000
0000
,
0001
0000
1000
0010
,
1000
0000
0100
0000
,
0001
0000
1000
0000
,
0001
0000
1000
0000
,
0001
0000
1000
0000
,
0001
0000
0100
0000
0010
0000
0000
1000
,
0000
0000
0000
0001
0000
0000
0000
1000
,
0000
0000
0000
0020
0000
0000
0000
0000
,
0000
0000
0000
0000
,
0000
0000
0000
0030
0000
0000
0000
0000
;

//---------------dance-single - Blank----------------
#NOTES:
     dance-single:
     Blank:
     Medium:
     7:
     0.529,0.632,0.231,0.602,0.000:
0000
0000
0000
0000
,
0000
0000
0000
0000
,
0000
0000
2002
0000
,
0000
0000
0000
0000
0000
3000
0000
0000
,
0000
0003
0000
0000
0000
0000
0000
0000
,
0000
0000
0000
0000
,
0000
0000
1001
0000
,
0001
0000
1001
0000
,
1000
0000
0000
0000
0010
0100
0001
1000
,
0000
0010
0100
0002
0000
0000
0000
0000
,
0003
0000
0010
1001
,
1001
0000
0000
0200
0300
0010
0100
1000
,
0001
1000
0000
1010
,
1010
0000
0000
0020
0030
0100
0010
0100
,
1000
0001
0000
1001
,
1001
0000
0000
0020
0030
0001
0100
1000
,
0010
0000
1000
0000
1001
0000
0000
0200
,
0000
0000
0300
0020
0000
0000
0030
2000
,
0000
0000
3000
0002
0000
0000
0000
0000
,
0000
0000
0000
0000
,
0000
0000
0003
0010
,
0100
0000
0010
0000
0001
0000
0000
0010
,
0000
1000
0000
0100
,
0010
0000
1000
0000
0001
0000
0000
0010
,
0000
0000
1000
0000
0002
0000
0000
0003
,
0000
0000
0010
0100
0002
0000
0000
0003
,
0010
0000
1000
0010
2000
0000
0000
3000
,
0000
0000
0100
0010
0002
0000
0003
0000
,
0010
0000
0100
0000
2000
3000
0000
0020
,
0030
0000
0002
0003
0000
0100
1000
0010
,
1000
0100
1000
0001
1000
0000
0000
0100
,
0000
0000
0001
0000
0000
0010
0000
1000
,
0001
0000
0010
0100
0001
0000
1000
0000
,
0010
0001
0100
0000
0010
0000
0100
0000
,
1000
0100
1000
0000
0010
0000
0001
0000
,
0010
0001
0010
0000
1000
0000
0010
0000
,
0100
1000
0100
0000
0010
0000
0001
0000
,
0010
0001
1000
0010
,
1000
0100
0001
0000
0010
0100
0001
0010
,
0000
1000
0000
0020
0000
0000
0030
0100
,
0002
0000
0000
0003
0010
0000
1000
0002
,
0000
0000
0103
0020
0000
0030
1000
0002
,
0000
0003
0100
0010
0000
0000
0001
0000
,
0010
1000
0100
2000
0000
3000
0100
0020
,
0000
0030
0001
0200
0000
0300
1000
0020
,
0000
0030
0001
0200
0000
0300
1000
0020
,
0000
0030
0100
0020
0000
0000
0000
0030
,
0000
0000
0001
0000
0020
0000
0000
0030
,
0002
0000
0000
0003
0000
0000
0010
0100
,
0001
0010
1000
0010
1000
0000
1000
0020
,
0000
0000
0030
0000
0000
0000
0001
0100
,
0001
0100
0001
0010
0000
0000
0000
0000
,
0000
0000
0000
2000
,
3002
0003
0200
0300
0020
0030
2000
3000
,
0001
1000
0001
0000
0100
0000
0010
0000
,
1000
0010
1000
0000
0002
0000
0023
0000
,
0230
0320
2030
3020
,
0230
0302
0023
1030
,
0010
1000
0010
0000
0100
0000
0001
0000
,
0100
0001
0100
0000
0010
1000
0001
0010
,
0000
1000
0010
0100
0000
1001
0000
0101
,
0000
0110
0000
0000
1000
0100
0001
0010
,
0100
0010
1000
0100
0001
1000
0010
0100
,
0010
0100
0010
0000
1000
0100
0001
0100
,
1000
0001
1000
0100
0010
1000
0100
0010
,
1000
0010
1000
0000
0001
0000
0010
1000
,
0000
0000
0100
0000
0001
0000
0010
1000
,
0000
0000
0100
0000
0001
0000
0010
1000
,
0000
0100
0002
0000
,
0013
0000
1000
0000
0001
0000
0000
2002
,
0000
0000
3003
0000
0010
0100
0000
2002
,
0000
3003
0000
0000
,
0001
0000
0010
0000
1000
0001
0000
1000
,
0001
0100
0010
0001
0010
1000
0100
0010
,
0000
0000
0010
1001
,
1001
0000
0000
0200
0300
0010
0100
0010
,
0001
1000
0000
1010
,
1010
0000
0000
0200
0300
1000
0010
1000
,
0010
0001
0000
1001
,
1001
0000
0000
0200
0300
0010
0001
0100
,
0010
0000
1000
0000
0020
0000
0000
2000
,
0000
0000
0000
3030
2000
0000
3020
0000
,
0230
2302
3003
1001
,
1001
0000
0000
0200
0300
0010
0100
0010
,
0100
1000
0000
1010
,
1010
0000
0000
0020
0030
0100
0010
1000
,
0010
0100
0000
1001
,
1001
0000
0000
0020
0030
0001
0100
0001
,
0010
0000
0200
0320
0030
0001
0100
0001
,
0100
0000
0020
0032
0003
0001
1000
0001
,
0000
0001
1000
0001
0000
0001
1000
0010
,
0010
0000
0100
0000
0002
0000
0000
2003
,
0000
0000
3000
0200
0000
0000
0300
0002
,
0000
0000
0003
0200
0000
0000
0000
0000
,
0000
0000
0000
0000
,
0000
0000
0000
0000
0000
0000
0000
0300
;
