#TITLE:Aozora Jumping Heart;
#SUBTITLE:;
#ARTIST:Aqours;
#TITLETRANSLIT:;
#SUBTITLETRANSLIT:;
#ARTISTTRANSLIT:;
#GENRE:;
#CREDIT:CHMX;
#BANNER:banner.png;
#BACKGROUND:BGI.png;
#LYRICSPATH:;
#CDTITLE:;
#MUSIC:Aozora Jumping Heart.mp3;
#OFFSET:0.000;
#SAMPLESTART:52.260;
#SAMPLELENGTH:12.000;
#SELECTABLE:YES;
#BPMS:0.000=200.000;
#STOPS:0.000=0.320
;
#BGCHANGES:0.000=Aqua.avi=1.000=0=0=0=StretchNoLoop====,
99999=-nosongbg-=1.000=0=0=0 // don't automatically add -songbackground-
;
#KEYSOUNDS:;

//---------------dance-single - Blank----------------
#NOTES:
     dance-single:
     Blank:
     Easy:
     3:
     0.311,0.374,0.054,0.386,0.005:
0000
0000
0000
0000
,
0000
0000
0000
0000
,
0000
0000
0000
0000
,
0000
0000
0000
0000
,
0000
1001
0000
0000
,
0000
0011
0000
0000
,
0000
2010
0000
0000
,
0000
3000
0000
0010
,
0000
1000
0001
0000
,
0001
0000
0001
0000
,
0010
0100
1000
0000
,
1000
0010
0001
0010
,
0100
0002
1003
0000
,
1000
0000
1000
0000
,
0100
0010
0001
0010
,
0000
2002
0000
0000
0000
0000
0000
0000
,
3003
1000
0000
0000
,
0000
0001
0000
0000
,
0000
1000
0001
0100
,
0010
0100
0000
0000
,
0000
1000
0000
0000
,
0000
0001
0000
0000
,
0000
1000
0000
0000
,
0000
0001
0001
1000
,
1000
0010
0010
0001
,
0001
0010
0000
0000
0100
0000
0010
0000
,
0001
0000
0000
0000
0010
0000
0000
0000
0000
0000
0000
1000
0000
0000
0000
0000
,
0000
0010
0000
0000
0000
0000
0100
0000
,
0001
0010
0000
1000
,
0000
0010
0000
0001
,
0000
0000
0010
0000
0100
0020
0000
0000
,
0030
0000
0000
1000
,
0000
0001
0000
1000
,
0000
0010
0000
0001
,
0000
0010
0000
0100
,
0000
0010
0000
0001
,
0100
1000
1000
0000
,
0001
0000
0001
0000
,
0100
0100
0010
0000
,
0010
0000
0010
0000
,
1000
0000
0001
0000
0000
0001
0000
0000
,
1000
0000
0000
1000
0000
0000
0010
0000
,
0001
0000
0010
0000
0000
1000
0000
0000
,
0010
0001
0000
1000
,
0001
0020
0000
0230
,
0000
0320
0000
0032
,
0000
2003
0000
3020
,
0000
0032
0000
2003
,
0000
3020
0000
0230
,
0000
0320
0000
2030
,
0000
0000
3002
0000
0000
0000
0000
0003
,
0001
1000
0000
0000
0000
0000
0000
0000
,
0000
1000
0000
0001
,
0000
0100
0000
0010
0000
0100
0000
0000
,
0000
0010
0000
1000
,
0000
0002
0000
0000
0003
0000
0001
0000
,
0010
1000
0000
0000
,
1000
0010
0000
0000
,
0001
0000
1000
0000
0000
0010
0000
0000
,
0000
0100
0000
0000
0000
0000
0010
0000
,
0001
0020
0000
2030
,
0000
3002
0000
2003
,
0000
3020
0000
0230
,
0000
0320
0000
1030
,
0001
0200
0000
0320
,
0000
0230
0000
2300
,
0000
3020
0000
0230
,
0310
0001
0000
0000
0000
0000
1000
0000
,
0010
1000
0000
0010
,
0000
0100
0000
0001
0000
1000
0000
0000
,
0000
0000
0010
0000
0000
1000
0000
0010
,
0000
0002
0000
0000
0000
0003
0010
0000
,
1000
0010
0000
0000
,
0100
0001
0000
0000
,
1000
0020
0000
0000
,
0030
0000
0000
1000
,
0000
2002
0000
0000
,
0000
0000
0000
3003
0000
0000
0000
0000
;

//---------------dance-single - Blank----------------
#NOTES:
     dance-single:
     Blank:
     Hard:
     8:
     0.584,0.579,0.419,0.408,0.000:
0000
0000
0000
0000
,
0000
0000
0000
0000
,
0000
0000
0000
0000
,
0002
0000
0003
2000
0000
3000
0020
0030
,
2001
0000
0000
0000
3100
0000
0001
0010
,
0000
0010
0100
0001
,
2002
0000
0000
0000
,
3003
0000
0010
1000
0001
0000
0010
0200
,
0000
0000
0010
0000
0301
0010
1000
0000
,
0010
0001
0100
1000
0001
0010
1000
0100
,
0001
0000
0100
0000
0001
0100
1000
0010
,
0200
0000
0020
0300
0002
0030
2000
0003
,
0200
3000
0010
0000
0301
0100
1000
0000
,
0100
0000
0010
0001
0000
0100
1000
0000
,
0010
0000
0101
0000
0010
0000
0010
2000
,
0000
0000
0000
0000
0000
0000
0000
3000
,
0110
0000
0001
0000
0001
0000
0001
0010
,
0000
0010
0010
0010
,
1000
0000
1000
0000
1000
0000
1000
0100
,
0000
0100
0100
0100
,
0101
0000
0001
0100
0000
0000
0001
0010
,
0101
0000
0100
1000
0000
0000
0100
1000
,
0100
0000
1000
0100
0000
0000
1000
0000
,
0020
0000
0000
0130
0001
0000
0000
0000
,
0010
0000
0100
0000
0001
0000
0010
1000
,
0000
0010
0001
0010
,
1000
0000
0100
0010
0000
0001
0000
0010
,
0000
0000
0000
1000
0001
0100
0010
0100
,
0001
0000
0010
1000
0000
0010
1000
0000
,
0100
0000
0001
0010
0000
0000
1000
0000
,
0100
0000
0001
0010
0000
0100
0010
0002
,
0000
0013
1000
0010
,
0001
0000
0010
0200
0000
0000
0001
0000
,
0310
0001
2000
0010
,
3001
0000
0100
0020
0000
0000
0001
0000
,
0230
0000
0000
1300
0010
0000
0100
0000
,
1001
0000
0001
0000
0010
0000
0100
0010
,
0000
0001
0000
0020
0000
0030
1000
0000
,
1001
0000
0100
0000
0010
0000
0001
0100
,
0000
0100
0000
0010
0000
0000
0001
0100
,
0110
0000
0001
1001
0000
0100
0110
0000
,
0001
1001
0000
0100
0010
0000
0100
0000
,
0001
0000
0000
0010
0000
0000
1000
0000
,
0010
0000
1000
0010
,
1001
0000
0100
0000
0010
0100
1001
0000
,
0100
0000
0010
0000
0001
0010
1001
0000
,
0100
0000
0010
0000
0001
0100
1010
0000
,
0010
0000
0100
0000
1000
0010
1001
0000
,
0010
0000
0100
0000
1000
0100
1001
0000
,
0001
0000
1000
0000
0010
0100
1001
0000
,
0020
0000
0000
0000
0000
0030
0001
0200
,
0000
0000
0300
1000
0010
0100
0001
0100
,
0010
0000
0000
0001
1000
0000
0000
0110
,
0000
0101
0000
2001
0000
0000
3000
0000
,
0010
0000
1000
0001
0000
0010
0000
2002
,
0000
3003
0010
0001
,
0100
0000
0100
0010
0000
0000
0001
0010
,
1001
0000
0100
0110
0000
0000
0001
0000
,
2000
0000
3000
0001
0000
1000
0010
0200
,
0000
0000
0000
0300
0010
0000
0001
0000
,
1001
0000
0010
0000
0001
0010
0101
0000
,
0010
0000
1000
0000
0100
0010
1001
0000
,
0010
0000
1000
0000
0100
0010
1001
0000
,
0010
0000
1000
0000
0001
0100
1001
0000
,
1000
0000
0100
0000
0001
0010
1001
0000
,
0001
0000
0010
0000
1000
0001
1001
0000
,
0020
0000
0000
2030
0000
3000
0010
2000
,
0000
0000
3000
0010
0100
0001
0100
0010
,
0002
0000
0003
0010
1000
0000
0000
1001
,
0000
1010
0000
2100
0000
0000
3000
0000
,
1000
0000
0010
0100
0000
0001
0000
0012
,
0000
0003
0001
0010
,
1001
0000
0010
0200
0000
0010
0300
2000
,
0000
3100
0010
1001
,
0020
0000
0000
0000
0000
0000
0000
0030
,
0000
0000
0010
1000
0001
0000
0010
2002
,
0000
0000
0000
0000
,
3003
0000
0000
0000
;

//---------------dance-single - Hard----------------
#NOTES:
     dance-single:
     Hard:
     Challenge:
     11:
     0.733,0.992,0.440,0.569,0.048:
0000
0000
0000
0000
,
0000
0000
0000
0000
,
0000
0000
0000
0000
,
0002
0000
0003
2000
0000
3000
0020
0030
,
2001
0000
0000
0000
3100
0000
0001
0010
,
0000
0010
0100
0001
,
2002
3000
2003
3002
2003
3002
2003
3002
,
2003
3000
0010
1000
0001
0000
0010
0200
,
0000
0000
0010
0000
0301
0010
1100
0000
,
0010
1000
0100
0010
0001
0010
1010
0100
,
0001
0000
0100
0000
0001
0100
1000
0001
,
0200
0000
0020
0000
0002
0030
0020
0303
,
0200
0030
0010
0000
0301
0100
1000
0000
,
0100
0000
0010
0100
0000
0010
1000
0000
,
0010
0000
0101
0000
0010
0000
0010
2000
,
0000
0000
0000
0000
0000
0000
0000
0000
3000
0000
1000
0010
1000
0000
0000
0000
,
0110
0010
0010
0010
,
0100
0100
0100
0100
,
1000
1000
1000
1000
,
0100
0100
0100
0100
,
0101
0000
0001
1000
0000
0000
0010
0001
,
0101
0000
0010
0100
0000
0000
0100
1000
,
0100
0010
1000
0100
0010
0100
0010
0001
,
0010
0000
0100
0000
1000
0000
0010
0000
1000
0000
0100
0001
0100
1000
0100
0001
,
0100
1000
0100
0010
0001
0100
0010
1000
,
0100
0100
0010
0100
0001
0100
0010
0100
,
1000
0010
0100
0010
1000
0001
1000
0020
,
0000
0000
0030
1000
0001
0100
0010
0100
,
0001
0000
0010
1000
0000
0100
0010
0000
,
0100
0000
0001
0010
0000
0100
1000
0000
,
0100
0000
0001
0010
0000
0100
0010
0002
,
0010
0010
0103
0100
1000
1000
1010
0000
,
0001
0000
0010
0200
0010
0000
0001
0000
,
0310
0000
0001
0100
2000
0000
0010
0000
,
3001
0000
0000
0000
0100
0000
0020
0000
0001
0000
0000
0000
0031
0000
0001
0100
,
0002
0000
0000
0000
0103
0000
1000
0000
0010
0000
1000
0000
0100
1000
0010
1000
,
0001
0100
0001
1000
0010
1000
0100
0010
,
1000
0000
0001
0000
0100
0000
0020
0000
0000
0000
0030
0000
1000
0000
0001
1000
,
0001
0010
0100
0010
0010
0100
0001
0100
,
0001
0100
0010
0010
0001
0100
0001
0100
,
0110
0001
0001
1001
0100
0100
0110
0001
,
0001
1001
0100
0100
0010
0001
0100
1000
,
0001
0000
0000
0010
0000
0000
1000
0000
,
0010
0010
0010
0010
1000
0000
0010
0000
,
1001
0000
0100
0000
0010
0100
1001
0000
,
0100
0000
0010
0000
0001
0010
1001
0000
,
0100
0000
0010
0000
0001
0100
1010
0000
,
0010
0000
0100
0000
1000
0010
1001
0000
,
0010
0000
0100
0000
1000
0100
1001
0000
,
0001
0000
1000
0000
0010
0100
1001
0000
,
0020
0230
0320
2030
3020
0030
0001
0200
,
0000
0000
1000
0000
1300
0000
1000
0000
0010
0000
0100
0010
0001
0000
0100
0000
,
0010
0000
0000
0001
1000
0000
0000
0110
,
0000
0101
0000
2001
0000
0000
3000
0000
,
0010
0000
1000
0001
0000
0010
0000
0202
,
0000
0303
0010
0001
,
0110
0000
0100
0010
0000
0000
0001
0010
,
1001
0000
0100
0110
0000
0000
0010
0000
,
2000
0000
3000
0001
0000
1000
0010
0200
,
0000
0000
0002
0300
2000
0003
0002
3003
,
1001
0000
0010
0000
0001
0010
0101
0000
,
0010
0000
1000
0000
0100
0010
1001
0000
,
0010
0000
1000
0000
0100
0010
1001
0000
,
0010
0000
1000
0000
0001
0100
1001
0000
,
1000
0000
0100
0000
0001
0010
1001
0000
,
0001
0000
0010
0000
1000
0001
1001
0000
,
0020
0000
0000
2030
0000
3000
0010
2000
,
0000
0000
3000
0010
0100
0001
0100
0010
,
0002
0000
0003
0010
1000
0000
0000
1001
,
0000
1010
0000
2100
0000
0000
3000
0000
,
1000
0000
0010
0100
0000
0001
0000
0012
,
0000
0003
0001
0010
,
1001
0000
0010
0200
0000
0010
0300
2000
,
0000
3100
0010
1001
,
0020
0000
0000
0000
,
0200
0000
0331
1000
0001
0000
0010
2002
,
0000
0000
0000
0000
,
3003
0000
0000
0000
;

//---------------dance-single - Blank----------------
#NOTES:
     dance-single:
     Blank:
     Medium:
     5:
     0.437,0.455,0.054,0.504,0.000:
0000
0000
0000
0000
,
0000
0000
0000
0000
,
0000
0000
0000
0000
,
2000
0000
0000
0002
3000
0003
0100
0000
,
0020
0000
0000
0000
,
2000
0030
0000
0000
0000
0000
0000
0000
,
0002
0000
0000
0000
,
0000
3003
0000
0000
0001
0000
0000
0000
,
1000
0010
0000
0010
,
0000
0010
0000
0001
,
0010
0000
0100
0000
0000
0000
0010
0001
,
1000
0010
0100
0001
,
0010
0100
0000
0100
,
0010
0000
0001
0010
0000
0000
1000
0000
,
0010
0000
0001
0000
0010
0000
0100
0020
,
0000
0000
0000
0000
0000
0030
0101
0000
,
0010
0010
0010
0010
,
1000
1000
1000
1000
,
0001
0001
0001
0001
,
0010
0010
0010
0010
,
0110
0100
0100
0100
,
0110
0010
0010
0010
,
1000
1000
1000
1000
,
0100
0100
0010
0010
,
0001
0000
0010
0000
1000
0000
0100
0002
,
0000
0003
0010
0000
1000
0000
0010
0000
,
0001
0000
0010
0200
0300
0010
0000
0001
,
0000
0000
0000
0010
1000
0001
0100
1000
,
0001
0000
0010
0100
0000
0000
0000
0000
,
0001
0000
1000
0001
0000
0000
0010
0000
,
0100
0000
0010
0200
0000
0000
0000
0000
,
0300
0010
0001
0010
,
2000
0000
0000
0000
0002
3000
0000
0000
,
0203
0000
0302
0000
,
2003
0000
3002
0000
,
0203
0000
0301
1000
,
0001
0000
0010
0000
1000
0100
1000
0100
,
0000
0100
0010
0100
0000
0000
0001
0000
,
0010
0000
0100
0000
0010
1000
0010
0100
,
0000
0010
0001
0010
0000
0000
0010
0000
,
2000
0000
3000
0200
0000
0300
2000
0000
,
3000
0020
0000
0030
1000
0000
0010
0000
,
0100
0000
0000
0010
0000
0000
0001
0000
,
0010
0000
1000
0001
,
0200
0000
0320
0000
,
2030
0000
3002
0000
,
0203
0000
0000
0000
,
0000
0300
0000
0000
0010
0000
1000
0000
,
0002
0000
0000
0000
0200
0003
0000
0000
,
0320
0000
2030
0000
,
3020
0000
0000
0000
0000
0030
0100
0010
,
0000
0000
0000
0001
0010
1000
0001
0100
,
0010
0000
0000
0001
1000
0000
0000
1001
,
0000
1000
0000
0001
0000
0000
0000
0000
,
0010
0000
1000
0001
0000
0010
0000
0200
,
0000
0000
0310
0001
,
0010
0000
1000
0010
0000
0000
0001
0000
,
0010
0000
0100
0001
0000
0000
0010
0000
,
0002
0000
0003
1000
0000
0001
1000
0001
,
0000
0000
0010
0100
,
0020
0000
2030
0000
,
0002
3000
0000
0000
0203
0000
0000
0000
,
0320
0000
2030
0000
,
0002
3000
0000
0000
0103
0000
0010
0000
,
2000
0000
3002
0000
,
0203
0000
0000
0000
0320
0000
0000
0030
,
2000
0000
0000
0000
3010
0000
0100
0001
,
0000
0000
0000
0010
1000
0001
0100
0010
,
0100
0000
0000
0010
0001
0000
0000
1010
,
0000
1000
0000
0010
0000
0000
0000
0000
,
0001
0000
0010
1000
0000
0001
0000
0002
,
0000
0000
0000
0003
0010
0000
0001
0000
,
0010
0000
0100
0010
0000
0100
0000
0001
,
0000
0010
0100
0010
,
2000
0000
0000
0000
,
3000
0000
0010
0100
0001
0000
0010
2000
,
0000
0000
0000
0000
,
3000
0000
0000
0000
;

//---------------dance-single - Blank----------------
#NOTES:
     dance-single:
     Blank:
     Beginner:
     1:
     0.213,0.331,0.000,0.397,0.000:
0000
0000
0000
0000
,
0000
0000
0000
0000
,
0000
0000
0000
0000
,
0000
0000
0000
0000
,
2000
0000
0000
0000
,
3002
0000
0000
0000
,
0203
0000
0000
0000
,
0300
0000
0001
0000
,
1000
0001
0000
0001
,
0000
0001
0000
0001
,
0000
1000
0000
1000
,
0000
1000
0000
1000
,
0000
0010
0000
0010
,
0000
0010
0000
0010
,
0000
1000
0000
2000
,
0000
0000
0000
0000
,
3001
0000
0000
0000
,
1000
0000
0000
0000
,
0010
0000
0000
0000
,
0100
0000
0000
0000
,
0002
0000
0000
0000
,
2003
0000
0000
0000
,
3010
0000
0000
0000
,
0001
0000
1000
0000
,
0001
0000
0000
0000
,
1000
0000
0000
0000
,
0001
0000
0000
0010
,
0000
0000
0000
0000
,
1000
0000
0000
0000
,
0001
0000
0000
0000
,
0200
0000
0000
0000
,
0300
0000
0000
0000
,
0001
0000
1000
0000
,
0000
0000
0001
0000
,
0001
0000
0000
0000
,
1000
0000
0001
0010
,
0001
0000
0000
0000
,
1000
0000
0000
0001
,
0001
0000
0000
0100
,
0000
0000
0000
0000
,
0002
0000
0000
0000
,
0000
0000
0003
0000
,
0001
0000
0000
0000
,
1000
0000
0000
0000
,
0020
0000
2030
0000
,
3002
0000
0203
0000
,
0320
0000
0000
0000
,
0000
0030
2000
0000
,
3002
0000
0203
0000
,
0320
0000
2030
3000
,
0020
0000
0000
1030
,
0000
0000
0000
0000
,
0001
0000
0000
0000
1000
0000
0000
0010
,
0000
0001
0000
0010
0000
0000
0000
0000
,
0001
0000
0000
0000
0000
1000
0000
0010
,
0000
0000
0000
0000
,
0001
0000
0000
0000
,
0002
0000
0000
0000
,
1003
0000
0000
0000
0000
0000
0000
2000
,
0000
0000
3000
1000
,
0020
0000
0032
0000
,
2003
0000
3002
0000
,
0203
0000
0000
0000
,
0000
0300
0020
0000
,
2030
0000
3002
0000
,
0203
0000
0320
0000
,
2030
0000
0000
0000
0000
0000
3000
0010
,
0000
0000
0000
0000
,
0001
0000
0000
0000
1000
0000
0000
0001
,
0000
0001
0000
0010
0000
0000
0000
0000
,
0001
0000
0010
0000
0000
0100
0000
0200
,
0000
0300
0000
0000
0000
0000
0000
0000
,
2000
0000
0000
0000
,
3002
0000
0000
0000
,
0203
0000
0000
0000
,
0300
0000
0010
0000
0000
0000
1000
0002
,
0000
0000
0000
0000
,
0003
0000
0000
0000
;
