#TITLE:Zap Zum;
#SUBTITLE:;
#ARTIST:Pabllo Vittar;
#TITLETRANSLIT:;
#SUBTITLETRANSLIT:;
#ARTISTTRANSLIT:;
#CREDIT:;
#BANNER:Zap Zum banner.png;
#BACKGROUND:Zap Zum bg.png;
#LYRICSPATH:;
#CDTITLE:;
#MUSIC:Zap Zum.mp3;
#OFFSET:-5.780;
#SAMPLESTART:64.660;
#SAMPLELENGTH:15.000;
#SELECTABLE:YES;
#BPMS:0.000=169.000;
#STOPS:;
#BGCHANGES:1.000=Zap Zum.avi=1.000=1=0=0,
99999=-nosongbg-=1.000=0=0=0 // don't automatically add -songbackground-
;

//---------------dance-single - ----------------
#NOTES:
     dance-single:
     :
     Hard:
     8:
     0.623,0.547,0.240,0.291,0.005:
0000
0000
0001
0100
0000
0100
1000
0000
,
0010
0010
0000
1001
0000
0000
0010
0000
,
0100
0010
1000
0001
0000
0000
1000
0000
,
1000
0100
0010
0001
0010
0100
1000
0100
,
0110
0000
0010
0100
0000
1000
0001
0000
,
0100
0100
0000
0110
0000
0000
0010
0000
,
0100
0001
1000
0010
0000
0010
0100
0010
,
1000
0001
2000
0000
3200
0000
0310
0010
,
0001
0000
0020
0000
0130
0001
2000
0000
,
3020
0030
1001
0000
0010
0100
0010
0200
,
0000
0301
0000
0000
0001
0010
0100
1000
,
0100
0010
0001
0100
0010
0100
0001
0000
,
1000
0000
1001
0000
0001
0010
0200
0000
,
2300
3000
0100
0000
0010
1000
0001
0010
,
0000
0002
0000
0003
0010
0100
0010
0010
,
1000
0001
1000
0100
0010
0001
0000
0100
,
0000
0010
1000
0000
0001
1000
0200
0000
,
0000
0000
0310
0000
0110
0000
1000
0001
,
0100
0000
0010
0000
1000
0000
0000
0100
0000
0000
0010
0000
0000
0000
0100
0000
,
0001
0001
0100
0010
0100
0000
0001
1000
,
0010
0100
0001
0010
0000
0100
0000
0010
,
0100
0010
0110
0000
0100
0000
0010
0100
,
0100
0010
0100
0000
1000
0100
0001
0100
,
1000
0100
0020
0000
0230
0000
0301
1000
,
0002
0000
0013
0100
0010
1001
0000
0110
,
0000
0200
0310
0000
0100
0010
1000
0001
,
0010
0001
0100
0000
0010
1000
0000
0001
,
0000
0100
0010
0000
0100
1000
1000
1000
,
0100
0010
0100
0010
0000
0002
0000
0013
,
0100
0010
1001
0000
0100
0000
0001
0010
,
0010
0001
0010
0000
0010
0100
0000
0010
,
1000
0001
0100
0000
0010
0010
0100
0100
,
0001
1000
0001
0010
0000
0001
0010
0100
,
1000
0100
0011
0000
0010
0100
0020
0000
,
0130
0002
0000
0003
0000
0010
0010
0100
,
1000
0100
0010
0100
0001
1000
0010
0000
,
0200
0000
0310
1000
0001
0020
0000
0130
,
0100
0001
1000
0000
0100
0010
1000
0001
,
0010
0002
0000
0023
0000
0130
0100
0100
,
0010
1000
0001
0100
1000
0100
0010
0100
,
0010
1000
0000
0110
0000
0001
1000
0001
,
0000
0010
0100
0000
0001
1000
0010
0000
,
0110
0000
1001
0000
0010
0100
0001
1000
,
0010
0200
0000
0300
0010
1000
0100
0100
,
0010
0100
0001
0010
0100
0010
0001
0000
,
1000
0000
1001
0000
0010
0001
0100
0000
,
0110
0000
1001
0000
1000
0100
0010
0001
,
0000
0001
0000
0010
0001
0010
0100
0100
,
0010
0100
0010
1000
0001
0100
0010
0100
,
0010
0000
0001
0000
0100
0100
0020
0000
,
2030
0000
3002
0000
0103
0100
0010
1000
,
0001
1000
0000
0010
0100
0010
0001
0001
,
0010
0100
0010
1000
0100
0010
1000
0000
,
0001
0000
1001
0000
0010
0100
2000
0000
,
3200
0000
0320
0000
0031
0100
0010
1000
,
0000
0110
0000
0010
0100
0010
1000
0001
,
1000
0010
0100
0100
0010
0010
1000
0001
,
1000
0000
0110
0000
0000
1000
0002
0000
,
0000
0000
0013
0100
0000
0010
0100
0000
,
1000
0001
0000
0110
0000
0001
0010
0100
,
1000
0100
0010
0001
0000
0001
0100
0000
,
1000
0010
1000
0010
0100
0100
0100
0010
,
1001
0000
0010
0100
0000
1000
0001
0000
,
0001
1000
0000
0110
0000
0000
0100
0000
,
0001
1000
1001
0000
0000
0000
0000
0000
;

//---------------dance-single - ----------------
#NOTES:
     dance-single:
     :
     Medium:
     6:
     0.449,0.451,0.170,0.130,0.000:
0000
0000
1000
0100
0000
0100
0010
0000
,
0010
0001
0000
0001
0000
0000
0110
0000
,
0010
0100
0010
0100
0000
0000
0001
0000
,
0010
0000
0100
0010
0000
0010
1000
0000
,
0100
0000
0001
1000
0000
1000
0001
0000
,
0010
0100
0000
0100
0000
0000
0110
0000
,
1000
0001
1000
0001
0000
0010
0100
0000
,
0010
0200
0300
0010
,
1000
0020
0130
0001
,
1000
0000
0110
0000
1000
0010
0001
0000
,
0001
0010
0100
0010
,
1000
0100
0100
0001
,
1000
0000
1001
0000
0010
0100
0020
0000
,
2030
0000
3100
0000
0010
0100
0001
1000
,
0000
0010
0000
0000
0010
0100
0010
0000
,
1000
0001
1000
0000
0010
0000
0100
0000
,
0001
0000
0011
0000
0000
0001
0020
0000
,
0000
0130
0010
0100
,
0010
0000
0010
0000
1000
0100
0000
0010
,
0000
1000
0001
0010
,
0001
0000
1000
0000
0010
0100
0000
0001
,
0000
1000
0100
0000
0001
0000
0010
0000
,
0001
1000
0100
1000
,
0010
0210
0000
0010
,
0310
0000
0001
0000
0000
1000
0000
0001
,
0000
1000
0001
0000
0010
0000
0001
1000
,
0001
0100
0010
1000
,
1000
0000
0010
0000
0100
0000
0010
1000
,
0010
0100
0001
0010
,
0010
0000
1001
0000
0100
0000
0010
1000
,
0001
0100
0100
0010
,
0010
1000
0100
0010
,
0002
0000
0010
0103
,
1000
0000
0010
0000
0100
0010
0100
0000
,
0001
0020
0000
0030
0000
0100
0100
0000
,
1000
0100
0010
0100
,
0010
0000
0001
0000
1001
0000
0000
0100
,
0000
0100
0010
0000
1000
0001
1000
0000
,
0100
0020
0000
0000
0030
0100
0100
0000
,
0010
1000
0100
0001
,
0100
1000
1000
0001
,
0001
0000
0110
0000
1000
0001
1000
0000
,
0100
0000
0011
0000
0010
0100
0010
0000
,
0010
0100
0000
0000
0100
0000
1000
0000
,
0010
0100
0001
0010
,
0100
0000
0100
0000
1000
0010
0001
0000
,
0100
0000
1001
0000
0010
0100
0010
0000
,
0001
0010
0000
0000
0100
0000
0010
0000
,
0100
1001
0010
0001
,
0010
0000
0100
0000
0010
1000
0001
0000
,
0100
0000
0110
0000
1000
0100
0010
0000
,
0010
0200
0000
0300
0010
0000
1000
0001
,
1000
0000
0100
0000
0010
0001
0010
0000
,
0100
0000
0110
0000
0001
0010
0100
0000
,
1000
0000
1001
0000
0010
0100
0010
0100
,
0000
0010
0000
0000
0100
0000
0001
0000
,
1000
0010
0010
0100
,
0100
0000
0020
0000
0000
0100
0032
0000
,
0000
0003
0010
0100
0000
0100
0010
0000
,
1000
0010
0000
0100
0000
0000
0110
0000
,
0010
0001
0010
0001
0000
0000
0001
0000
,
0010
0000
0100
1000
0100
0000
0010
0100
,
0010
0000
1000
0100
0000
0010
0100
0000
,
0001
1000
0000
0020
0000
0030
1000
0000
,
0001
1001
0000
0000
;

//---------------dance-single - ----------------
#NOTES:
     dance-single:
     :
     Easy:
     3:
     0.378,0.354,0.100,0.180,0.000: // measure 1
0000
0010
0010
0100
,  // measure 2
0100
0010
0001
1000
,  // measure 3
1000
0200
0320
0030
,  // measure 4
0100
1000
0001
1000
,  // measure 5
0001
0100
0100
0010
,  // measure 6
0010
1000
1000
0001
,  // measure 7
0001
0010
0100
0010
,  // measure 8
0001
2000
0000
3100
,  // measure 9
0010
0200
0310
0010
,  // measure 10
0010
1001
0100
0010
,  // measure 11
0100
0001
0001
0010
,  // measure 12
0100
0010
1000
0100
,  // measure 13
0010
0020
0130
0100
,  // measure 14
0100
1001
0100
0010
,  // measure 15
1000
0001
0100
0010
,  // measure 16
0010
0100
0010
1000
,  // measure 17
0020
0030
0000
0200
,  // measure 18
0000
0310
0000
1000
,  // measure 19
0001
0100
0010
0001
,  // measure 20
0001
1000
0000
0100
,  // measure 21
1000
0010
0100
0010
,  // measure 22
0010
0001
0000
0010
,  // measure 23
0100
0010
1000
0001
,  // measure 24
1000
0100
0010
0200
,  // measure 25
0300
0001
0010
0100
,  // measure 26
1000
1001
0000
0010
,  // measure 27
0100
0010
1000
0100
,  // measure 28
0001
0100
0000
0010
,  // measure 29
0001
0010
0100
0010
,  // measure 30
0010
1000
0000
0100
,  // measure 31
0010
2000
3001
0100
,  // measure 32
0010
0001
0001
0010
,  // measure 33
0020
0000
0100
0130
,  // measure 34
0100
0010
0100
1000
,  // measure 35
0001
0200
0300
0010
,  // measure 36
0010
0100
0010
1000
,  // measure 37
0002
0003
0010
0100
,  // measure 38
0010
1000
0100
0010
,  // measure 39
0001
0020
0030
1000
,  // measure 40
1000
0100
0100
0010
,  // measure 41
0010
0001
1000
0001
,  // measure 42
0100
0020
0100
0100
,  // measure 43
0130
1001
0010
0100
,  // measure 44
0010
0001
1000
0001
,  // measure 45
1000
0010
0010
0100
,  // measure 46
0100
0110
1000
0100
,  // measure 47
0010
0002
0013
0010
,  // measure 48
0100
0100
0010
1000
,  // measure 49
0001
0100
0100
0010
,  // measure 50
0010
0100
0000
0110
,  // measure 51
0110
0110
1000
0001
,  // measure 52
1000
0001
0010
0010
,  // measure 53
0001
0001
0100
0010
,  // measure 54
0100
2000
3100
0010
,  // measure 55
0010
1001
0100
0010
,  // measure 56
0100
0001
1000
1000
,  // measure 57
0100
0100
0010
0100
,  // measure 58
0010
0002
0000
0023
,  // measure 59
0000
0130
0010
0100
,  // measure 60
0001
1000
0100
0010
,  // measure 61
0100
0100
0010
0000
,  // measure 62
0001
0000
0010
0100
,  // measure 63
1000
0100
0010
0010
,  // measure 64
0100
0100
0010
0001
,  // measure 65
1000
1001
0000
0000
;
