#TITLE:Treat Me;
#SUBTITLE:;
#ARTIST:Chloe;
#TITLETRANSLIT:;
#SUBTITLETRANSLIT:;
#ARTISTTRANSLIT:;
#CREDIT:;
#BANNER:Treat Me banner.png;
#BACKGROUND:Treat Me bg.png;
#LYRICSPATH:;
#CDTITLE:;
#MUSIC:Treat Me.mp3;
#OFFSET:-5.340;
#SAMPLESTART:44.900;
#SAMPLELENGTH:15.000;
#SELECTABLE:YES;
#BPMS:0.000=94.000,64.000=188.000,128.000=94.000;
#STOPS:;
#BGCHANGES:;

//---------------dance-single - ----------------
#NOTES:
     dance-single:
     :
     Hard:
     9:
     0.551,0.564,0.293,0.293,0.118:
0010
0100
0001
1000
0000
1000
0100
0010
,
0100
0010
0001
0010
0000
0010
0001
0100
,
0010
1000
0100
0100
0000
0100
0010
0000
,
1001
1000
1001
0001
0010
0100
0010
0001
,
0010
0100
2000
0000
3100
0010
0100
0010
,
0001
1000
0002
0000
0013
0100
0010
0100
,
1000
0100
0020
0000
0130
0001
0001
0000
,
1001
0001
1001
1000
0100
0100
0010
0010
,
2000
3200
0320
0032
0013
0100
0010
0100
,
0002
0023
0230
2300
3100
0010
0100
0010
,
0200
0302
2003
3020
0130
0100
0001
0001
,
1000
0001
1000
0000
1100
0110
0010
0001
,
0020
0100
0130
1000
0001
0100
0100
0010
,
2000
0100
3100
0010
0001
0010
0100
0010
,
1001
0000
0001
0010
0110
0100
1000
1000
,
0100
0000
0010
0000
0110
0000
0000
0000
1001
0000
0001
0000
0010
0100
0010
0000
,
1001
0001
0100
0010
1000
0001
0010
0100
,
0001
0010
1000
1000
0100
0010
0100
0010
,
0110
1000
0100
0001
0100
1000
0100
0010
,
0100
0010
0011
0000
0010
0100
1000
0100
,
0110
1000
0010
0100
0010
0001
0010
0100
,
0010
1000
0001
0100
0010
0010
0100
0010
,
1001
0100
0010
0001
0010
0100
1000
1000
,
0100
0010
0100
0001
1000
0001
0100
0010
,
1000
0001
0020
0000
0130
0001
1000
0010
,
0100
0010
2000
0000
3100
0010
0100
0110
,
0000
0010
0001
0011
0000
0100
1000
1100
,
0000
0100
0010
1000
1001
0000
0001
0010
,
1001
0000
0010
0000
0100
0010
0001
0010
,
0101
0000
1000
0000
0010
0100
1000
0100
,
1010
0000
0100
0001
1001
0000
0010
0100
,
0010
0010
1000
1000
0001
0100
0010
1000
,
0001
0000
0000
0000
0010
0000
0100
1000
0000
0000
1000
0100
0010
0001
0010
0100
,
1000
0000
0000
0000
0000
0000
0000
0000
0100
0000
0110
0000
0010
0001
0010
0000
,
0110
0000
0002
0000
0000
0000
0000
0000
0003
0000
0010
0100
0001
1000
0010
0100
,
0010
0000
0000
0000
0000
0000
0000
0000
0100
0000
0010
0000
1000
0001
2000
0000
,
0000
0000
3100
0000
0000
0000
0200
0000
0000
0000
0310
0000
0000
0001
0010
0001
,
0000
0010
0100
0010
0000
0100
1000
0100
0000
0010
0000
0100
0002
0000
0000
0000
,
2003
0000
0000
0000
3000
0000
0000
0000
0000
0000
0020
0000
0030
0100
0010
0200
,
0000
0000
0300
0000
0001
0000
0000
0000
1000
0000
0001
0000
0100
0010
0100
0000
,
1001
0000
0000
0000
;

//---------------dance-single - ----------------
#NOTES:
     dance-single:
     :
     Medium:
     6:
     0.375,0.338,0.068,0.147,0.000:
0100
0010
1000
0000
1000
0010
0100
0000
,
0100
0001
0010
0000
0010
0001
0100
0000
,
0010
1000
0001
0000
0001
1000
0010
0000
,
0100
0100
0010
0010
0000
0100
0010
0000
,
1000
0000
0001
0000
0010
0100
1000
0100
,
0010
0000
0100
0000
0001
0010
0100
0010
,
0001
0000
1000
0000
1000
0100
0010
0100
,
1000
0000
0100
0000
0010
0010
0100
0100
,
0001
0000
0010
0000
0100
1000
0100
0010
,
0200
0000
0310
0000
1000
0001
0010
0001
,
0020
0000
0130
0000
0010
0010
0010
0000
,
1000
1000
1000
0000
0001
0001
0010
0010
,
0200
0000
0310
0000
1000
0010
0100
0010
,
0002
0000
0013
0000
0100
0010
1000
0010
,
0001
0000
0001
0010
0100
0000
0100
1000
,
0100
0000
0010
0000
0100
0010
0000
0000
,
1001
0100
1000
0100
,
0010
0000
0100
0001
0100
0000
0010
1000
,
0010
0001
0100
0010
,
1000
0000
0010
0000
0100
0001
0010
0000
,
0110
0100
1000
0010
,
0100
0000
0010
0001
0010
0000
0100
1000
,
0100
0010
1000
0010
,
0001
0010
0001
0000
0010
0100
1000
0000
,
2000
0000
3100
0000
0010
0000
0100
0010
,
0002
0000
0013
0000
0100
0000
0010
0100
,
0000
0100
0010
0100
0000
0001
1000
0001
,
0000
1000
0000
0001
0100
0000
0010
0000
,
1010
0000
0000
0000
1000
0000
0100
0010
,
0001
0000
0000
0000
0011
0000
0010
0100
,
0010
0000
1000
0001
1000
0000
0100
0010
,
0100
0000
0010
0000
1000
0001
1000
0000
,
1001
0000
0100
0200
0000
0310
0010
1000
,
0010
0000
0000
0000
0100
0100
0001
0001
,
0010
2000
0000
3000
0000
0010
0100
0100
,
0010
0000
0000
0000
0100
0001
1000
0020
,
0000
0130
0000
0002
0000
1003
0000
0010
,
0100
0100
0001
0001
1000
1000
0020
0000
,
0230
0000
0300
0000
0000
0010
0000
0100
,
0010
2000
0000
3000
0001
1000
0001
1000
,
1001
0000
0000
0000
;

//---------------dance-single - ----------------
#NOTES:
     dance-single:
     :
     Easy:
     3:
     0.264,0.248,0.135,0.158,0.000: // measure 1
1000
1001
0001
0010
,  // measure 2
0100
0110
0010
1000
,  // measure 3
0001
0001
0010
0010
,  // measure 4
0200
0320
0030
1000
,  // measure 5
0001
0110
1000
0100
,  // measure 6
0010
1001
0010
0100
,  // measure 7
0010
0010
0100
0100
,  // measure 8
0001
1000
0010
0010
,  // measure 9
0200
0300
0010
0100
,  // measure 10
0020
0030
0001
1000
,  // measure 11
0002
0003
0010
0100
,  // measure 12
1000
1000
0100
0010
,  // measure 13
0200
0300
1000
0001
,  // measure 14
2000
3000
0100
0010
,  // measure 15
0200
0300
0010
0010
,  // measure 16
0100
0100
0001
1000
,  // measure 17
1001
0000
0010
0100
,  // measure 18
0010
0100
0100
0100
,  // measure 19
1001
0000
0010
0001
,  // measure 20
0010
0010
1000
1000
,  // measure 21
0110
0000
1000
0100
,  // measure 22
0010
0100
0010
0001
,  // measure 23
0020
0030
0100
0010
,  // measure 24
1000
1000
0001
0001
,  // measure 25
0100
0020
0030
0001
,  // measure 26
0010
0200
0300
1000
,  // measure 27
0010
0010
0100
0100
,  // measure 28
0001
1000
0001
1000
,  // measure 29
0110
0000
1000
0001
,  // measure 30
1001
0000
0001
0010
,  // measure 31
0110
0000
0110
0000
,  // measure 32
1000
0001
0100
0010
,  // measure 33
1000
0100
0100
0010
,  // measure 34
0002
0003
0010
0010
,  // measure 35
0100
0010
0000
0100
,  // measure 36
0010
1000
0001
0001
,  // measure 37
0010
0000
0100
0000
,  // measure 38
1000
1000
0100
0100
,  // measure 39
0020
0030
0100
0001
,  // measure 40
0200
0300
0010
0100
,  // measure 41
0110
0000
0000
0000
;
