#TITLE:Touch My Body;
#SUBTITLE:;
#ARTIST:SISTAR;
#TITLETRANSLIT:;
#SUBTITLETRANSLIT:;
#ARTISTTRANSLIT:;
#CREDIT:;
#BANNER:Touch My Body banner.png;
#BACKGROUND:Touch My Body bg.png;
#LYRICSPATH:;
#CDTITLE:;
#MUSIC:Touch My Body.mp3;
#OFFSET:-5.220;
#SAMPLESTART:52.760;
#SAMPLELENGTH:15.000;
#SELECTABLE:YES;
#BPMS:0.000=50.000,1.000=128.240,32.000=128.100,146.000=128.200;
#STOPS:1.000=1.880
;
#BGCHANGES:;

//---------------dance-single - ----------------
#NOTES:
     dance-single:
     :
     Hard:
     8:
     0.499,0.466,0.198,0.076,0.167:
0000
0000
0001
1001
,
1000
0000
0000
0010
0000
0000
0100
0000
0010
0000
0000
0000
0110
0000
0000
0000
,
0100
0000
0000
0001
0000
0000
0010
0000
0100
0000
0000
0000
0010
0000
0110
0000
,
0100
0000
0000
1000
0000
0000
0100
0000
0010
0000
0000
0000
0011
0000
0000
0000
,
0001
0000
0000
0010
0000
0000
0100
0000
0010
0000
1000
0000
0001
0000
1001
0000
,
1000
0001
0100
0010
0010
0100
0001
1000
,
0010
0000
0000
0100
0000
0000
0010
0000
1000
0000
0000
0000
0100
0000
0001
0000
,
0020
0000
0130
0001
1000
0000
1000
0000
,
1000
0000
0100
0000
0010
0000
0001
0010
0000
0000
0010
0000
0000
0000
0100
0000
,
0001
1000
0010
0001
0000
0001
0000
0010
,
0100
0010
1000
0101
0000
1010
0000
0100
,
0010
0100
0000
1001
0000
0001
0010
0100
,
1000
0100
0000
0100
0010
0001
1000
1001
,
0000
0001
0010
0001
0100
0010
0100
1000
,
0000
1000
0100
0010
0000
0100
0000
0001
,
0000
1000
0000
0010
0000
1000
0100
0100
,
0010
0010
0001
0010
1001
0010
0100
0010
,
1000
0100
0001
0100
1000
0010
0100
0010
,
0000
0100
0110
0010
0001
1000
0010
0001
,
0100
0010
1000
1000
0100
0000
0100
0010
,
0000
0001
0000
1000
0020
0000
0130
0002
,
0000
0013
0100
1000
2000
0000
3100
0010
,
0000
0010
0100
1001
0000
0001
1000
0010
,
0100
0000
0100
0010
1000
0010
0100
0010
,
0001
0000
0000
0010
0000
0000
0100
0000
1001
0000
0000
0000
0100
0000
0010
0000
,
1000
1000
0100
0001
0100
0020
0000
0130
,
1000
0000
0000
0100
0000
0000
0010
0000
1001
0000
0000
0000
0010
0000
0001
0000
,
0100
0010
1000
0100
0100
0020
0000
0130
,
0000
0000
0001
0000
0010
0000
1000
0000
0010
0000
0100
0001
0000
0001
0100
0000
,
0000
0000
0010
0000
1000
0000
0010
0000
0100
0000
0001
1000
0000
1000
0001
0000
,
0000
0100
0010
0100
0000
0010
0011
0001
,
0010
0100
1000
1001
0000
0010
0110
0100
,
1000
0000
0000
0001
0000
0000
1000
0000
0010
0000
0100
0000
0001
0000
1000
0000
,
0010
0001
0100
0010
0001
0010
0000
0010
,
0100
0000
0000
0010
0000
0000
0100
0000
0001
0000
1000
0000
0100
0000
1000
0000
,
0001
0000
0100
0000
0010
0000
1000
0000
0001
0000
0200
0000
0000
0000
0310
0001
,
0000
0000
0010
0000
0100
0000
0010
0000
1100
0000
0000
0100
0000
0000
0110
0000
,
0000
0001
0000
0000
0010
0000
0100
0000
0010
0000
0000
0000
0100
0000
0010
0000
,
0000
0010
0100
0001
1000
0010
0010
0100
,
0001
0000
1000
0000
0000
0000
1001
0000
0000
0000
0100
0000
0010
0000
1000
0001
,
1000
0000
0000
0100
0000
0000
0010
0000
0100
0000
0001
0010
0000
0010
0000
0000
,
0100
0000
0010
0100
0000
0100
0000
0000
1001
0000
0000
0010
0000
0000
0100
0000
,
0001
0000
1000
0010
0000
0010
1000
0000
0100
0000
0010
1000
0000
0100
0000
0000
,
0010
0000
0100
0001
0000
0010
0000
0000
0100
0000
0000
0010
0000
0000
1000
0000
,
0001
0000
0010
0000
0010
0000
0100
0000
1000
0000
0100
0010
0000
0010
0100
0000
,
1000
0000
0100
0001
0000
0001
0100
0000
0010
0000
0000
1000
0000
0000
0010
0000
,
0100
0000
0001
0000
1000
0000
0010
0100
0010
0000
0000
0000
1000
0000
0010
0000
,
0000
0000
0100
0000
0001
0000
0100
0000
0010
0000
0000
0010
0000
0000
0100
0000
,
0000
0000
1001
0000
0200
0000
0010
0010
,
0000
0310
0000
0001
0000
1000
0000
0010
,
0000
0100
0000
0001
0020
0000
1000
1030
,
0100
0100
0010
1000
0000
0001
0000
0100
,
0000
0010
0000
0100
0020
0000
0000
0100
,
0100
0130
0001
1000
0000
0010
0000
0100
,
0000
0001
0000
1000
0001
0000
0001
1000
,
0000
0010
0100
0010
0100
0000
0001
1000
,
0001
0000
0010
0000
0100
1000
0100
0010
0001
0000
0010
0000
1100
0000
0100
0000
,
0010
1000
0100
0001
0010
0100
0010
1000
,
0000
0100
0000
0010
0100
0010
0011
0100
,
0010
1000
0001
0010
0001
1000
0010
1000
,
0000
0000
0100
0000
0100
0000
0010
1000
0010
0000
0100
0000
0001
0000
1000
0000
,
0010
0100
0001
0010
0000
1000
0000
0010
,
0100
0000
0001
0000
1000
0000
0010
0100
0010
0000
0000
0000
0001
0000
1000
0001
,
1000
0000
0100
0010
0010
0000
1001
0010
,
0100
0000
0000
0010
0000
0000
0100
0000
1001
0000
0000
0000
0000
0000
0000
0000
;

//---------------dance-single - ----------------
#NOTES:
     dance-single:
     :
     Medium:
     5:
     0.387,0.344,0.160,0.023,0.000:
0000
0000
0010
0110
,
0100
0000
0010
0001
1000
0000
0100
0000
,
0010
0000
1000
0010
0100
0000
0110
0000
,
0010
0000
0001
0100
0010
0000
0010
0000
,
0001
0000
0100
0010
1000
0000
1000
0100
,
0000
0100
0010
0100
0010
0000
0001
0000
,
0010
0000
0100
0010
0100
0000
0010
1000
,
1000
0000
0100
0001
0001
0000
0010
0000
,
0100
1000
0100
0000
0010
0000
0011
0000
,
0010
0100
0010
0100
0000
1000
0000
0100
,
0010
0000
0010
0100
0000
0001
0000
1000
,
0010
1000
0000
0101
0000
0010
0100
0010
,
0100
0010
0000
1000
0001
0010
0100
1000
,
0000
0100
0010
0000
0010
0100
0010
0100
,
0000
0001
1000
0001
0000
0010
0000
0100
,
0000
1000
0000
1001
0000
1000
0010
0100
,
0010
0010
0100
0101
,
0010
0000
1010
0000
0100
1000
0100
1000
,
0000
0010
0100
0000
1000
0000
1100
0000
,
0010
0000
0011
0000
0100
0000
0010
1000
,
0000
0001
0000
0100
0010
0000
0010
0100
,
0000
0100
0010
1000
0001
0000
0001
0010
,
0000
0010
0100
0010
0000
0010
0100
0000
,
1000
0001
1001
0000
,
0010
0000
0100
0010
0100
0000
0001
0010
,
0100
0000
0010
1000
0000
0100
0000
0010
,
0100
0000
0100
0010
0100
0000
1000
0100
,
0010
0000
0001
0100
0000
0010
0000
1000
,
0000
0100
0010
0000
0010
0000
0010
0001
,
0000
0001
0100
0010
1000
0000
1000
0100
,
0000
0100
0000
0010
0000
0100
0010
0100
,
0001
1000
0000
1001
0000
0001
0100
0000
,
0010
0000
0100
0000
0110
0000
1000
0001
,
1000
0000
0100
0001
0000
0010
0000
0100
,
0010
0000
1000
0001
0100
0000
0100
0010
,
1000
0000
1000
0010
0000
0100
0000
0001
,
0000
0010
0100
0010
0100
0000
0010
0100
,
0000
1000
0001
0000
0010
0000
0100
0010
,
0000
1000
0000
0001
0000
0100
0100
0000
,
0010
0010
0000
1001
0000
0100
0010
0000
,
1001
0000
1001
0000
0001
0010
0001
0000
,
0010
0100
0010
0000
0100
1000
0100
0000
,
0010
0010
0010
0000
1000
0100
1000
0000
,
0100
0010
0100
0000
0010
0001
0010
0000
,
0100
0100
0100
0010
0000
0010
0000
1000
,
0000
0001
1000
0000
0001
0000
0010
0100
,
0010
0000
1001
0000
0100
0000
0010
1000
,
0000
0100
0000
0010
0001
0000
0010
0100
,
0000
0100
0000
0000
1002
0000
0010
0000
,
0100
0000
0013
0100
0000
0010
0000
1000
,
0000
0001
0000
0100
2000
0000
0100
0000
,
0100
0000
3100
0010
0000
1000
0000
0100
,
0000
0001
0000
0100
0020
0000
0100
0100
,
0100
0000
0130
1000
0000
0001
0000
1000
,
0000
0010
0000
0100
0010
0000
0010
0100
,
0000
0100
0010
1000
0001
0000
0001
0000
,
0010
0100
1000
0100
1001
0000
0100
0010
,
0000
0010
0000
1000
0000
0100
0000
0001
,
0000
0100
1000
0100
0010
0000
0010
0100
,
0010
0000
0001
0100
0000
1000
0000
0100
,
0000
0001
0000
0100
0010
0000
1000
0001
,
1000
0000
0100
0010
0000
0100
0000
0001
,
0000
1000
0000
0010
0011
0000
0010
0000
,
0110
0000
1000
0010
0100
0000
0100
0001
,
1000
0010
1001
0000
;

//---------------dance-single - ----------------
#NOTES:
     dance-single:
     :
     Easy:
     3:
     0.286,0.270,0.122,0.099,0.000: // measure 1
0000
0000
0100
0110
,  // measure 2
0010
1000
0001
1000
,  // measure 3
0100
0010
1000
1001
,  // measure 4
0001
0010
0100
0010
,  // measure 5
0001
0010
0110
0001
,  // measure 6
1000
0010
0100
0001
,  // measure 7
1000
0110
0001
0100
,  // measure 8
0010
1000
0100
0100
,  // measure 9
0100
0010
0001
0000
,  // measure 10
0001
0010
0100
0100
,  // measure 11
0010
1000
0100
0100
,  // measure 12
0010
1000
0100
0100
,  // measure 13
0002
0003
0010
0100
,  // measure 14
0010
0001
1000
1000
,  // measure 15
0100
0010
0100
0010
,  // measure 16
1000
0001
1000
0100
,  // measure 17
0010
0010
0100
0001
,  // measure 18
1000
0010
0001
0200
,  // measure 19
0300
0010
0001
0010
,  // measure 20
0100
0010
1000
0100
,  // measure 21
0100
0010
0002
0003
,  // measure 22
0020
0030
0200
0300
,  // measure 23
1000
0100
0100
0010
,  // measure 24
1000
0001
1000
0100
,  // measure 25
0010
0010
1001
0100
,  // measure 26
0010
1000
0100
0100
,  // measure 27
0001
0010
0110
1000
,  // measure 28
0001
0100
0010
0010
,  // measure 29
0001
0100
1000
0100
,  // measure 30
0100
0010
0100
0001
,  // measure 31
0001
0110
1000
0100
,  // measure 32
0100
0000
0110
0010
,  // measure 33
0001
1000
1001
0010
,  // measure 34
0001
0010
0100
0100
,  // measure 35
0010
1000
0110
1000
,  // measure 36
0100
0010
0001
0002
,  // measure 37
0003
0010
0100
0100
,  // measure 38
0010
0010
1000
0001
,  // measure 39
1000
0100
0010
0010
,  // measure 40
0010
0000
0001
0010
,  // measure 41
0100
0100
1001
0000
,  // measure 42
0010
0000
0100
0100
,  // measure 43
0010
1000
1001
0000
,  // measure 44
0100
0000
0010
0001
,  // measure 45
1000
1000
0100
0001
,  // measure 46
0100
0001
0010
1000
,  // measure 47
0010
1000
0100
0000
,  // measure 48
0100
0010
0010
0100
,  // measure 49
0002
1003
0020
0000
,  // measure 50
0100
0000
0130
0001
,  // measure 51
1000
0010
2000
0000
,  // measure 52
0100
0000
3100
0010
,  // measure 53
0001
0010
0002
0000
,  // measure 54
0010
0000
0103
0010
,  // measure 55
1000
0001
0200
0300
,  // measure 56
0020
0030
2000
3000
,  // measure 57
0010
0010
0110
0001
,  // measure 58
1000
0010
0100
0010
,  // measure 59
1000
0100
0010
0001
,  // measure 60
0010
0001
0001
0010
,  // measure 61
0100
1000
0100
1000
,  // measure 62
0100
0100
0010
0010
,  // measure 63
1000
0001
1001
1000
,  // measure 64
0110
0001
0010
0010
,  // measure 65
1000
0001
1001
0000
;
