#TITLE:Thank You;
#SUBTITLE:;
#ARTIST:BRAVE GIRLS;
#TITLETRANSLIT:;
#SUBTITLETRANSLIT:;
#ARTISTTRANSLIT:;
#CREDIT:;
#BANNER:Thank You banner.png;
#BACKGROUND:Thank You bg.png;
#LYRICSPATH:;
#CDTITLE:;
#MUSIC:Thank You.mp3;
#OFFSET:-5.160;
#SAMPLESTART:64.140;
#SAMPLELENGTH:15.000;
#SELECTABLE:YES;
#BPMS:0.000=122.000;
#STOPS:;
#BGCHANGES:0.000=Thank You.avi=1.000=1=0=0,
99999=-nosongbg-=1.000=0=0=0 // don't automatically add -songbackground-
;

//---------------dance-single - ----------------
#NOTES:
     dance-single:
     :
     Hard:
     8:
     0.505,0.491,0.226,0.091,0.170:
0000
0000
0000
0000
,
0000
0000
0000
0000
,
0001
1000
0001
0000
0010
0100
0010
0002
,
0000
0013
0100
0000
0100
0010
1000
0001
,
0100
0100
0010
0000
1000
0001
0100
0010
,
1000
0100
1000
0000
0001
0010
0001
0010
,
0110
0000
0000
0001
1000
0001
0000
0010
0000
0100
1000
0000
0100
0010
0000
0000
,
1000
0001
0000
0000
1000
0000
0000
0000
0100
0000
0010
0000
0001
0000
0010
0000
,
0100
0000
0000
0000
0001
0010
0000
0010
0000
1000
0100
0000
0010
0000
0100
0000
,
0010
1000
0000
0000
0010
0000
0100
0000
0010
0000
0000
0000
1001
0000
0000
0000
,
0010
0000
0100
0000
0010
0000
1000
0001
1000
0000
0100
0000
0010
0000
0002
0000
,
0000
1003
0001
1000
0010
0001
1000
0000
,
1001
0000
0000
0000
0001
1000
0000
0010
0000
0100
0010
0000
1000
0000
0001
0000
,
0100
0010
0000
0000
0100
0000
0001
0000
1000
0000
0000
0000
0100
0000
0001
0000
,
2000
0000
3010
1000
0001
0100
0010
0002
,
0000
0000
0003
0000
0100
0000
0010
0000
0100
0000
0010
0000
1000
0000
0001
1000
,
0001
0000
1000
0010
0000
0010
0100
1000
0100
0000
0010
0000
0100
0000
0000
0000
,
0010
0000
1000
0001
0000
0001
0010
0100
0010
0000
0100
0000
0010
0000
0100
0000
,
0201
0000
0300
0010
0100
0010
1000
0120
,
0000
0000
0030
0000
0100
0000
0001
0000
0010
0000
0001
0000
1000
0000
0100
1000
,
0100
0010
0100
0010
0001
1000
0001
1000
,
0100
0000
0000
0000
0100
0010
0000
0000
1001
0000
0001
0000
0010
0000
0100
0000
,
0110
0000
0000
0100
0000
0000
0010
0000
1000
0000
0001
0000
0100
0000
0010
0000
,
1000
0000
0000
0001
0000
0000
0010
0000
0100
0000
0010
0000
1000
0000
0001
0000
,
0001
0000
0010
0000
0100
0000
0010
0000
1000
0000
0100
0010
0100
0000
0001
0000
,
0010
0000
0000
0100
0000
0000
0010
0000
1000
0000
0001
0000
0100
0000
0010
0000
,
1001
0000
0000
0001
0000
0000
0010
0000
0100
0000
0010
0000
1000
0001
1000
0000
,
0010
0000
0000
0010
0000
0000
0100
0000
0010
0000
0100
0000
0100
0000
0010
0000
,
0100
0000
1000
0000
0010
0100
0000
0010
0000
0000
0100
0000
0001
0000
1000
0000
,
0020
0000
0000
0130
1000
0001
0100
0000
,
0011
0000
0110
0000
1100
2000
0000
3100
,
0100
0000
0000
0000
0010
0000
0000
1000
0001
0000
0010
0000
0000
0000
0100
0010
,
0100
0010
1000
0001
0100
0010
0100
0001
,
0000
1000
0001
0100
0110
0000
0001
0010
,
1100
0000
0110
0000
0011
0002
0000
0013
,
0100
0000
0000
0000
0010
0000
0000
0001
1000
0000
0010
0000
0000
0000
0100
1000
,
0010
0000
0100
0000
0001
0000
1000
0100
0010
0000
0001
0000
0010
0000
0100
0000
,
0000
0100
0010
1000
0001
0100
0010
0000
,
0110
1000
0010
0100
0010
0001
0010
0000
,
0100
0010
0001
0010
0100
0010
1000
0000
,
1001
0100
0010
0100
0010
1000
0100
0000
,
0010
0001
1000
0001
0010
0100
0010
0000
,
0001
0010
0100
1100
0100
0010
0100
0001
,
0001
0010
0100
0101
0010
1000
0010
0000
,
1000
0001
0010
0011
0010
0100
0010
1000
,
0002
0010
0100
0013
,
1001
0010
0100
0010
0001
0010
0100
1000
,
0100
0010
0100
0010
0001
0100
0010
0000
,
0100
0010
1000
0001
0100
0010
0100
0000
,
0010
0001
0010
0100
1000
0100
1000
0000
,
0110
0000
0000
1000
0000
0000
0100
0000
0010
0000
0001
0000
0100
0000
0010
0000
,
0001
0000
0000
0010
0000
0000
0100
0000
0010
0000
1000
0000
0001
0000
0001
0000
,
0010
0100
0010
0001
0010
2000
0000
0200
,
0000
3000
0000
0300
0010
1000
0001
0100
,
0110
0000
1001
0000
0110
0100
0000
0010
,
0100
0000
0001
0000
0010
0000
1000
0100
1000
0000
0010
0000
0000
0000
0001
0010
,
0100
0010
0100
0010
1000
0001
1000
0100
,
0000
0100
0010
1000
0001
0000
1001
1000
,
1100
0000
0011
0000
0110
0010
0000
0100
,
0010
0000
0001
0000
0010
0000
0100
0010
0100
0000
0001
0000
0000
0000
0010
0100
,
0010
0000
1000
0000
0001
0000
0100
0001
0010
0000
1000
0000
1000
0000
0100
0000
,
0000
0010
0100
0001
1000
0010
0100
0000
,
1001
0000
0000
0000
;

//---------------dance-single - ----------------
#NOTES:
     dance-single:
     :
     Medium:
     6:
     0.391,0.351,0.174,0.106,0.000:
0000
0000
0000
0000
,
0000
0000
0000
0000
,
0010
0000
0100
0000
0010
0001
1000
0001
,
0000
0001
0000
0010
0000
0200
0000
0300
,
1000
0000
0010
0000
0100
0000
0001
1000
,
0000
0100
0010
0000
1000
0001
1000
0000
,
0110
0000
0100
0010
0001
0000
0001
0010
,
0100
1000
0200
0310
,
1001
0000
0010
0100
1000
0000
1000
0100
,
0010
0000
0001
0001
0020
0000
0130
0000
,
0001
0000
0010
0001
0100
0000
0010
1000
,
0000
0100
0010
0100
0010
1000
0001
0000
,
0011
0000
1000
0100
0001
0000
0001
0100
,
1000
0000
0010
0100
0010
0000
0110
0000
,
0200
0000
0310
0000
0001
0000
0010
0200
,
0000
0010
0310
0001
,
1000
0001
1000
0000
0100
0010
0100
0000
,
0010
0001
0010
0000
0100
1000
0100
0000
,
0002
0000
0013
0000
0200
0000
1300
0200
,
0000
0010
0310
1000
,
0100
0010
0100
0010
0100
0001
1000
0001
,
1000
0000
0100
0000
0010
0000
0001
0010
,
0110
0000
0100
0000
0010
0000
1000
0100
,
0110
0000
0010
0000
0100
0001
0010
0000
,
0010
1000
0001
0000
0100
0010
1000
0000
,
0100
0010
0100
0001
,
1001
0000
1000
0100
0010
0000
0001
0000
,
1001
0000
0001
0010
0100
0000
0010
0000
,
0100
0010
0010
0100
1000
0000
0100
0010
,
0002
0000
0013
0100
0000
0100
0010
0000
,
0110
0000
1001
0000
0001
0020
0000
0130
,
0001
0000
0010
0100
1000
0100
0000
0010
,
0100
0000
0100
0010
1000
0001
0100
0000
,
0010
0001
0011
0000
,
0110
0000
1001
0000
1000
0200
0000
0310
,
0100
0000
0010
1000
0001
0100
0000
0100
,
0010
0001
0010
0100
1000
0000
0100
0010
,
0000
0010
0100
0000
0001
0000
1000
0000
,
1001
0000
0100
0010
0000
0010
0100
0000
,
0001
0010
0100
0000
0100
0010
1000
0000
,
0100
0000
0010
1000
0000
1000
0010
0000
,
0100
0010
0001
0000
1000
0010
0100
0000
,
0100
0010
0001
0010
0000
0010
0100
0000
,
0100
0010
0100
0010
1000
0000
0001
0000
,
0100
0010
1000
0100
0000
0100
0001
0000
,
0001
0010
0100
1000
0100
0010
0001
0000
,
2001
0000
0100
0000
0010
0000
3100
0010
,
0100
0000
0100
0000
0010
0000
1000
0001
,
0100
0000
0100
0001
1000
0000
0010
0001
,
0100
0010
1000
0100
0010
0000
0100
0000
,
0110
0000
0100
0010
0001
0000
0010
1000
,
0100
0000
0100
0010
1000
0000
0100
0010
,
0100
0010
1000
0100
0001
0100
0000
0100
,
0010
0000
0100
0010
0100
0000
1001
0000
,
0011
0000
0110
0000
0100
2000
0000
3010
,
0100
0010
0100
0000
0010
0100
0000
0100
,
0010
0000
1000
0001
0100
0010
0001
0000
,
0001
0010
0100
0000
1100
0000
0010
0000
,
0110
0000
1100
0000
0100
0020
0000
0031
,
0100
0000
0100
0010
1000
0001
0000
0001
,
0010
0100
0010
0100
1000
0000
1000
0010
,
0000
0010
0100
0000
0001
0000
1000
0000
,
1001
0000
0000
0000
;

//---------------dance-single - ----------------
#NOTES:
     dance-single:
     :
     Easy:
     2:
     0.276,0.257,0.091,0.143,0.000: // measure 1
0000
0000
0000
0000
,  // measure 2
0000
0000
0000
0000
,  // measure 3
0100
0010
0100
0010
,  // measure 4
0001
1000
0001
1000
,  // measure 5
0100
0100
0010
0010
,  // measure 6
0001
1000
0001
1000
,  // measure 7
0100
0010
1000
0100
,  // measure 8
0010
0010
0001
0020
,  // measure 9
0030
0100
0010
1000
,  // measure 10
0100
0100
0010
2000
,  // measure 11
3100
0010
0100
0010
,  // measure 12
0002
0100
0103
0100
,  // measure 13
1001
0010
0100
0010
,  // measure 14
1000
0001
1000
0100
,  // measure 15
0020
0030
0100
0010
,  // measure 16
2000
3000
0100
0000
,  // measure 17
0010
0001
0010
0010
,  // measure 18
0100
1000
0100
0100
,  // measure 19
0002
0003
0010
1000
,  // measure 20
0200
0300
0010
0100
,  // measure 21
0010
0010
0100
0100
,  // measure 22
0001
1000
0001
1000
,  // measure 23
1001
0200
0300
0010
,  // measure 24
0100
0020
0030
0001
,  // measure 25
0100
0010
1000
0100
,  // measure 26
0010
0100
0010
0010
,  // measure 27
1001
0002
0003
0010
,  // measure 28
0100
2000
3000
0100
,  // measure 29
0010
0010
0100
0100
,  // measure 30
0001
1000
0001
0100
,  // measure 31
0010
0010
0020
0030
,  // measure 32
0100
0001
1000
1000
,  // measure 33
0100
0010
0100
0010
,  // measure 34
1000
0200
0310
0000
,  // measure 35
1000
1000
2000
3000
,  // measure 36
0100
0010
0100
0100
,  // measure 37
0010
0001
0010
0100
,  // measure 38
0010
1000
1000
0100
,  // measure 39
0110
0010
0001
0010
,  // measure 40
0100
0010
0100
1000
,  // measure 41
0100
0100
0200
0310
,  // measure 42
0100
0001
0010
0001
,  // measure 43
1001
0100
0010
0100
,  // measure 44
0010
1000
1000
0100
,  // measure 45
0001
0100
0001
0010
,  // measure 46
2000
0000
0100
3100
,  // measure 47
1001
0010
0100
0010
,  // measure 48
0001
0010
1000
0010
,  // measure 49
0100
1000
0100
0010
,  // measure 50
0001
0100
0010
0001
,  // measure 51
0110
0100
0010
1000
,  // measure 52
0100
0100
0010
0001
,  // measure 53
1000
0010
0100
0010
,  // measure 54
0002
0000
0013
0110
,  // measure 55
1001
0100
0010
0010
,  // measure 56
0100
0010
2000
3100
,  // measure 57
0100
0010
1000
0100
,  // measure 58
0001
0100
0110
0000
,  // measure 59
0110
0010
0001
0001
,  // measure 60
0010
0100
0020
0130
,  // measure 61
1000
0100
0001
0100
,  // measure 62
1000
0100
0010
0001
,  // measure 63
1001
0000
0000
0000
;
