#TITLE:TANK;
#SUBTITLE:;
#ARTIST:NMIXX;
#TITLETRANSLIT:;
#SUBTITLETRANSLIT:;
#ARTISTTRANSLIT:;
#CREDIT:;
#BANNER:TANK banner.png;
#BACKGROUND:TANK bg.png;
#LYRICSPATH:;
#CDTITLE:;
#MUSIC:TANK.mp3;
#OFFSET:-14.280;
#SAMPLESTART:45.600;
#SAMPLELENGTH:15.000;
#SELECTABLE:YES;
#BPMS:0.000=180.000,64.000=90.000,80.000=180.001,144.000=90.000,176.000=180.001;
#STOPS:;
#BGCHANGES:;

//---------------dance-single - ----------------
#NOTES:
     dance-single:
     :
     Hard:
     10:
     0.687,0.812,0.820,0.064,0.167:
0001
1000
0001
0000
0110
0000
0001
0010
,
0000
0010
0100
1000
0100
0000
0100
0010
,
0010
0100
0010
0001
0010
0100
1000
0100
,
0000
0010
0000
0100
0001
0001
0010
0010
,
1000
0100
0001
0100
1000
0100
0010
0000
,
0110
0000
0110
0000
1000
0000
0001
1000
,
0001
0010
0100
1000
0100
0010
0001
0010
,
0000
0100
0010
0001
1000
1000
0100
0010
,
0011
0000
0011
0000
0011
0010
0100
1000
,
0000
1000
0100
0000
0010
0100
0110
0000
,
1000
0001
0100
0010
1000
0001
0100
0010
,
0000
1000
0001
0010
0001
1000
0010
0000
,
1100
0000
1100
0000
1100
0100
0010
0001
,
0000
0001
0010
0100
1000
0000
1001
0000
,
0001
1000
0010
0001
1000
0010
0001
0001
,
0000
1000
0100
0010
0001
0010
0100
1000
,
1000
0000
0100
0010
0001
0000
0001
0000
0110
0000
0110
0000
0001
0000
0010
0100
,
1000
0000
0100
0000
0010
0000
1000
0000
1001
0000
1001
0000
0010
0100
0010
0001
,
0010
0000
0100
0000
1000
0000
0100
0000
0110
0000
0100
0010
0001
1000
0010
0001
,
0010
0000
0100
0000
0010
0000
1000
0000
1001
0000
1001
0000
0001
0010
0100
1000
,
0100
0010
0100
0010
0001
0001
1000
1000
,
0010
0100
0010
1000
0100
0100
0010
0010
,
0001
0010
0100
1000
0001
0001
0010
0000
,
0110
0000
0000
0001
1000
0000
0000
0000
0100
0000
0010
0000
1000
0000
0001
0000
,
1001
1000
0100
0010
0001
0001
0010
0010
,
0100
0010
0001
0010
1000
1000
0100
0100
,
0010
0100
0010
1000
0100
0100
0010
0000
,
1001
0000
0000
0100
0010
0000
0000
0000
0001
0000
0010
0000
1000
0000
0010
0000
,
1100
0100
0010
0100
0001
0001
1000
1000
,
0110
0001
0010
0100
0010
0010
0001
0001
,
0011
0010
0100
1000
0100
0100
0010
0000
,
0110
0000
0000
1000
0001
0000
0000
0000
0010
0000
0001
0000
0100
0000
0010
0000
,
1010
0100
0001
0010
0001
0001
0010
0010
,
0101
0010
1000
0100
0010
0010
0100
0100
,
1001
0010
0100
0010
1000
1000
0100
0000
,
0001
0000
0000
1000
0001
0000
0000
0000
0001
1000
0000
1000
0001
0000
0000
0000
,
2000
0000
0000
0000
3200
0000
0000
0000
0320
0000
0000
0000
0032
0000
0000
0010
,
0013
0100
0010
1000
0001
0000
0001
0010
,
0200
0000
2300
0000
3020
0000
0230
0300
,
0001
0010
0100
1000
0100
0010
0001
0010
0100
0000
0010
0000
1000
0000
0001
0000
,
1000
0000
1000
0000
0100
0000
0010
0001
0000
0000
0000
0000
0011
0000
0001
0000
,
0010
0000
0100
0000
0001
0000
0000
1000
0001
0000
0001
1000
0001
0000
0010
0000
,
0100
0010
0100
0010
0001
0000
0001
0010
0100
1000
0100
0000
0010
0000
0100
1000
,
0100
0010
0100
0001
0011
0000
0110
0000
1100
0000
0110
0000
1000
0100
0010
0001
,
1000
0100
0110
0010
0001
0010
0110
1000
,
1001
0001
0010
0100
0110
0010
1001
1000
,
1001
0001
0010
0100
1100
0100
0010
0000
,
1001
0000
0000
0010
0100
0000
0000
0000
0001
0000
0010
0000
0100
0000
1000
0000
,
1001
0001
0010
0100
0110
0001
0011
0010
,
0110
0100
1000
0100
0011
0010
1100
0100
,
0110
1000
0100
0010
1001
0010
0100
0000
,
0110
0000
0000
1000
0001
0000
0000
0000
0001
1000
0000
1000
0001
0000
0000
0000
,
0011
0010
0100
1000
1100
0100
0110
0010
,
0011
0001
0010
0100
0110
0100
1100
0100
,
0110
0010
1000
0010
0011
0010
0100
0000
,
1001
0000
0000
0001
0010
0000
0000
0000
0110
0000
0100
0000
0010
0000
1000
0000
,
1001
0001
0010
0100
1010
0100
0101
0010
,
1000
1000
0100
0010
0110
0001
0011
0010
,
0110
1000
0001
1000
1001
0001
0010
0000
,
0110
0000
0000
0100
0010
0000
0000
0000
0010
0100
0000
0100
0010
0000
0000
0000
,
1100
0000
1100
0000
1100
0000
0110
0110
,
0000
0110
0000
0110
0110
0000
0110
0000
,
0011
0000
0011
0000
0011
0000
1010
1010
,
0000
1010
0000
1010
1010
0000
1010
0000
,
0101
0000
0101
0000
0101
0000
0011
0011
,
0000
0011
0000
0011
0011
0000
0011
0000
,
0110
0000
0110
0000
0110
0000
1001
1001
,
0000
0000
1001
0000
0000
0000
1001
0000
0001
1000
0000
1000
0001
0000
0000
0000
,
1001
0000
0000
0000
;

//---------------dance-single - ----------------
#NOTES:
     dance-single:
     :
     Medium:
     7:
     0.438,0.460,0.159,0.088,0.000:
1000
0000
0100
0000
0010
0000
0001
0010
,
0000
0100
0000
0010
1000
0000
0001
0000
,
0100
0000
0010
0000
0100
0000
0001
0020
,
0000
0000
0030
0000
0100
0010
0100
0010
,
0000
0000
0001
0000
1000
0000
0010
0100
,
0000
0100
0000
0001
1000
0000
0010
0000
,
0001
0000
0010
0000
0100
0000
1000
0100
,
0000
0100
0010
0000
1000
0001
1000
0000
,
0011
0000
0011
0000
0011
0000
0000
0010
,
0000
0010
0100
0000
0010
0000
0110
0000
,
0100
0000
0001
0000
1000
0000
0010
0100
,
0000
0100
0010
0000
1000
0000
0001
0000
,
1100
0000
1100
0000
1100
0000
0000
0010
,
0000
0100
0010
0000
0001
0000
1001
0000
,
0010
0000
0100
0000
0001
0000
1000
0001
,
0000
0001
1000
0000
0010
0000
0100
0000
,
0001
0010
0100
0000
0010
0010
1000
0100
,
0010
0100
0001
0000
0010
0010
0100
0001
,
1000
0001
2000
0000
3100
0100
0010
0100
,
0010
0001
0020
0000
0130
0100
0001
1000
,
0001
0000
0010
0000
0100
0000
1000
0100
,
0000
0100
0000
0010
1000
0000
1001
0000
,
1000
0001
0010
0100
,
0001
1000
0001
0000
0010
0000
0100
0000
,
0110
0000
0010
0000
1000
0000
0001
0010
,
0000
0100
0000
0001
1000
0000
1001
0000
,
0100
0100
0010
1000
,
0010
0100
0010
0000
1000
0001
1000
0000
,
0100
0000
0001
0010
0001
0000
0010
0100
,
0000
0001
0000
1000
0100
0000
0110
0000
,
0010
0000
0100
0001
0100
0000
0010
0000
,
1000
0001
1000
0000
0010
0100
0010
0000
,
1000
0000
0001
0100
1000
0000
1000
0010
,
0000
0001
0000
0001
0010
0000
0110
0000
,
0001
0000
1000
0001
1000
0000
0010
0000
,
0100
0010
0100
0000
0010
0000
1000
0000
,
0002
0023
0230
2300
,
3100
0000
0010
0100
0001
0000
1000
0100
,
0020
0230
0302
2003
,
3010
0010
0100
0100
0001
1000
0001
0000
,
0001
0010
0100
1000
0000
1000
0100
0010
,
0100
0010
0001
0010
0000
0010
0100
0010
,
0100
0100
0100
0001
0001
0001
0000
1000
,
0010
0100
0001
0001
0001
0001
0010
0100
,
1001
0000
0100
0010
0100
0000
0001
0010
,
0000
0010
0100
0010
1000
0000
0100
0000
,
0110
0000
1000
0001
1000
0000
0010
0000
,
0001
1000
0001
0000
0100
0010
1000
0000
,
1000
0000
0100
0010
0100
0000
0010
0001
,
0000
1000
0001
1000
0010
0000
0010
0100
,
0010
0000
0001
0100
1000
0000
1000
0000
,
1000
0010
0001
0000
0110
0000
0110
0000
,
0001
0010
0100
0000
0100
0010
1000
0010
,
0000
0001
0010
0100
0010
1000
0010
0000
,
0010
0000
0100
0010
0100
0000
1001
0000
,
0001
0010
0100
0000
0100
0010
0001
0010
,
1000
0000
0100
0010
0100
0000
0100
0010
,
0000
1000
0000
0001
0100
0000
0110
0000
,
1000
0000
0001
0000
0100
0000
0010
1000
,
0001
0100
0010
0000
0100
0100
0100
0000
,
0001
0000
0001
0000
0001
0000
0001
0010
,
0000
0010
0000
0010
0010
0000
0100
0000
,
1000
0000
1000
0000
1000
0000
0100
0100
,
0000
0100
0000
0100
0100
0000
0010
0000
,
0100
0000
0001
0000
1000
0000
0001
0010
,
0000
1000
0000
0010
0001
0000
0100
0000
,
0010
0000
1000
0000
0001
0000
0100
0010
,
0000
0010
0000
0100
0010
0100
0010
0000
,
1001
0000
0000
0000
;

//---------------dance-single - ----------------
#NOTES:
     dance-single:
     :
     Easy:
     4:
     0.373,0.460,0.207,0.199,0.000: // measure 1
0010
0010
0010
0000
,  // measure 2
0100
0010
0001
0010
,  // measure 3
0100
0010
1000
0001
,  // measure 4
0020
0030
0100
0100
,  // measure 5
0010
0001
0010
1000
,  // measure 6
0010
0000
0100
0001
,  // measure 7
0010
0001
0010
0100
,  // measure 8
1000
1000
0100
0010
,  // measure 9
0100
0100
0100
0010
,  // measure 10
1000
1001
0000
0001
,  // measure 11
0010
0100
0010
1000
,  // measure 12
0010
0100
0000
0100
,  // measure 13
0001
0001
0001
0010
,  // measure 14
0100
1001
0000
0020
,  // measure 15
0130
0001
1000
0010
,  // measure 16
0100
0001
0010
0100
,  // measure 17
1000
0000
0100
0000
0010
0100
0010
0000
,  // measure 18
0001
0000
0010
0000
0100
1000
0100
0000
,  // measure 19
0010
0000
0100
0000
0001
0010
0001
0000
,  // measure 20
0010
0000
0100
0000
1000
0001
1000
0000
,  // measure 21
1001
0010
0100
0010
,  // measure 22
0001
0001
0020
0130
,  // measure 23
1000
0100
0001
0100
,  // measure 24
0110
0110
1000
0100
,  // measure 25
0001
0100
1000
0010
,  // measure 26
0001
0001
2000
3100
,  // measure 27
0010
0100
0010
1000
,  // measure 28
1001
1001
0010
0001
,  // measure 29
0100
0010
1000
0100
,  // measure 30
0010
0010
0200
0301
,  // measure 31
0010
1000
0110
0100
,  // measure 32
1001
1001
0010
0100
,  // measure 33
0001
0001
0010
0010
,  // measure 34
0100
0100
2000
3001
,  // measure 35
0010
0100
0010
1000
,  // measure 36
0001
0001
0100
1000
,  // measure 37
0020
0230
2300
3020
,  // measure 38
0230
0000
0302
0000
0023
0000
0130
0100
,  // measure 39
0200
2300
3020
0230
,  // measure 40
0301
0000
0010
0000
1000
0001
1000
0000
,  // measure 41
0001
0000
0010
0000
0100
0000
1000
0100
,  // measure 42
0001
0000
0001
0000
0001
0100
1000
0000
,  // measure 43
0010
0100
0010
0000
1000
0001
1000
0000
,  // measure 44
0110
0000
0100
0100
0100
0100
0010
0000
,  // measure 45
1001
0100
0010
2000
,  // measure 46
3100
0001
0100
0002
,  // measure 47
0013
0100
0100
0010
,  // measure 48
1001
1001
0010
0001
,  // measure 49
0110
0100
0001
0020
,  // measure 50
0130
0001
1000
2000
,  // measure 51
3100
0010
0100
0001
,  // measure 52
1001
1001
0010
0001
,  // measure 53
0110
1000
0100
0020
,  // measure 54
0130
0001
1000
0020
,  // measure 55
0031
0100
0010
0100
,  // measure 56
1001
1001
0010
0001
,  // measure 57
1001
0100
1000
0200
,  // measure 58
0310
1000
0100
0002
,  // measure 59
0103
0010
1000
0001
,  // measure 60
1001
1001
0100
0010
,  // measure 61
1000
0000
1000
0000
1000
0000
0000
0100
,  // measure 62
0000
0100
0000
0100
0000
0000
0110
0000
,  // measure 63
0001
0000
0001
0000
0001
0000
0000
0010
,  // measure 64
0000
0010
0000
0010
0000
0000
0110
0000
,  // measure 65
1000
0000
0001
0000
1000
0000
0010
0100
,  // measure 66
0000
0100
0010
0100
,  // measure 67
0001
0000
1000
0000
0001
0000
0100
0001
,  // measure 68
0000
1000
0001
1000
,  // measure 69
1001
0000
0000
0000
;
