#TITLE:Strawberry Kisses;
#SUBTITLE:;
#ARTIST:BEBE YANA;
#TITLETRANSLIT:;
#SUBTITLETRANSLIT:;
#ARTISTTRANSLIT:;
#CREDIT:;
#BANNER:Strawberry Kisses banner.png;
#BACKGROUND:Strawberry Kisses bg.png;
#LYRICSPATH:;
#CDTITLE:;
#MUSIC:Strawberry Kisses.mp3;
#OFFSET:-7.460;
#SAMPLESTART:42.320;
#SAMPLELENGTH:15.000;
#SELECTABLE:YES;
#BPMS:0.000=130.000;
#STOPS:;
#BGCHANGES:;

//---------------dance-single - ----------------
#NOTES:
     dance-single:
     :
     Hard:
     8:
     0.568,0.621,0.179,0.124,0.225: // measure 1
0001
0010
0100
1000
0000
1001
0000
0001
,  // measure 2
0010
0100
0010
0100
0000
0110
0000
0100
,  // measure 3
0100
1000
0100
0010
0001
0010
0010
0000
,  // measure 4
0100
0010
1000
0001
0100
1000
1000
0200
,  // measure 5
0000
0310
0010
0020
0000
0031
0001
0002
,  // measure 6
0000
0013
0010
0020
0000
0130
0001
1000
,  // measure 7
0010
0000
0000
0000
0110
0000
0000
1000
0000
0000
0100
0000
0010
0000
0100
0000
,  // measure 8
0010
0000
0000
0000
1001
0000
0000
0010
0000
0000
0100
0000
0010
0000
0200
0000
,  // measure 9
0010
0300
1000
2000
0100
3000
0100
0200
,  // measure 10
0010
0300
0010
0020
0001
0030
0100
0001
,  // measure 11
1000
0001
0001
0010
0000
0100
1000
0010
,  // measure 12
0000
0000
0010
0100
0020
0000
0000
0000
0030
0000
0100
0000
0001
0000
0010
0000
,  // measure 13
0110
0000
1000
0000
0100
0000
0000
0010
0000
0001
0010
0000
0100
0000
0010
0000
,  // measure 14
1000
0000
0100
0000
0010
0000
0000
0100
0000
0010
0100
0000
0001
0000
1000
0000
,  // measure 15
0010
0000
0100
0000
0010
0000
0000
1000
0000
0001
0100
0000
0010
0000
0100
0000
,  // measure 16
0010
0000
1000
0000
0001
0000
0000
0010
0000
0001
0010
0000
1000
0000
0100
0000
,  // measure 17
0010
0100
0010
1000
1000
0100
0010
0001
,  // measure 18
0010
0100
0010
1000
0001
0100
0010
0010
,  // measure 19
0100
0000
0010
0000
0100
0000
0000
0001
0000
1000
0001
0000
0100
0000
0010
0000
,  // measure 20
0100
0001
1000
0002
0000
0013
0100
0010
,  // measure 21
0110
0100
0001
1000
0010
0010
0000
0100
,  // measure 22
1100
0100
0010
0100
0010
0001
0000
0010
,  // measure 23
0100
0010
1000
0000
1001
0000
0001
0010
,  // measure 24
0010
0100
1000
0100
0000
0100
0010
0100
,  // measure 25
0110
0010
0001
1000
0010
0001
0000
0001
,  // measure 26
1001
0000
1000
0000
0100
0000
0010
0000
0100
0000
0010
0000
1000
0000
0001
1000
,  // measure 27
0001
0010
0100
0000
0110
0000
0100
0010
,  // measure 28
1000
0001
0100
0010
0001
1000
1000
0100
,  // measure 29
0010
0001
0010
0200
0000
0310
1000
0001
,  // measure 30
0100
0010
0100
0110
0000
0010
0001
0010
,  // measure 31
0100
1000
0100
0020
0000
0130
0001
0010
,  // measure 32
0001
0010
1000
0010
0000
0100
0010
1000
,  // measure 33
0100
0001
0100
0010
0000
0110
0100
1000
,  // measure 34
0010
0100
0010
0001
0000
0010
0100
0010
,  // measure 35
1000
0001
0100
0010
0000
1100
0100
0001
,  // measure 36
1000
0001
0100
0010
0000
0010
0100
0000
,  // measure 37
0010
0000
0100
0000
0001
1000
0001
0000
0010
0000
0100
1000
0100
0000
0010
0000
,  // measure 38
0010
0100
0010
0000
1000
0000
0001
0000
1000
0000
0100
0000
0010
0000
0000
0010
,  // measure 39
0100
0010
0100
0001
1000
0001
1000
0000
0100
0000
0010
0001
0010
0001
0010
0000
,  // measure 40
0100
1000
0100
0000
0010
0100
0010
1000
0001
1000
0001
0000
0010
0000
0000
0100
,  // measure 41
0000
0000
0001
0000
0010
0000
0000
0010
0000
0000
0100
0000
1000
0000
0000
1000
,  // measure 42
0000
0000
0100
0000
0010
0000
0000
0010
0000
0000
0001
0000
1000
0000
0000
1000
,  // measure 43
0000
0000
0100
0000
0110
0000
0000
0001
0000
0000
0010
0000
0110
0000
0000
1000
,  // measure 44
0000
0000
0100
0000
0002
0000
0000
0013
0000
0000
0100
0000
0020
0000
0000
0130
,  // measure 45
0000
0000
0000
0000
0010
0000
0100
0010
0000
0000
0100
0000
0001
0000
1000
0000
,  // measure 46
0010
0000
0100
0000
1000
0000
0100
0001
0000
0000
0010
0000
0100
0000
0010
0000
,  // measure 47
0001
0010
0100
0010
0110
0000
1000
0100
,  // measure 48
0010
0100
0001
1000
1001
0000
0010
0010
,  // measure 49
0100
0000
0001
0000
1000
0000
0100
0010
0000
0010
0100
0000
0010
0000
1000
0000
,  // measure 50
0001
0000
0010
0000
0001
0000
0100
1000
0000
1000
0100
0000
0010
0000
0100
0000
,  // measure 51
1000
0100
0010
0001
0110
0000
0001
1000
,  // measure 52
0001
0100
0010
0100
0110
0000
0010
0000
,  // measure 53
1000
0000
1000
0000
0100
0000
0000
0010
0000
0000
0001
0000
0010
0000
0100
0000
,  // measure 54
0010
0000
0010
0000
0001
0000
0000
0010
0000
0000
0100
0000
0010
0000
0001
0000
,  // measure 55
0000
0100
0010
0100
0010
0010
0100
0001
,  // measure 56
1000
0001
0100
0020
0000
0130
1000
0100
,  // measure 57
0110
0000
0010
0000
0001
0000
1000
0010
0000
0010
1000
0000
0100
0000
0010
0000
,  // measure 58
0100
0000
0001
0000
1000
0000
0001
0010
0000
0010
0001
0000
0010
0000
0100
0000
,  // measure 59
0010
1000
0001
0000
1001
0000
1000
0100
,  // measure 60
0100
0010
0100
0010
0000
0001
1001
1000
,  // measure 61
0010
0000
0100
0000
0010
0000
1000
0001
0000
0001
1000
0000
0010
0000
0100
0000
,  // measure 62
0010
0000
0001
0000
0010
0000
0001
1000
0000
1000
0001
0000
0010
0100
0010
0100
,  // measure 63
0000
0000
0010
0000
1000
0000
0000
0001
0000
0100
0010
0000
1000
0000
0001
0000
,  // measure 64
0100
0000
0010
0000
1000
0000
0000
0100
0000
0010
0100
0000
0010
0000
2000
0000
,  // measure 65
3001
0000
0000
0000
;

//---------------dance-single - ----------------
#NOTES:
     dance-single:
     :
     Medium:
     6:
     0.416,0.398,0.078,0.070,0.000:
1001
0000
0010
0100
0000
0100
0000
0000
,
0011
0000
0010
1000
0000
0001
0000
0000
,
1001
0000
0100
0010
0000
1000
0010
0000
,
0100
0000
0001
1000
0000
0010
0100
0020
,
0000
0030
1000
0200
0000
0300
0001
0020
,
0000
0030
0010
0200
0000
0300
0001
1000
,
0001
0000
0010
0100
0000
0100
0010
0000
,
1000
0000
0010
0100
0000
0100
1000
0100
,
0000
0010
0001
0010
0000
0001
1000
0001
,
0000
0100
0010
0100
0000
0001
1000
0001
,
0010
0000
0100
0000
0010
0000
1000
0001
,
0000
0001
2000
0000
3000
0010
0010
0010
,
0100
0000
0001
1000
0000
0010
0100
0010
,
0100
0000
0001
0010
0000
1000
0100
1000
,
0100
0000
0010
1000
0000
0100
0010
0100
,
0010
0000
0001
0010
0000
1000
0001
0100
,
0010
0000
0010
0100
0010
0000
1000
0001
,
1000
0000
0100
0010
0001
0000
0001
0010
,
0100
0000
0010
0100
0000
0010
0000
1000
,
0001
1000
0100
0010
0000
0000
0100
0010
,
0100
0000
0010
0001
1000
0010
0000
0000
,
0100
0000
0001
0010
0100
1000
0000
0000
,
0100
0010
0100
0000
1001
0000
0010
0000
,
0100
0010
0100
0001
0000
0000
0001
0010
,
1000
0000
1000
0010
0100
0010
0000
0000
,
0100
0000
0001
1000
0010
0001
0000
0000
,
1000
0001
1000
0000
1001
0000
0010
0000
,
0100
0000
0010
0000
1000
0000
0001
0001
,
0010
0000
0010
0100
0000
0100
0010
0100
,
1000
0000
1000
0010
0000
0100
0010
0100
,
0010
0000
0100
0001
0000
1000
0010
0100
,
0010
0000
0001
0010
0000
1000
0001
1000
,
0010
0000
0010
0010
0000
0100
0010
0100
,
0001
0000
1000
0001
0000
0001
0010
0001
,
0100
0000
0010
0100
0000
1000
0100
0010
,
0001
0000
0100
0010
0000
0010
0100
0000
,
0010
0000
1000
0001
0100
0010
0100
0000
,
0010
0010
0001
0001
1000
0010
1000
0000
,
0100
0010
1000
0001
0100
0000
0010
0000
,
0100
0010
0100
0001
1000
0000
0010
0000
,
0001
0010
0100
0000
0100
0000
1000
0000
,
1000
0010
0010
0001
,
0001
0000
0100
0010
0000
0100
0010
0000
,
0100
0001
1000
0001
0000
0001
1000
0000
,
1001
0000
0200
0000
0310
0000
1000
0001
,
1000
0000
0010
0001
0010
0000
0100
0010
,
0000
0001
0001
0001
0010
0000
0100
0010
,
0100
0000
1000
0010
1000
0000
1001
0000
,
0110
0000
0010
0001
0002
0000
0013
1000
,
2000
0000
3010
0100
0200
0000
0310
0000
,
1000
0010
0100
0010
0001
0000
0010
0000
,
0100
0000
0010
1000
0001
0000
0000
0000
,
1001
0000
0010
0100
0010
1000
0000
1000
,
0010
0000
0010
0100
0000
0100
0010
0000
,
0001
0100
0001
0100
0000
0010
0000
1000
,
0001
0000
0001
0010
0000
0100
0010
0100
,
0010
0000
1000
0001
1000
0010
0000
0100
,
0010
0000
1000
0001
0010
0001
0000
0010
,
0010
0100
0010
0000
1000
0001
1000
0000
,
0010
0100
0001
1000
0000
0010
0100
0010
,
1000
0001
1000
0010
0001
0000
0010
0000
,
0001
1000
0001
0100
0010
0000
0100
0000
,
0010
0010
0010
0000
0100
0100
0100
0000
,
0001
1000
0001
1000
0000
0001
0000
1000
,
1001
0000
0000
0000
;

//---------------dance-single - ----------------
#NOTES:
     dance-single:
     :
     Easy:
     3:
     0.277,0.249,0.039,0.116,0.000:
0010
0001
0010
0010
,
1000
0100
1000
1000
,
0010
0100
0010
0010
,
0100
0001
1000
0010
,
0200
0300
0020
0030
,
0002
0003
2000
3000
,
0100
0100
0010
0010
,
0100
0001
1000
0010
,
0001
0000
0010
0000
,
0100
0000
1000
0000
,
0100
0100
1000
1000
,
0100
0020
0030
0100
,
0110
0010
0001
1000
,
0010
0001
0100
0010
,
0200
0300
0010
1000
,
0010
0010
0100
0100
,
0001
0010
0100
1000
,
0100
0010
0001
0010
,
0200
0300
0010
0100
,
0010
0010
1000
1000
,
0100
0001
0200
0300
,
0010
1000
0020
0030
,
0100
0001
1000
0000
,
0010
0100
0100
0010
,
1000
0001
0200
0300
,
0010
0001
0200
0300
,
0010
1000
0010
0000
,
0010
0100
0010
0001
,
0100
0100
0100
0010
,
1000
1000
1000
0100
,
0010
0010
0010
0100
,
0001
0001
0001
0010
,
0100
0010
0100
1000
,
0100
0010
0100
0010
,
0001
0010
0100
0010
,
0001
0001
1000
0000
,
1001
1000
0100
0100
,
0010
0100
0010
0010
,
0100
0001
1000
1000
,
0010
0100
0010
0010
,
0001
0020
0030
0200
,
0300
2000
3000
0200
,
0300
0010
1000
0100
,
0000
0001
0100
0010
,
1000
0100
0100
0001
,
0010
0001
0001
0010
,
0100
0010
0010
1000
,
0001
0100
0010
0000
,
0110
0100
0010
1000
,
0010
0100
0010
0001
,
0100
0010
0010
0001
,
1000
0001
0100
0000
,
0110
0001
0010
0000
,
1000
0100
0010
0100
,
0010
1000
0001
0100
,
0010
0010
0100
0100
,
0010
0001
0010
0010
,
0100
1000
0100
0100
,
0010
1000
0001
0000
,
0100
0100
0010
0010
,
0001
1000
0001
0100
,
0010
1000
0010
0100
,
0001
0001
0010
0100
,
0010
1000
0001
1000
,
1001
0000
0000
0000
;
