#TITLE:Something;
#SUBTITLE:;
#ARTIST:Girl's Day;
#TITLETRANSLIT:;
#SUBTITLETRANSLIT:;
#ARTISTTRANSLIT:;
#CREDIT:;
#BANNER:Something banner.png;
#BACKGROUND:Something bg.png;
#LYRICSPATH:;
#CDTITLE:;
#MUSIC:Something.mp3;
#OFFSET:-9.120;
#SAMPLESTART:71.300;
#SAMPLELENGTH:15.000;
#SELECTABLE:YES;
#BPMS:0.000=108.000;
#STOPS:;
#BGCHANGES:;

//---------------dance-single - ----------------
#NOTES:
     dance-single:
     :
     Hard:
     8:
     0.475,0.464,0.146,0.173,0.283:
1000
0000
1000
0100
0001
0100
1000
0010
,
0010
0000
0000
0000
0200
0000
0000
0000
0310
0000
0001
0000
0010
0100
2000
0000
,
0000
0000
3001
0000
1000
0000
0010
0000
0001
0000
1000
0000
0010
0000
0100
0010
,
0200
0000
0000
0000
0000
0000
0000
0000
0310
0000
0000
0000
0001
1000
0000
0000
,
1001
0000
0010
0100
0010
0000
0001
0000
0010
0000
0100
1000
0100
0000
0010
0000
,
0100
0000
0000
0001
0000
0000
0010
0000
1000
0000
0100
0000
0010
0000
0001
0000
,
0110
0000
1000
0001
1000
0000
0010
0000
0100
0000
0010
0001
0010
0000
0100
0000
,
0010
0000
0000
0100
0010
0000
0010
0000
1000
0000
0001
0000
0001
0000
0000
0000
,
0011
0000
0100
1000
0100
0000
0010
0000
0100
0000
1000
0001
1000
0000
0010
0000
,
0100
0000
0000
0001
0000
0000
1000
0000
0010
0000
0100
0000
0001
0000
0010
0000
,
1100
0000
0010
0001
0010
0000
0100
0000
0010
0000
0001
1000
0001
0000
0010
0000
,
0100
0000
0000
0010
0001
0000
0010
0000
0100
0000
0000
0000
1000
0000
0000
0000
,
0011
0000
0100
0010
0001
0010
0100
0010
,
0100
0000
0100
2000
0000
0100
0100
3000
,
0010
0100
0010
1000
0001
1000
0100
0010
,
0001
0000
0010
0100
0110
0001
0001
0000
,
1100
0010
0001
0010
0200
0000
0310
0001
,
0010
0000
0100
0020
0000
0100
0100
0030
,
0100
0000
1000
0000
0001
0000
1000
0000
0001
0000
0010
0000
0100
0000
0001
0010
,
0001
0000
0010
0000
0100
1000
0100
0001
,
0010
0000
0100
0000
0010
0000
0000
0010
0000
0000
0100
0000
1000
0010
0100
0010
,
0100
0000
0010
0000
0001
0000
0000
0001
0000
0000
0010
0000
0100
0000
0010
0000
,
1000
0001
2000
0000
3100
0010
0200
0000
,
0310
1000
0001
0010
0000
0010
0100
0010
,
1000
0000
0001
0000
0010
0000
0000
0110
0000
0000
0100
0000
0001
1000
0001
1000
,
0010
0000
0100
0000
1000
0000
0000
1010
0000
0000
0100
0000
0001
0000
0100
0000
,
0010
0001
0020
0130
0100
1000
0200
0310
,
0001
0000
0010
0000
1000
0000
0001
0100
2000
0000
0000
0000
0001
0000
3000
0000
,
1001
0000
0010
0100
0110
0000
0001
0010
,
0200
0000
0320
0000
0130
0000
0001
0010
,
1100
0000
1000
0100
0011
0000
0100
0010
,
0002
0000
2003
0000
3100
0010
0001
0000
,
0010
0100
0010
1000
0100
0001
0100
1000
,
0000
0010
0100
0010
1000
0001
0001
0010
,
0100
0010
0110
0001
0010
0100
1001
0010
,
0110
0000
0000
0200
0000
0000
0000
0000
0300
0000
0001
0000
1000
0000
0001
0000
,
1000
0100
0010
0100
0010
0000
0010
0100
0010
0000
0001
0010
0000
1000
0000
0010
,
0000
0100
0010
0100
1000
0000
0100
0010
0100
0000
0010
0001
0000
1000
0000
0001
,
0000
1000
0100
0010
0001
0000
0010
0000
0001
0000
1000
0010
0000
0100
0000
0000
,
0001
0000
0010
0000
0100
0000
1000
1000
,
0000
0100
0010
0100
0010
0000
0100
1000
0100
0000
0100
0010
0000
0001
0000
0010
,
0000
0100
0001
1000
0010
0000
0010
0100
0010
0000
0001
1000
0000
0100
0000
0020
,
0000
0000
0030
0000
0000
0000
0100
0001
0100
0000
1000
0001
0000
1000
0000
0200
,
0000
0000
0300
0000
0000
0000
0001
0010
0001
0000
0010
0100
0000
1000
0000
0020
,
0000
0130
0000
0000
;

//---------------dance-single - ----------------
#NOTES:
     dance-single:
     :
     Medium:
     6:
     0.322,0.303,0.100,0.100,0.000:
1000
0000
0010
0100
0010
0000
0001
0010
,
0001
0000
0010
0000
0100
1000
0200
0000
,
0300
0010
0001
0000
0001
0010
0100
1000
,
0200
0000
0000
0000
0000
0300
0010
0000
,
1001
0000
0010
0000
0100
0010
0001
1000
,
0010
0010
0100
0100
,
0001
0000
1000
0000
0010
0100
1000
0100
,
0010
0000
0100
0001
0100
0100
0101
0000
,
0010
0000
0100
0000
0010
0001
1000
0010
,
0100
0000
0100
0010
0100
0000
1000
0000
,
0100
0000
0010
0000
0001
0000
0010
0100
,
0010
0000
0001
0010
0100
0000
0100
0000
,
0010
0000
1000
0100
0001
0000
0001
0100
,
1000
0000
0010
0200
0000
0000
0310
0000
,
0001
0000
0010
0000
0100
0000
0010
1000
,
0020
0000
0000
0000
0030
0001
0001
0000
,
0010
0000
0100
0010
0100
0000
1000
0001
,
1000
0000
1000
0020
0000
0000
0030
0000
,
0100
0000
0010
0000
1000
0000
0001
0001
,
0020
0000
0000
0030
0000
0100
0100
0000
,
0010
0100
0010
0000
0001
0000
0010
1000
,
0010
0100
1000
0100
,
0001
1000
0001
0000
0010
0100
0010
0000
,
1000
0100
0010
0001
0000
0000
0110
0000
,
0010
0000
1000
0010
0000
0010
0100
0000
,
0100
0000
0001
0010
0000
0010
0100
0010
,
1000
1100
0100
0110
,
0001
0010
0100
1000
0100
0000
0010
0000
,
1001
0000
0010
0100
0010
0000
1000
0100
,
0010
0000
0020
0000
0030
0000
0001
0010
,
0110
0000
0010
0100
1000
0000
0010
1000
,
0001
0000
0002
0000
0003
0010
0010
0000
,
0100
0010
1000
0000
1000
0001
0100
0010
,
0000
0010
0100
0000
0001
1000
0001
1000
,
0010
0010
0110
0000
0100
0100
0110
0000
,
2002
0000
0000
0003
0000
3000
0010
0000
,
0100
0001
0010
1000
0010
0100
0010
0000
,
0010
0100
0010
1000
0100
0010
0001
0000
,
0001
0010
0100
1000
0100
0010
0001
0000
,
1000
0000
0100
0000
0010
0000
0001
0010
,
0000
0010
0001
0100
0010
0000
0100
1000
,
0100
0010
0100
0001
0010
0000
0100
0000
,
1000
0000
1000
0100
,
0010
0000
1000
0001
,
2001
3000
0000
0000
;

//---------------dance-single - ----------------
#NOTES:
     dance-single:
     :
     Easy:
     2:
     0.241,0.242,0.109,0.137,0.000: // measure 1
1000
0100
0001
0100
,  // measure 2
0110
0010
0001
2000
,  // measure 3
3000
0010
0100
0001
,  // measure 4
2000
0000
3000
0010
,  // measure 5
1001
0100
0010
0001
,  // measure 6
0110
0100
0001
0001
,  // measure 7
0110
1000
0100
0010
,  // measure 8
1001
0010
1000
1000
,  // measure 9
0100
0001
1000
0010
,  // measure 10
0001
0100
0110
0110
,  // measure 11
0001
0010
0100
1000
,  // measure 12
0010
0100
1000
1000
,  // measure 13
0010
0100
0010
0001
,  // measure 14
0010
0100
0020
0030
,  // measure 15
1000
0100
0001
0100
,  // measure 16
2000
0000
3000
0000
0000
0100
0100
0000
,  // measure 17
0010
1000
0001
0010
,  // measure 18
0001
0010
0200
0300
,  // measure 19
0010
0100
0010
1000
,  // measure 20
0002
0003
0000
0010
,  // measure 21
0100
0002
0003
0010
,  // measure 22
0100
2000
3000
0010
,  // measure 23
0100
0100
0001
0001
,  // measure 24
0010
0100
0010
1001
,  // measure 25
0100
0200
0300
0010
,  // measure 26
0001
0020
0030
0100
,  // measure 27
0001
0001
0010
0010
,  // measure 28
0100
1000
0001
0001
,  // measure 29
1001
0010
0100
0010
,  // measure 30
1000
2000
0000
3100
,  // measure 31
0110
0001
1000
0010
,  // measure 32
0001
0002
0000
0013
,  // measure 33
0100
0010
0001
0001
,  // measure 34
0010
0100
1000
1000
,  // measure 35
0010
0010
0100
0100
,  // measure 36
1001
0000
0000
0010
,  // measure 37
0100
0001
0010
1000
,  // measure 38
0100
0010
0100
0010
,  // measure 39
1000
1000
0100
0100
,  // measure 40
0020
0031
0100
0100
,  // measure 41
0000
0010
0001
0010
,  // measure 42
0100
0010
0010
0100
,  // measure 43
0001
0000
0001
0010
,  // measure 44
0100
0000
1000
0001
,  // measure 45
2002
3003
0000
0000
;
