#TITLE:Ring My Bell;
#SUBTITLE:;
#ARTIST:Girl's Day;
#TITLETRANSLIT:;
#SUBTITLETRANSLIT:;
#ARTISTTRANSLIT:;
#CREDIT:;
#BANNER:Ring My Bell banner.png;
#BACKGROUND:Ring My Bell bg.png;
#LYRICSPATH:;
#CDTITLE:;
#MUSIC:Ring My Bell.mp3;
#OFFSET:-7.280;
#SAMPLESTART:50.900;
#SAMPLELENGTH:15.000;
#SELECTABLE:YES;
#BPMS:0.000=99.000,24.000=198.000,248.000=99.000;
#STOPS:;
#BGCHANGES:;

//---------------dance-single - ----------------
#NOTES:
     dance-single:
     :
     Hard:
     9:
     0.647,0.683,0.307,0.119,0.109:
1000
0100
0010
0001
0010
0100
1000
0000
,
1001
0000
0000
0000
0010
0100
0010
0000
0010
0000
0001
0000
0010
0100
1000
0000
,
1001
0000
0010
0000
0100
0020
0000
0000
0130
0000
0001
0000
1000
0010
0000
0000
,
0100
0000
1000
0000
0100
0020
0000
0000
0031
0000
0010
0000
0100
1000
0000
0000
,
1100
0000
1100
0000
0010
0001
0000
0000
0001
0000
0010
0000
0100
0010
0000
0000
,
0001
0000
1000
0000
0010
0100
0000
0100
0010
0000
0100
0000
0001
1000
0000
0000
,
1000
0000
0101
0000
0001
0010
0100
0010
,
0100
0000
0100
0010
0000
1000
0001
1000
,
0010
0000
0010
1000
1000
0100
0010
0001
,
0010
0000
0100
0001
0000
0001
1000
0010
,
0100
0000
0010
0000
0011
0000
0010
0100
,
0010
0000
0100
1000
0000
1000
0100
0000
,
0011
0000
0010
0100
0000
0100
0010
0100
,
1100
0000
0100
0010
0000
0010
0100
0000
,
0010
1000
0010
0000
0100
0001
0100
0010
,
1000
0000
1000
0100
0000
0100
0010
0000
,
0110
0000
1000
0001
1000
0001
0100
0010
,
0100
0001
0000
0010
0000
0010
0100
1000
,
0001
0000
0010
0000
0110
0000
0100
1000
,
0100
0000
0100
0010
0000
0010
0001
0010
,
0100
0000
0100
0010
0000
0010
0001
1000
,
0010
0010
0100
0100
0010
0000
0110
0000
,
1001
0000
0010
0100
1000
0000
1000
0100
,
0010
0000
1000
0002
0000
0013
0100
1000
,
0200
0000
0310
0000
0010
0000
0100
0001
,
1000
0020
0000
0130
0000
0002
0000
0000
,
1003
1000
0110
0001
,
0110
0001
1001
0010
,
0100
0010
1000
0100
0001
0100
1000
0020
,
0000
0000
0000
0030
1000
0001
0100
0010
,
0100
0001
1000
1001
0000
0001
0010
0100
,
1000
0000
1000
1001
0000
0001
0010
0100
,
0010
0000
0010
0100
0000
0100
0010
1000
,
0001
1000
0010
0110
0000
0000
1001
0000
,
0100
0010
0001
0010
0100
0010
0100
0000
,
1000
0100
0010
0100
0010
1000
0001
0001
,
0010
0100
0010
0001
0000
1000
0000
0010
,
0000
0010
0100
0010
1000
0001
1000
0000
,
1000
0100
0010
1001
0000
0001
0010
0100
,
0010
1000
0001
1001
0000
0010
0010
0010
,
0110
0000
0100
0001
0000
0001
1000
0010
,
0100
0000
0100
0010
0000
0000
1001
0000
,
0011
0000
0001
0010
0000
0010
0100
0000
,
1000
0000
1000
0100
0000
0100
0010
1000
,
0001
0001
0010
0110
,
1000
0100
0200
0310
,
1000
0001
0100
0010
1000
0001
0100
0010
,
1000
0100
0010
0001
0001
0010
0100
1000
,
0100
0010
0100
0010
1000
0001
1000
0001
,
0010
0100
0010
0001
0000
0000
0001
0000
,
0011
0000
0010
0100
0010
0100
1000
0000
,
1000
0000
0100
0010
0100
0000
0010
1000
,
1001
0000
1000
0010
0000
0010
0100
0010
,
0000
0100
0001
1000
0000
1000
0100
0010
,
0001
0010
0100
1000
0100
0010
0001
0010
,
0100
0010
0100
0010
0001
1000
0001
1000
,
0100
1000
0001
0010
1000
0100
0001
0010
,
0100
0010
1000
0001
0000
0000
0110
0000
,
0100
0010
1000
0001
0000
0001
0010
0100
,
1000
0000
1000
0100
0000
0010
0100
0010
,
0100
0100
1001
0020
,
0000
0030
0100
0000
0110
0000
0010
0000
,
1001
0000
0100
0000
0010
0001
0000
0000
0001
0000
0010
0000
0100
2000
0000
0000
,
3100
0000
0010
0000
0100
0010
0000
0010
0100
0000
0010
0000
0001
0200
0000
0000
,
0310
0000
1000
0000
0001
0100
0000
0100
1000
0000
0100
0000
0010
0002
0000
0000
,
0013
0000
0010
0000
1000
0001
0000
0001
1000
0000
0100
0000
0010
0100
0000
0000
;

//---------------dance-single - ----------------
#NOTES:
     dance-single:
     :
     Medium:
     6:
     0.441,0.553,0.148,0.119,0.000:
0100
0010
0100
0010
0100
0001
1000
0000
,
0110
0000
0010
0010
0001
0010
0100
1000
,
0100
0000
0100
0000
0010
1000
0002
0000
,
0013
0000
0010
0000
0100
0001
2000
0000
,
3010
0000
0010
0000
1000
0001
0200
0000
,
0310
0010
0010
0000
0001
0001
0001
0000
,
0001
0010
0100
1000
,
0100
0000
0010
0100
0000
0100
0010
0000
,
1001
0100
1000
0100
,
0010
0000
0100
0001
0000
0001
0200
0000
,
0310
0001
0001
0010
,
0100
0010
1000
0100
,
0010
0010
0010
0110
,
0100
0100
0100
1001
,
0010
0000
0010
0001
,
0010
0100
0010
1000
,
0100
0000
0100
0010
,
1000
0100
0010
0001
,
0100
0010
0010
0001
,
1000
0000
0010
0100
0000
0000
0010
0000
,
0100
0001
0010
1000
,
0010
0010
0100
0100
,
0001
1000
0002
0003
,
0010
0100
1000
0100
,
0010
0002
0013
0000
,
0100
0100
0010
0010
,
1000
0001
1001
1000
,
0001
1000
1001
0000
,
0010
0100
0010
0100
0010
0000
0010
0200
,
0000
0000
0000
0310
,
1001
0000
0000
0110
0000
0000
0100
0000
,
0010
0000
1000
0001
0000
0001
1000
0000
,
0001
0000
0000
0010
0000
0000
0100
0000
,
1000
0000
0100
1000
0000
0000
1000
0000
,
0010
0100
0010
0001
,
1000
0000
0001
0000
1000
0000
0010
0100
,
0010
0000
0100
0001
0000
1000
0000
0001
,
0000
0100
0000
0010
0000
0010
0000
0000
,
0110
0000
0000
1001
0000
0000
0010
0000
,
0100
0000
0010
1000
0000
1000
0010
0000
,
0100
0000
0000
0001
0000
0000
0100
0000
,
0010
0000
0001
1000
0000
0000
0100
0000
,
0010
1000
0100
0010
,
0100
0000
0001
1000
0000
0000
0100
0000
,
0110
0110
0010
0001
,
1000
0000
0010
0000
0200
0000
0000
0300
,
0010
0100
0010
0100
,
0001
1000
0001
1000
,
0010
1000
0100
0001
,
1000
0010
0100
0001
,
0010
0000
0100
1000
0000
1000
0100
0000
,
0010
0000
0100
0001
0000
0000
0001
1000
,
0001
0000
0001
0010
0000
0100
0000
0010
,
0000
1000
0000
0010
0000
0020
0000
0030
,
0100
0010
0001
1000
,
0010
0000
0100
0000
0001
0000
1000
0001
,
1000
0100
0010
0100
,
0010
0000
1000
0001
0000
0000
0001
0000
,
0010
0000
0100
0010
0000
0010
0100
0000
,
0010
0000
0001
1000
0000
0000
0100
0000
,
0110
0110
0001
1000
,
0000
0010
0010
0100
,
0100
0010
1000
0100
0010
0001
0020
0000
,
0130
1000
0100
0001
1000
0100
0002
0000
,
0013
0100
0010
1000
0001
1000
0020
0000
,
0130
0100
0001
0001
1000
1000
0110
0000
;

//---------------dance-single - ----------------
#NOTES:
     dance-single:
     :
     Easy:
     4:
     0.338,0.455,0.158,0.020,0.000: // measure 1
1000
0100
0010
0001
,  // measure 2
0010
0010
0100
0100
,  // measure 3
1001
1001
0100
0100
,  // measure 4
1001
1001
0010
0010
,  // measure 5
0110
0110
1000
0001
,  // measure 6
0100
0100
0100
0010
,  // measure 7
0001
0000
0010
0000
,  // measure 8
0100
0010
1000
0001
,  // measure 9
0100
0000
1000
0000
,  // measure 10
0100
0010
0100
0001
,  // measure 11
0010
0010
0010
0000
,  // measure 12
0100
0010
1000
0001
,  // measure 13
0100
0000
0100
1000
,  // measure 14
0100
0000
0100
0010
,  // measure 15
0001
0000
0010
0000
,  // measure 16
1000
0001
0010
0001
,  // measure 17
1000
0000
0100
0000
,  // measure 18
1000
0100
0010
0100
,  // measure 19
0010
0001
0001
0000
,  // measure 20
0010
0100
0010
1000
,  // measure 21
0001
0000
0001
0010
,  // measure 22
0100
0000
0010
0010
,  // measure 23
1000
0100
0010
0000
,  // measure 24
0010
0100
0010
2000
,  // measure 25
0000
3100
0100
0000
,  // measure 26
0100
0010
0001
1000
,  // measure 27
0010
0000
0100
0000
,  // measure 28
0001
0000
1000
0000
,  // measure 29
0010
0010
0100
0001
,  // measure 30
2000
0000
3000
0000
,  // measure 31
1001
0000
1001
0000
,  // measure 32
1000
0001
0100
0010
,  // measure 33
1000
0000
0100
0000
,  // measure 34
0010
0010
0010
0001
,  // measure 35
0100
0010
1000
0100
,  // measure 36
0010
0100
0010
0001
,  // measure 37
0001
0000
0001
0010
,  // measure 38
0100
0010
1000
0000
,  // measure 39
0110
0000
0110
0000
,  // measure 40
0100
0001
1000
0010
,  // measure 41
0100
0000
0100
0000
,  // measure 42
0010
0010
0010
0000
,  // measure 43
0001
1000
0010
0100
,  // measure 44
0001
0001
0001
0010
,  // measure 45
0100
1000
0000
1000
,  // measure 46
0000
0100
0010
0100
,  // measure 47
0001
0010
0100
1000
,  // measure 48
1000
0100
0010
0001
,  // measure 49
0100
0010
1000
0001
,  // measure 50
0100
0010
0100
0001
,  // measure 51
1000
0000
1000
0100
,  // measure 52
0010
0010
0100
0010
,  // measure 53
0001
0000
0001
0010
,  // measure 54
0100
0010
0100
0010
,  // measure 55
1000
1000
0100
0100
,  // measure 56
0010
0010
0001
0001
,  // measure 57
0100
0010
0100
0001
,  // measure 58
1000
0001
0100
0000
,  // measure 59
0110
0000
1000
0001
,  // measure 60
0100
0100
0100
0010
,  // measure 61
1000
0001
0000
1001
,  // measure 62
0000
0100
0010
0100
,  // measure 63
0001
0010
0100
0100
,  // measure 64
0010
0100
1000
1000
,  // measure 65
0100
0010
1000
0001
,  // measure 66
1001
1001
0110
1001
;
