#TITLE:RUN2U;
#SUBTITLE:;
#ARTIST:STAYC;
#TITLETRANSLIT:;
#SUBTITLETRANSLIT:;
#ARTISTTRANSLIT:;
#CREDIT:;
#BANNER:RUN2U banner.png;
#BACKGROUND:RUN2U bg.png;
#LYRICSPATH:;
#CDTITLE:;
#MUSIC:RUN2U.mp3;
#OFFSET:-3.940;
#SAMPLESTART:62.340;
#SAMPLELENGTH:15.000;
#SELECTABLE:YES;
#BPMS:0.000=130.000;
#STOPS:160.000=0.900
;
#BGCHANGES:;

//---------------dance-single - ----------------
#NOTES:
     dance-single:
     :
     Hard:
     8:
     0.538,0.508,0.101,0.137,0.829:
0001
0000
0100
0000
0010
0000
1000
0000
0100
0000
0010
0000
,
0001
0000
1000
0000
0100
0000
0010
0000
0100
0000
1000
0000
,
0010
0000
0100
0000
0001
0000
1000
0000
0010
0000
0001
0000
,
0010
0000
0100
0000
0010
0000
1000
0001
1000
0010
0100
0010
,
1000
0000
0010
0000
0010
0000
0100
0000
1000
0000
1000
0000
,
0100
0000
0010
0000
0010
0000
0001
0000
0010
0000
0010
0000
,
0100
0000
1000
0000
0001
0000
1000
0000
0100
0000
0010
0000
,
0100
0000
0001
0000
1000
0000
0010
0100
0010
1000
0001
1000
,
0001
0000
0010
0100
0000
0100
1000
0000
1000
0010
0000
0200
,
0000
0000
0300
0010
0000
0000
0100
0000
1000
0001
0000
1000
,
0001
0000
0001
0010
0000
0010
0100
0000
0100
1000
0000
0002
,
0000
0000
0003
0010
0000
1000
0100
0000
0001
0100
0000
0010
,
0100
0000
1000
0010
0000
0001
1000
0000
1000
0001
0000
0010
,
0100
0000
0010
0100
0000
1000
0001
0000
1000
0001
0000
2000
,
0000
0000
0000
3100
0000
0000
0010
0000
0001
0100
0000
0000
,
0001
1000
0001
1000
0000
0100
0010
0100
0010
0100
0000
0000
,
0010
0000
0100
0010
0000
1000
0001
0000
0001
1000
0000
2000
,
0100
0000
3000
0100
0000
0000
0010
0000
1000
0100
0000
0001
,
0010
0000
0010
0001
0000
0100
1000
0000
1000
0100
0000
0020
,
0100
0000
0030
0100
0000
0001
0010
0000
0010
0100
0000
0100
,
1000
0000
1000
0100
0000
0100
0010
0000
0001
0010
0000
1000
,
0010
0000
0100
0010
0000
1000
0001
0000
0001
1000
0000
0100
,
0020
0000
0000
0130
0000
0000
0100
0000
0000
0001
0000
0020
,
0000
0030
0000
0100
0000
0000
1000
0000
0000
1000
0000
0000
,
0100
0010
0000
0000
0100
0000
0010
0000
0100
0000
0000
0000
0001
0000
0010
0000
,
0100
1000
0000
0000
0100
0000
0010
0000
0100
0000
0000
0000
0010
0000
0000
0000
,
0110
0000
0000
0100
0000
0000
0001
1000
0001
1000
0000
0000
,
0100
0000
0000
0010
0100
0010
0100
0000
0000
1001
0000
0000
,
0001
0000
0000
0010
0000
0000
0000
0000
0000
0000
0000
0000
0010
0000
0000
0000
0000
0000
0100
0000
0000
0000
0000
0000
0110
0000
0000
0000
0000
0000
0000
0000
0000
0000
0000
0000
1000
0000
0000
0000
0000
0000
0000
0000
0100
0000
0000
0000
,
0010
0000
0010
0100
0000
0001
0010
0000
0000
0200
0000
0000
,
0310
0000
0000
1000
0000
0000
0001
1000
0001
1000
0001
0100
,
0020
0000
0000
0000
0000
0000
0030
0000
0100
1000
0100
0010
,
0001
0000
0000
0000
0000
0000
0010
0000
0000
0001
1000
0000
0100
0000
0000
0000
0010
0000
0000
0000
0010
0000
0000
0000
,
0110
0000
0000
0000
0000
0000
0010
0000
0000
1000
0001
0000
0010
0000
0000
0000
0100
0000
0010
0000
0100
0000
1000
0000
,
0010
0000
0000
0000
0000
0000
0100
0000
0000
0010
0001
0000
1000
0000
0000
0000
0001
0000
0000
0000
0001
0000
0000
0000
,
0110
0000
0000
0000
0000
0000
0100
0000
0000
0010
0100
0000
0001
0000
0000
0000
1000
0000
0100
0000
0000
0000
0001
0000
,
0100
0000
0010
0100
0000
0001
0100
0000
0000
0100
0010
1000
,
0010
0000
0000
0020
0000
0000
0100
0000
0000
0130
0000
0001
,
0010
0000
1000
0010
0000
0001
1000
0000
1000
0001
0000
0100
,
0001
1000
0001
1000
0001
1000
0001
0000
0010
0100
0010
1000
,
0001
0110
1001
0010
,
0100
0000
0001
1000
0001
0100
0010
0100
0000
0001
0000
0001
,
1000
0100
1000
0100
0010
0100
0001
0000
0000
0001
0000
0010
,
0000
0000
0010
0100
0000
0100
0010
0000
1000
0001
0000
0001
,
1000
0000
0000
0100
0010
0001
0010
0000
0000
0020
0000
0000
,
0031
0000
0000
0001
0000
0010
0100
0000
0100
1000
0000
1000
,
0100
0000
0010
0100
0000
2002
0000
0003
0000
3000
0000
0000
,
0100
0000
0100
0010
1000
0010
0001
0000
0000
0001
0000
0010
,
0100
0010
0100
0001
1000
0001
1000
0000
0000
0100
0000
1000
,
0100
1000
0100
0010
0001
0010
0001
0000
0000
1000
0000
0010
,
0100
0010
0100
0001
1000
0001
1000
0100
0000
0010
0000
0000
,
0110
0000
0000
0001
0000
0001
0010
0000
0010
0100
0000
0100
,
1000
0000
0000
1000
0001
1000
0001
0000
0000
0120
0000
0000
,
0030
0000
0000
0100
0000
0001
1000
0000
1000
0001
0000
0001
,
0010
0000
0010
0100
0000
2000
0000
0000
0000
3100
0000
0000
,
0001
1000
1001
0000
;

//---------------dance-single - ----------------
#NOTES:
     dance-single:
     :
     Medium:
     5:
     0.335,0.356,0.183,0.110,0.055:
1100
0100
0110
0010
,
0011
0001
0011
0010
,
0110
0100
1100
0100
,
1100
0100
0100
0010
,
0001
1000
0001
0100
,
0010
0001
1000
0010
,
0100
0100
0010
0010
,
0100
0100
0100
0100
,
0002
0013
0100
1000
,
0200
0300
1000
0100
,
0010
0100
0010
0001
,
2000
3000
0100
0100
,
0010
0100
1000
0100
,
0010
0001
0100
0010
,
0001
0001
1000
1000
,
0100
0100
0010
0010
,
1000
0001
0100
0010
,
0200
0300
0010
0001
,
0100
0010
0001
0010
,
2000
3000
0100
0010
,
0100
0100
0010
0010
,
1000
1000
0001
0001
,
0010
0000
0100
0010
,
0100
0000
0001
1000
,
0001
0000
0010
0100
0010
0000
0100
0000
,
1000
0000
0100
0010
0100
0000
0010
0000
,
0001
0000
0000
0000
0000
0000
1000
0001
1000
0001
0000
0000
,
0000
0000
0000
0001
1000
0001
1000
0000
0000
1001
0000
0000
,
0010
0000
0100
0010
0100
0000
0001
0000
,
0010
0100
1000
0100
,
0010
0200
0000
0010
,
0320
0000
0000
0130
,
1001
0100
0010
0010
,
1001
0100
0010
0010
,
0011
0010
0100
0100
,
0011
0010
0100
0100
,
1000
0000
0000
0100
0000
0000
0010
0000
0000
0100
0001
0100
,
0001
0020
0030
0100
,
1000
0100
0010
0001
,
1001
0010
0100
0001
,
1001
0100
0110
0001
,
1000
0000
0000
0010
0100
0010
0100
0000
0000
1000
0000
0000
,
0100
0010
0001
0001
,
0010
0100
0010
1000
,
0001
0000
0000
0100
0010
0100
0010
0000
0000
2000
0000
0000
,
3100
0010
0100
0010
,
0100
0001
1001
1000
,
0100
0010
1001
0100
,
0010
0010
1001
0010
,
0100
0100
1001
0010
,
0100
0010
1000
0100
,
0002
0013
0100
0010
,
0001
0000
0000
1000
0100
1000
0100
0000
0000
0020
0000
0000
,
0130
0010
0001
1000
,
0010
0100
0020
0000
,
0030
0001
1001
0000
;

//---------------dance-single - ----------------
#NOTES:
     dance-single:
     :
     Easy:
     3:
     0.298,0.305,0.101,0.165,0.000: // measure 1
1000
1000
1000
0100
,  // measure 2
0010
0010
0010
0001
,  // measure 3
0010
0010
0010
0100
,  // measure 4
1000
1000
1000
0100
,  // measure 5
0010
1000
0001
0010
,  // measure 6
0100
0010
0001
0010
,  // measure 7
1000
0010
1000
0100
,  // measure 8
1000
0010
0010
0010
,  // measure 9
0100
0001
0010
0100
,  // measure 10
0020
0030
0100
0010
,  // measure 11
0100
1000
0100
0001
,  // measure 12
0200
0300
0010
0010
,  // measure 13
0001
0001
0010
0100
,  // measure 14
0010
0010
1000
0100
,  // measure 15
0020
0030
0100
0010
,  // measure 16
0001
0000
0010
0001
,  // measure 17
0010
0010
0100
1000
,  // measure 18
0200
0300
0010
1000
,  // measure 19
0010
0100
0010
0010
,  // measure 20
0002
0003
0200
0310
,  // measure 21
1000
0100
0010
0100
,  // measure 22
1000
0100
0010
0100
,  // measure 23
0002
0003
0010
0100
,  // measure 24
0010
0000
0010
0100
,  // measure 25
0010
0010
0010
1000
,  // measure 26
0100
0001
0001
0100
,  // measure 27
1000
0000
0110
0110
,  // measure 28
0000
1001
1001
0010
,  // measure 29
0001
0010
0100
0010
,  // measure 30
1000
0100
0010
0100
,  // measure 31
0010
0002
0000
1003
,  // measure 32
2000
0000
0000
3001
,  // measure 33
1001
0010
0100
0100
,  // measure 34
0110
1000
0001
0001
,  // measure 35
0110
0001
1000
1000
,  // measure 36
1001
0100
0010
0010
,  // measure 37
1000
0100
0010
0001
,  // measure 38
0010
0200
0300
0010
,  // measure 39
0001
0010
0100
0010
,  // measure 40
1000
0000
0100
0010
,  // measure 41
1001
0100
0110
0001
,  // measure 42
0010
0100
1000
1000
,  // measure 43
0100
0010
0200
0300
,  // measure 44
0020
0030
0100
0100
,  // measure 45
0001
1000
0010
0200
,  // measure 46
0300
0010
0001
0010
,  // measure 47
0100
0010
2000
3000
,  // measure 48
0100
0010
0100
0000
,  // measure 49
1000
1000
0200
0300
,  // measure 50
0010
0010
0002
0003
,  // measure 51
0001
0001
0010
0100
,  // measure 52
0010
0100
0001
1000
,  // measure 53
1000
0100
0010
0002
,  // measure 54
0003
0010
0100
0010
,  // measure 55
0100
1000
0020
0030
,  // measure 56
1000
0001
1001
0000
;
