#TITLE:REPLAY;
#SUBTITLE:;
#ARTIST:Lady Gaga;
#TITLETRANSLIT:;
#SUBTITLETRANSLIT:;
#ARTISTTRANSLIT:;
#CREDIT:;
#BANNER:REPLAY banner.png;
#BACKGROUND:REPLAY bg.png;
#LYRICSPATH:;
#CDTITLE:;
#MUSIC:REPLAY.mp3;
#OFFSET:-8.300;
#SAMPLESTART:88.320;
#SAMPLELENGTH:15.000;
#SELECTABLE:YES;
#BPMS:0.000=122.000;
#STOPS:;
#BGCHANGES:;

//---------------dance-single - ----------------
#NOTES:
     dance-single:
     :
     Hard:
     7:
     0.517,0.478,0.230,0.183,0.250:
1001
0000
0010
0100
0001
1000
0020
0000
,
0030
0000
0100
0010
0001
0010
0200
0000
,
0300
0000
0000
0000
0100
0000
0010
0000
0100
0000
1000
0000
0001
0000
1000
0010
,
0000
0100
0010
0001
0010
0100
0110
0000
,
0100
0000
0001
0010
0100
1000
0200
0000
,
0310
0000
1000
0100
0010
0001
0020
0000
,
0130
0000
0000
0000
0001
0000
0010
0000
1000
0000
0010
0000
0001
0000
0100
0010
,
0000
0100
0010
1000
0001
1000
0010
0000
,
0011
0000
0110
0000
1100
0000
0010
0100
,
0020
0000
0000
0130
0000
0000
0001
0000
2000
0000
0000
3010
0000
0000
0100
0000
,
0020
0000
0000
0130
0000
0000
1000
0000
0200
0000
0000
0000
0000
0000
0310
0000
,
0100
0000
0000
0011
0000
0000
0100
0000
0010
0000
0000
1100
0000
0000
0010
0000
,
0100
0000
0000
0010
0000
0000
0100
0000
0100
0000
0000
0010
0000
0000
0100
0000
,
2000
0000
0000
3100
0000
0000
0010
0000
0200
0000
0000
0310
0000
0000
0001
0000
,
0020
0000
0000
0031
0000
0000
0010
0000
0200
0000
0000
0000
0010
0000
0310
0000
,
0001
0000
0000
0110
0000
0000
1000
0000
0110
0000
0000
0001
0000
0000
0010
0000
,
0100
0000
0010
0100
0000
0000
0010
0000
0100
0000
0001
1000
0000
0000
0100
0000
,
0110
0000
0001
1000
0001
0000
0100
0000
0010
0000
1000
0020
0000
0000
0130
0000
,
0100
0000
0010
1000
0010
0000
0100
0000
0001
0000
1000
0000
0010
0000
0001
0000
,
0001
0000
0010
0100
0010
0000
1000
0000
0100
0000
0001
0200
0000
0000
0310
0000
,
1000
0000
0100
0010
0000
0000
0100
0000
0010
0000
1000
0001
0000
0000
0010
0000
,
0110
0000
1000
0001
1000
0000
0100
0000
0001
0000
0100
0020
0000
0000
0130
0000
,
0100
0000
0001
1000
0001
0000
0100
0000
0010
0000
1000
0000
1000
0000
0100
0000
,
0011
0000
0000
0100
0000
0000
0010
0000
1100
0000
0000
0010
0000
0000
0001
0000
,
0110
0000
0000
0100
0000
0000
0010
0000
1001
0000
0000
0001
0000
0000
0010
0000
,
0100
0010
0100
1000
,
0001
0000
1000
0100
0200
0000
0310
0001
,
0020
0130
0001
1000
,
0100
0010
0100
1000
,
0100
0000
0001
0010
0100
0010
0001
0010
,
1000
0010
0100
0010
0100
0001
1000
0000
,
1001
0000
0010
0010
0100
0010
1000
0001
,
1000
0100
0010
0001
0010
0100
1000
0000
,
1001
0000
0010
0010
0100
0100
0001
1000
,
0010
0002
0000
0010
0013
0100
0010
0000
,
0110
0000
0100
0010
1000
0100
0001
0100
,
1000
0200
0000
0310
0010
0001
0100
0000
,
0010
0000
0000
0100
0000
0000
0010
0000
1000
0000
0001
0000
1000
0000
0010
0000
,
0100
0000
0000
0001
0000
0000
0010
0000
0100
0000
1000
0000
0100
0000
0100
0000
,
0010
0000
0000
1000
0000
0000
0100
0000
0010
0000
0000
0100
0000
0000
0001
0000
,
0010
0000
0000
0100
0010
0000
0000
0100
0010
0000
0001
1000
0001
0000
0100
0000
,
0110
0000
0001
0010
0000
0010
0100
0000
0100
0000
1000
0010
0000
0010
0100
0000
,
0001
0000
1000
0010
0000
0010
0100
0000
1001
0000
0010
0100
0010
0000
1000
0000
,
0100
0000
0010
0100
0000
0000
0010
0000
0001
0000
0010
0100
0000
0000
1000
0000
,
0110
0000
0000
0100
0000
0000
0010
0000
0011
0000
0000
0010
0000
0000
0100
0000
,
0010
0000
1000
0001
1000
0000
0100
0000
0010
0000
0001
0010
0001
0000
0100
0000
,
0010
0000
1000
0100
1000
0000
0010
0000
0100
0000
1000
0001
1000
0000
0010
0000
,
0110
0000
0100
0001
0000
0000
0010
0000
0100
0000
0010
1000
0000
0000
0100
0000
,
0110
0000
0000
0010
0000
0000
0001
1000
0001
0000
0000
0010
0000
0000
0100
0000
,
0010
1000
0001
0100
0010
1000
0001
0100
,
0010
0001
0010
0200
0000
0310
0010
0100
,
0110
0001
1000
0001
0100
0010
0100
0010
,
1000
0000
0001
0000
1000
0000
0010
0000
0100
0000
0001
0000
1000
0010
1000
0010
,
0100
0010
1000
1000
0100
0001
0100
1000
,
0100
0010
0100
0002
0010
0013
0000
0010
,
0110
0000
1000
0001
1000
0000
0010
0000
0100
0000
0001
0010
0001
0000
0010
0000
,
0100
0000
0000
0110
0000
0000
1000
0000
0100
0000
0000
0011
0000
0000
0100
0000
,
2002
0000
0000
3003
0000
0000
0000
0000
;

//---------------dance-single - ----------------
#NOTES:
     dance-single:
     :
     Medium:
     6:
     0.393,0.362,0.079,0.056,0.000:
0100
0000
0010
0001
0010
0100
0010
0000
,
0100
0000
0010
1000
0100
0010
0100
0000
,
0010
0000
1000
0001
1000
0000
0100
0000
,
0010
0000
0001
0010
0100
0000
0110
0000
,
0010
0000
1000
0100
0001
0100
1000
0000
,
0010
0000
0100
0001
0010
1000
0010
0000
,
0100
0000
0010
1000
0100
0000
0100
0000
,
0010
0001
0010
0000
0100
1000
0100
0000
,
0010
0000
0010
0000
0010
0000
0100
0001
,
1000
0000
0010
0100
0001
0000
0010
0100
,
1000
0000
1000
0100
0010
0000
0100
0000
,
0010
0000
0001
0010
0100
0000
0100
0010
,
0001
1000
0001
0001
,
0110
0000
1000
0100
0010
0000
0010
0100
,
0010
0000
0001
1000
0010
0000
0010
0001
,
0100
0000
0100
0010
1000
0000
0100
0010
,
0100
0100
0001
1000
,
1001
0000
0010
0001
0100
0010
1000
0100
,
0100
0000
0010
0000
1000
0001
0100
0010
,
0100
0000
0001
0010
0100
0010
1000
0100
,
0010
0000
0100
0010
0001
0000
1000
0000
,
0010
0100
0010
1000
0100
0001
0100
0010
,
0100
0000
0010
1000
0100
0001
0100
0000
,
0110
0000
0100
0010
0100
0000
0001
0010
,
0001
0000
0010
0100
1000
0000
0100
0000
,
0020
0000
0030
0100
0010
0000
1000
0000
,
0200
0000
0300
0001
0010
0000
0100
0000
,
2000
0000
3000
0100
0010
0000
0100
0000
,
0002
0000
0003
0100
0001
0000
0010
0000
,
0100
0000
0010
1000
0100
0000
0010
0100
,
0001
0000
0001
0001
0001
0000
0010
0000
,
0100
0000
0010
1000
0100
0000
0100
1000
,
0010
0000
0100
0010
0100
0000
0110
0000
,
0001
0000
1000
0100
0001
0000
0001
0100
,
1000
0000
0010
0100
0010
1000
0001
0000
,
0010
0000
0100
0010
0001
0000
0001
0010
,
0100
0000
0010
1000
0001
0010
0001
0000
,
0010
0000
0100
1000
0100
0010
0100
0000
,
0100
0000
1000
0001
0100
0010
0001
0000
,
0010
0000
0100
1000
0100
0000
0110
0000
,
0010
1000
0001
0100
0010
0000
0010
0010
,
0110
0000
0100
0001
1000
0100
0010
0100
,
0001
0000
0001
0010
0100
0010
0100
1000
,
0100
0000
0010
0100
0010
1000
0100
0001
,
0100
0000
0100
0010
0001
0010
0100
0000
,
0110
0000
0001
0010
0100
1000
0100
0010
,
0001
0000
0100
0010
0100
1000
0100
0010
,
0100
0000
0010
1000
0010
0001
0100
0010
,
0001
0000
0001
0000
0010
0000
0010
0100
,
0010
0000
0100
0010
1000
0010
0001
0000
,
0001
0010
0100
2000
0000
3000
0100
0000
,
0110
0000
0100
1000
0100
0000
0010
0000
,
0100
0010
1000
0020
0000
0130
0001
0001
,
0100
0000
0010
0001
1000
0010
0001
0000
,
0001
0100
0010
2000
0000
3100
0000
0010
,
0100
0000
0100
0010
1000
0000
0001
1000
,
0010
0000
0010
0001
1000
0000
0001
0000
,
1001
0000
0000
0000
;

//---------------dance-single - ----------------
#NOTES:
     dance-single:
     :
     Easy:
     3:
     0.259,0.226,0.032,0.151,0.000: // measure 1
0000
0100
0100
0020
,  // measure 2
0030
0001
0001
0020
,  // measure 3
0030
0100
1000
0100
,  // measure 4
0010
0010
0100
0100
,  // measure 5
0000
0001
0100
0020
,  // measure 6
0030
0001
0010
2000
,  // measure 7
3000
0100
0010
0100
,  // measure 8
0001
0001
1000
1000
,  // measure 9
0010
0010
0010
0100
,  // measure 10
0010
0010
1000
1000
,  // measure 11
0100
0001
0200
0300
,  // measure 12
0010
0001
0010
0100
,  // measure 13
0020
0030
2000
3000
,  // measure 14
0100
0010
1000
0100
,  // measure 15
0010
0010
0200
0300
,  // measure 16
0010
1000
0100
0001
,  // measure 17
0100
0010
1000
0001
,  // measure 18
1001
0100
0010
0001
,  // measure 19
0010
0100
0010
1000
,  // measure 20
0100
0001
0100
1000
,  // measure 21
0100
0010
1000
0001
,  // measure 22
1001
0010
0001
0100
,  // measure 23
0010
1000
0010
0001
,  // measure 24
0100
0100
0010
0010
,  // measure 25
0100
1000
0100
0001
,  // measure 26
0020
0030
0100
0000
,  // measure 27
0020
0030
0001
0000
,  // measure 28
0200
0300
1000
0000
,  // measure 29
0200
0300
0010
0000
,  // measure 30
0100
0010
0100
0010
,  // measure 31
0001
0010
0100
2000
,  // measure 32
3000
0100
0010
1000
,  // measure 33
0100
0001
0100
0020
,  // measure 34
0030
0100
0100
0001
,  // measure 35
0002
0003
0010
0100
,  // measure 36
0010
1000
0100
0010
,  // measure 37
0200
0300
0010
0010
,  // measure 38
1000
0100
0001
0001
,  // measure 39
0010
0100
0010
0010
,  // measure 40
1000
0001
1000
1000
,  // measure 41
0100
0010
0100
0010
,  // measure 42
1001
0100
0010
0001
,  // measure 43
1000
0100
0001
0100
,  // measure 44
1000
1000
0100
0100
,  // measure 45
0010
0010
0001
0001
,  // measure 46
0100
0010
0001
1000
,  // measure 47
0100
0010
0100
0010
,  // measure 48
0100
0100
0001
0001
,  // measure 49
1000
1000
0010
0010
,  // measure 50
0100
0001
1000
0001
,  // measure 51
0010
0001
0020
0030
,  // measure 52
0100
0010
0100
0001
,  // measure 53
1000
0010
0200
0310
,  // measure 54
0010
0001
1000
0001
,  // measure 55
0010
0100
0020
0030
,  // measure 56
0100
0100
0010
0010
,  // measure 57
0100
0100
0001
1000
,  // measure 58
1001
0000
0000
0000
;
