#TITLE:Missing You;
#SUBTITLE:;
#ARTIST:E-ROTIC;
#TITLETRANSLIT:;
#SUBTITLETRANSLIT:;
#ARTISTTRANSLIT:;
#CREDIT:;
#BANNER:Missing You banner.png;
#BACKGROUND:Missing You bg.png;
#LYRICSPATH:;
#CDTITLE:;
#MUSIC:Missing You.mp3;
#OFFSET:-8.360;
#SAMPLESTART:63.200;
#SAMPLELENGTH:15.000;
#SELECTABLE:YES;
#BPMS:0.000=140.000;
#STOPS:;
#BGCHANGES:;

//---------------dance-single - ----------------
#NOTES:
     dance-single:
     :
     Hard:
     7:
     0.430,0.447,0.071,0.053,0.000:
0010
0100
0001
1000
,
0010
0100
0001
1000
,
0002
0003
0010
0100
,
0010
0010
1000
0001
,
0100
0000
0010
0100
0010
0000
0100
0000
,
0001
0000
1000
0001
1000
0000
0010
0000
,
0100
0000
1000
0100
0010
0001
0000
1000
,
1001
0000
0000
0001
0000
0000
0010
0100
,
0010
0000
0001
1000
0001
0100
0010
1000
,
0010
0000
0010
0100
1000
0100
0010
0001
,
0010
0000
0100
0010
0001
0010
0100
0010
,
1000
0000
0001
0010
0100
0010
0100
0010
,
1000
0000
0100
0010
0001
0000
0001
0010
,
0100
0000
0100
0010
0100
0000
0001
0000
,
2000
0000
3100
0100
,
0010
0000
0010
0000
1000
0000
0001
1000
,
1001
0000
0000
0100
0000
0000
0010
0000
,
0100
0001
0100
0001
0000
0000
0001
0010
,
0000
0100
0000
1000
0000
0000
0100
0010
,
1000
0001
0100
0010
0000
0000
0010
0100
,
0000
0100
0010
0100
0000
0000
0100
0001
,
0000
1000
0000
0010
0000
0100
0000
0001
,
0010
0001
0000
0001
0000
0010
0100
1000
,
0000
1000
0000
0000
0010
0000
0210
0000
,
0000
0000
0310
0000
0001
0000
1000
0100
,
1000
0100
0010
0100
0000
0010
0000
0100
,
0000
0001
0000
1000
0000
0000
0010
0001
,
0100
0010
1000
0100
0000
0100
0010
0001
,
0000
0010
0000
0100
0000
0000
0001
1000
,
0000
0010
0000
0100
0000
0010
0000
1000
,
0001
1000
0000
0100
0000
0010
0100
0010
,
0000
0001
0000
1000
0000
0001
0000
0000
,
1000
0001
1000
0001
0000
0100
0000
0010
,
0100
0010
1000
0001
0100
0010
1000
0001
,
0100
0010
0001
0010
0100
1000
0100
0010
,
0000
0100
0000
0001
0000
0010
0100
0100
,
1000
0100
0010
0001
0000
1000
0000
0010
,
0100
0001
1000
0100
0010
0001
0010
0100
,
1000
0010
0100
0001
1000
0010
0100
0001
,
0000
0010
0000
0100
0000
1000
0010
0010
,
0100
0010
0001
0010
0000
0010
1000
0001
,
0110
0100
0010
1000
0100
0010
0001
0100
,
0010
1000
0001
0010
0001
0010
0100
0010
,
0000
1000
0000
0001
0000
0100
0000
0010
,
0100
0010
1000
0001
0000
0010
0100
0010
,
1000
0100
0010
0001
0010
0100
1000
0100
,
0100
0010
0100
0010
0001
0000
0010
0000
,
0200
0010
0310
0010
,
0002
0000
1000
0000
1003
0000
1000
0100
,
0010
0000
0100
0001
1000
0010
0001
0100
,
0010
0000
0010
0001
0010
0100
0010
1000
,
0100
0000
0100
0010
1000
0100
0010
0001
,
0010
0000
0010
0100
0010
1000
0001
0100
,
0010
0010
0001
0010
0100
0000
0110
0000
,
0010
1000
0100
0010
0001
0000
1001
0000
,
0100
0100
1000
0100
0010
0000
0110
0000
,
0010
0000
0100
0001
0000
1000
0000
0010
,
0200
0000
0010
0000
,
0301
0000
1000
0000
,
1001
0000
0000
0000
;

//---------------dance-single - ----------------
#NOTES:
     dance-single:
     :
     Medium:
     5:
     0.331,0.316,0.080,0.062,0.000:
1000
0000
1000
0100
,
0010
0000
0010
0100
,
0010
0000
0001
1000
,
0001
0000
0001
0001
,
0010
0000
0000
0100
0010
0000
1000
0000
,
0001
0000
0000
0001
0010
0000
0100
0000
,
0010
0000
0000
0100
0010
0000
0100
0000
,
0110
0000
0000
0010
0000
0000
0100
0000
,
0001
0000
1000
0000
0010
0000
0100
0010
,
0100
0000
1000
0000
0100
0000
0010
0001
,
0010
0000
0001
0000
0100
0000
0010
1000
,
0010
0000
0100
0000
0001
0000
1000
0001
,
2000
0000
0100
3100
,
0020
0000
0100
0130
,
1002
0000
0000
0003
,
0010
0100
0010
1000
,
1001
0000
0000
1000
0000
0000
0001
0000
,
0010
0000
0100
0010
0000
0000
0010
0100
,
0000
1000
0000
0001
0000
0000
0001
0000
,
0010
0000
0100
0010
0000
0000
0100
0010
,
0000
0000
0010
0001
0000
0000
0001
0010
,
0000
0100
0000
0000
0010
0000
0100
0000
,
0010
1000
0000
0100
0000
0010
0001
0010
,
0000
0100
0000
0000
0010
0000
0210
0000
,
0000
0310
1000
1000
,
0110
0000
0001
1000
0000
0010
0000
0001
,
0000
0100
0000
0010
0000
0000
0010
0000
,
0100
0000
0010
1000
0000
0000
1000
0000
,
0100
0000
0010
0001
0000
0000
0001
0010
,
0000
0100
0000
0000
0010
0000
0100
0000
,
0010
1000
0000
0001
0000
1000
0001
1000
,
0000
0001
0000
0000
0001
0000
0010
0100
,
0110
0000
0000
0010
0000
0000
0100
0000
,
0010
0000
1000
0000
0001
0000
0100
0010
,
0100
0000
0010
0001
0010
0000
0100
0000
,
0010
0010
0100
0001
,
1000
0000
0001
0010
0000
0100
0000
0010
,
1000
0000
0100
0000
0010
0000
0100
0010
,
0100
0000
1000
0001
1000
0000
0001
0010
,
0001
0010
0100
1000
,
0010
0000
0010
0100
0000
0000
0100
0010
,
0100
0000
0010
0000
0001
0000
1000
0010
,
1000
0000
0100
0000
0010
0000
0001
0100
,
0000
0010
0000
1000
0000
0010
0000
0000
,
0110
0000
0100
0010
0000
1000
0000
0001
,
0100
0000
0001
0000
1000
0000
0010
0100
,
0010
0000
1000
0001
1000
0000
0100
0000
,
0020
0000
0100
0130
,
0001
0000
1000
0000
0010
0000
0100
0100
,
0100
0000
0010
0000
0001
0000
0010
0010
,
0010
0000
0100
0000
0001
0000
1000
1000
,
1000
0000
0100
0000
0010
0000
0001
0001
,
0001
0000
0100
0000
0010
0000
1000
0001
,
1000
0000
0100
0000
0010
0000
0100
0001
,
0100
0000
0010
1000
0010
0000
0100
0000
,
0010
0010
0100
0001
,
2000
3000
0010
0100
0000
0001
0000
2001
,
0000
0000
3010
0000
,
0001
0000
1000
0000
,
1001
0000
0000
0000
;

//---------------dance-single - ----------------
#NOTES:
     dance-single:
     :
     Easy:
     2:
     0.253,0.263,0.080,0.053,0.000: // measure 1
0010
0000
0010
0000
,  // measure 2
0100
0000
0100
0000
,  // measure 3
0001
0000
0001
0000
,  // measure 4
1000
0000
1000
0000
,  // measure 5
0100
0000
0010
0000
,  // measure 6
0100
0000
0001
0000
,  // measure 7
1000
0000
0001
0000
,  // measure 8
0110
0000
0000
0001
,  // measure 9
1001
0100
0010
0100
,  // measure 10
0010
0000
0100
0001
,  // measure 11
0100
0000
0010
1000
,  // measure 12
0010
0100
0001
0010
,  // measure 13
1000
0000
1000
0100
,  // measure 14
0010
0000
0010
0001
,  // measure 15
0010
0000
0010
0000
,  // measure 16
0100
0000
0100
0000
,  // measure 17
0110
0000
0000
0100
,  // measure 18
0010
1000
0010
0000
,  // measure 19
0100
0001
0100
0000
,  // measure 20
0001
0010
0001
0000
,  // measure 21
0100
1000
0100
0000
,  // measure 22
0010
0010
0010
0000
,  // measure 23
0100
0100
0100
0000
,  // measure 24
0001
0001
0001
0000
,  // measure 25
2000
3000
0100
0000
,  // measure 26
0010
0100
0010
1000
,  // measure 27
0001
0001
0010
0000
,  // measure 28
0010
0100
0010
1000
,  // measure 29
0100
0100
0001
0000
,  // measure 30
0100
0010
1000
0001
,  // measure 31
0100
0010
1000
0001
,  // measure 32
0010
0010
0100
0100
,  // measure 33
0110
0000
1000
0001
,  // measure 34
1001
0000
0010
0100
,  // measure 35
0010
0010
0100
0100
,  // measure 36
0001
1000
0000
1000
,  // measure 37
0100
0010
0001
0001
,  // measure 38
0110
0000
0100
0010
,  // measure 39
0100
0100
0010
0010
,  // measure 40
1000
0001
0000
0001
,  // measure 41
0010
0100
0010
0001
,  // measure 42
0010
0010
0100
0100
,  // measure 43
1000
0010
0100
0010
,  // measure 44
1000
1000
0001
0001
,  // measure 45
0100
0010
0100
0010
,  // measure 46
1001
0000
0010
0100
,  // measure 47
0020
0030
0100
0001
,  // measure 48
0200
0000
0300
0100
,  // measure 49
0100
0010
1000
0001
,  // measure 50
0100
0100
0010
0010
,  // measure 51
1000
0001
1000
0100
,  // measure 52
0020
0030
0100
0100
,  // measure 53
0010
0001
0010
0100
,  // measure 54
0010
1000
0010
0001
,  // measure 55
0100
0001
0010
0010
,  // measure 56
2000
3000
0100
0010
,  // measure 57
0100
0001
1000
0010
,  // measure 58
0210
0000
0000
0300
,  // measure 59
1000
0000
0001
0000
,  // measure 60
1001
0000
0000
0000
;
