#TITLE:Love In Space;
#SUBTITLE:;
#ARTIST:Cherry Bullet;
#TITLETRANSLIT:;
#SUBTITLETRANSLIT:;
#ARTISTTRANSLIT:;
#CREDIT:;
#BANNER:Love In Space banner.png;
#BACKGROUND:Love In Space bg.png;
#LYRICSPATH:;
#CDTITLE:;
#MUSIC:Love In Space.mp3;
#OFFSET:-12.600;
#SAMPLESTART:60.620;
#SAMPLELENGTH:15.000;
#SELECTABLE:YES;
#BPMS:0.000=156.000;
#STOPS:;
#BGCHANGES:;

//---------------dance-single - ----------------
#NOTES:
     dance-single:
     :
     Hard:
     8:
     0.597,0.573,0.330,0.198,0.099:
0010
0101
0000
1010
0000
0110
0000
1001
,
0000
0010
0000
0100
0000
0010
1000
0001
,
0100
0010
0000
0110
0000
1100
0000
0110
,
0000
0001
1000
0001
0100
0010
1000
0002
,
0000
0013
0100
2000
0000
3100
0010
0200
,
0000
0310
0000
1000
0001
0100
0010
2000
,
0000
3100
0010
0002
0000
0003
0110
0000
,
1000
0000
0001
0000
0100
0000
0010
0001
,
0101
0000
0000
0000
0010
0100
1000
0100
0010
0000
0100
0000
0001
0000
1000
0000
,
0010
0000
0000
0000
0100
0010
1000
0001
0100
0000
0010
0000
1000
0000
0001
0000
,
0001
0000
0000
0000
1000
0100
0010
0100
1000
0000
0100
0000
0001
0000
1000
0000
,
0010
0100
0010
0100
1000
0100
0000
0001
,
1001
0000
0000
0000
0100
0010
0100
0010
0001
0000
0010
0000
1000
0000
0100
0000
,
0010
0100
0001
1000
0010
0100
0010
0001
,
0000
2000
0002
0000
3003
0000
0010
0100
,
0010
1000
0001
0100
0010
1000
0001
0100
,
0110
0000
0000
0000
0001
1000
0010
0001
0100
0000
0010
0000
0100
0000
0010
0000
,
1000
0000
0100
0001
0100
0000
0010
0000
1000
0000
0100
0000
0001
0000
0100
0000
,
1100
0000
0000
0000
0010
0000
0100
0010
0100
0000
0010
0000
0001
0000
0010
0000
,
0100
0010
1000
0100
0010
0100
0010
0001
,
1001
0000
0000
0000
0010
0100
0010
1000
0001
0000
0100
0000
0010
0000
1000
0000
,
0100
0010
0001
0100
0010
1000
0100
0010
,
0000
0200
0020
0000
0330
0000
1000
0000
,
0001
0010
0010
0010
0100
1000
0100
0000
,
1001
0001
0000
0010
0000
0100
0000
1000
,
0000
0100
0000
0010
0000
0001
1000
0001
,
0000
0010
0100
0010
1000
0100
0001
0100
,
0020
0000
0000
0000
0130
0000
0001
1000
0002
0000
0000
0000
0003
0000
0000
0000
,
0110
0100
0000
1000
0000
0110
0000
0001
,
0000
0010
0000
0001
0000
0100
0010
0100
,
0000
0001
1000
0010
0001
1000
0010
0001
,
0001
0010
0000
0000
0100
0000
0010
1000
0000
0000
0100
0010
0100
0000
0010
0000
,
0001
1000
0010
0200
0000
0310
0010
0001
,
0010
0100
0010
0001
1000
0100
0010
0100
,
1000
0100
0010
0002
0000
0013
0010
0100
,
0010
0001
1000
0010
0100
0010
0000
0110
,
0000
1000
0001
1001
0000
0001
0010
0110
,
0000
0010
0000
1000
0001
0100
0010
1100
,
0000
0100
0010
1001
0000
0010
0100
0000
,
0100
0010
0010
0010
0100
0001
1000
0000
,
1001
0001
0010
0200
0300
1000
0001
2000
,
3000
0010
0100
0010
0001
1000
1010
0000
,
0100
0001
0100
0020
0030
0100
0010
0002
,
0003
0010
0100
0010
1000
0001
0010
0110
,
0000
0100
0010
0011
0000
0001
0010
1100
,
0000
0100
0010
1000
0001
0100
0100
0110
,
0000
1000
0010
1001
0000
0010
0001
1000
,
1000
0100
0010
0001
0010
0100
1000
0000
,
0100
0010
0011
0010
0100
1000
0100
2001
,
0000
0001
0000
0001
0000
3001
0000
0000
;

//---------------dance-single - ----------------
#NOTES:
     dance-single:
     :
     Medium:
     6:
     0.426,0.382,0.253,0.198,0.000:
1000
0100
0000
0001
0000
1000
0000
1001
,
0000
0001
0000
0010
0000
0100
0010
0100
,
0000
0001
0000
0010
0000
0100
0000
1001
,
0000
0100
0000
0010
1000
0010
0000
0210
,
0000
0300
0000
1002
0000
0003
0000
0120
,
0000
0030
0000
0100
0001
1000
0000
0210
,
0000
0300
0000
0012
0000
0003
0000
0010
,
0100
1000
0001
0100
,
0110
0000
1000
0100
1000
0000
0100
0000
,
0001
0000
0010
0001
0010
0000
0100
0000
,
0010
0000
0001
1000
0001
0000
0100
0000
,
0010
0000
1000
0100
1000
0000
0010
0000
,
0110
0000
1000
0001
1000
0000
0100
0010
,
0100
0000
0001
0010
0001
0000
0001
0010
,
0000
0010
0200
0000
0010
0000
0010
0000
,
0310
0000
1000
1001
,
0001
0000
0010
0000
0100
0000
0010
1000
,
0001
0000
0100
0000
0001
0000
1000
0001
,
1000
0000
0100
0000
0010
0000
1000
0001
,
0100
0000
0010
0000
0100
0010
0100
0000
,
1010
0100
0001
0010
,
0001
0000
0010
0100
0010
0000
0010
0001
,
0000
1000
0020
0000
0100
0000
0130
0000
,
0000
0010
0010
0010
0010
0100
0010
0000
,
0000
0001
0000
0100
0000
0010
0000
1000
,
0000
0001
0000
0100
0000
0010
0100
0010
,
0000
1000
0001
0000
0010
0000
0100
0000
,
2000
3000
0002
0003
,
0000
0100
0000
0010
0000
1000
0000
0001
,
0000
0010
0000
0001
0000
0010
0100
1000
,
0000
1000
0100
0000
0010
0100
0010
0100
,
0001
0000
0000
0110
0000
1000
0001
0000
,
1001
0000
0010
0200
0000
0300
0010
0000
,
0001
0010
0100
1000
0100
0000
0010
0000
,
1000
0000
0100
0020
0000
0030
0100
0000
,
0001
1000
0001
0000
0010
0100
0000
0101
,
0000
0010
0000
1010
0000
0100
0000
0110
,
0000
0010
0000
1000
0001
1000
0000
0011
,
0000
0010
0000
0110
0000
1000
0000
0100
,
0000
0010
0100
0010
0100
0000
0001
0000
,
1000
0020
0030
0200
0300
0002
0003
0010
,
0000
0100
0010
0100
0001
0000
1000
0000
,
0010
0200
0300
0020
0030
2000
3000
0100
,
0000
0001
0100
0000
0100
0010
0000
1001
,
0000
0010
0000
0011
0000
0010
0000
0110
,
0000
0100
0000
1000
0100
1000
0000
0110
,
0000
0010
0000
0011
0000
0100
0000
0010
,
0000
1000
0001
1000
0010
0010
0010
0000
,
0100
0010
0100
0000
0001
0000
1000
0020
,
0000
0100
0000
0100
0000
0130
0000
0000
;

//---------------dance-single - ----------------
#NOTES:
     dance-single:
     :
     Easy:
     3:
     0.316,0.299,0.066,0.209,0.000: // measure 1
1000
0100
0010
0001
,  // measure 2
0010
0100
0010
0001
,  // measure 3
0010
0100
1000
0100
,  // measure 4
0010
0100
0001
1000
,  // measure 5
0020
0030
0200
0300
,  // measure 6
0020
0030
1000
0001
,  // measure 7
2000
3000
0200
0300
,  // measure 8
0010
0100
0001
1000
,  // measure 9
0010
0100
0100
0100
,  // measure 10
0010
0001
0001
0001
,  // measure 11
0010
1000
1000
1000
,  // measure 12
0100
0010
1000
0001
,  // measure 13
0100
0010
0010
0010
,  // measure 14
0100
1000
1000
1000
,  // measure 15
0100
0020
0030
0000
,  // measure 16
0100
0001
1000
0010
,  // measure 17
0100
0001
1000
1000
,  // measure 18
0100
0010
0001
0001
,  // measure 19
0010
0100
0001
0001
,  // measure 20
0100
0010
1000
1000
,  // measure 21
0100
0010
0100
0001
,  // measure 22
1000
0010
0001
0100
,  // measure 23
0010
0200
0300
0010
,  // measure 24
0100
0001
0001
0001
,  // measure 25
1000
0100
0010
0001
,  // measure 26
0010
0100
1000
0100
,  // measure 27
0010
0100
0100
0001
,  // measure 28
2000
3000
0002
0003
,  // measure 29
0100
0010
0100
0010
,  // measure 30
1000
0001
1000
0001
,  // measure 31
0010
0100
0010
0001
,  // measure 32
1001
0000
0100
0010
,  // measure 33
1001
0000
0010
0000
,  // measure 34
0100
0001
0010
1000
,  // measure 35
0110
0000
1000
0000
,  // measure 36
0100
0010
0100
0001
,  // measure 37
0020
0030
0200
0300
,  // measure 38
2000
3000
0100
0010
,  // measure 39
0200
0300
0020
0030
,  // measure 40
0001
1000
0100
0100
,  // measure 41
1001
0100
0001
1000
,  // measure 42
0010
0001
0100
1000
,  // measure 43
0110
0010
0100
0001
,  // measure 44
1000
0010
0001
0100
,  // measure 45
2000
3100
0200
0310
,  // measure 46
0002
0003
0010
0100
,  // measure 47
0010
0100
0010
0001
,  // measure 48
1000
0100
0100
0100
,  // measure 49
0010
0100
0001
1000
,  // measure 50
2002
0000
3003
0000
;
