#TITLE:Like It;
#SUBTITLE:;
#ARTIST:JEONYOUL;
#TITLETRANSLIT:;
#SUBTITLETRANSLIT:;
#ARTISTTRANSLIT:;
#CREDIT:;
#BANNER:Like It banner.png;
#BACKGROUND:Like It bg.png;
#LYRICSPATH:;
#CDTITLE:;
#MUSIC:Like It.mp3;
#OFFSET:-10.100;
#SAMPLESTART:48.520;
#SAMPLELENGTH:15.000;
#SELECTABLE:YES;
#BPMS:0.000=98.000;
#STOPS:;
#BGCHANGES:;

//---------------dance-single - ----------------
#NOTES:
     dance-single:
     :
     Hard:
     8:
     0.447,0.367,0.167,0.056,0.667:
0010
0100
0010
0000
0100
0000
1000
0000
0001
0010
0001
0000
0010
0000
0100
0010
,
0100
0000
0010
1000
0000
0001
0000
0100
0000
0000
0000
0010
0000
0100
0010
1000
,
0100
0000
0010
0001
0000
0001
0000
0010
0000
0000
0000
0000
0100
0000
0010
0000
,
1000
0000
0100
0001
0000
0010
0000
0200
0000
0000
0000
0000
1300
0000
0010
0000
,
0100
0010
0100
0000
1000
0000
0100
0000
0001
0010
0001
0000
0100
0000
0010
0100
,
0010
0000
0001
1000
0000
0100
0000
0010
0000
0000
0100
0010
0000
0100
0001
0010
,
1000
0000
0001
0010
0000
0100
0000
0010
0000
0000
0010
0100
0000
0010
0000
1000
,
0000
0000
1000
0100
0000
0010
0000
0100
0000
0000
0001
0000
0010
0000
0100
0000
,
1000
0000
0001
0010
0000
0010
0000
0000
0110
0000
1000
0010
0000
0100
0010
0001
,
0010
0000
0000
0100
0000
0100
0000
0010
1000
0000
0000
0100
0000
0100
0000
0000
,
0001
0000
0010
1000
0000
0100
0000
0010
0000
0001
0000
0000
0110
0000
0000
0010
,
0100
0000
0001
0010
0000
1000
0000
0010
0000
0200
0000
0000
0310
0000
0000
0000
,
0100
0000
0010
1000
0000
0001
0000
0001
0010
0000
0010
0100
0000
1000
0100
0010
,
0001
0000
0000
0010
0000
0010
0000
0100
0010
0000
0000
0100
0000
0100
0000
0000
,
0010
0000
1000
0001
0000
0010
0000
0001
0000
0100
0000
0000
0100
0010
1000
0001
,
0100
0000
0010
1000
0000
0100
0000
0010
0000
0000
0000
1000
0000
0001
1000
0000
,
1001
0000
1001
0000
0100
0000
0010
0000
0100
0000
0001
0010
0000
0010
0001
0000
,
1001
0000
0100
0000
0020
0000
0000
0100
0030
0000
0000
0100
0000
0010
0100
0000
,
1001
0000
1001
0000
0010
0000
0100
0000
0010
0000
0100
1000
0000
0100
0000
0010
,
0001
0000
0100
0000
0010
0000
1000
0100
1000
0000
0000
0100
0000
0010
0001
0000
,
0110
0000
0110
0000
0001
0000
1000
0000
0001
0000
0010
0100
0000
0100
0010
0000
,
0100
0000
0001
0000
2000
0000
0000
0010
3000
0000
0100
0010
0000
0010
0100
0000
,
0110
0000
1001
0000
0010
0000
0100
0000
0010
0000
0001
1000
0000
0100
0000
0010
,
0100
0000
0010
0000
1000
0000
0001
0100
0000
0010
0000
1000
0001
0000
0010
0000
,
0110
0000
0000
0000
;

//---------------dance-single - ----------------
#NOTES:
     dance-single:
     :
     Medium:
     5:
     0.322,0.284,0.069,0.083,0.000:
1000
0100
0000
0010
0100
0010
0000
0001
,
0010
0100
0010
1000
0100
0000
0010
0010
,
0010
0100
0010
0001
0010
0000
1000
0010
,
0100
0000
0100
0010
0001
0000
0010
0000
,
0100
0100
0010
1000
1000
0100
0000
0100
,
0010
1000
0001
0100
0010
0000
0001
0001
,
0001
0010
0100
1000
0100
0000
0010
0100
,
0010
0000
1000
0001
1000
0000
0100
0000
,
0020
0000
0130
0001
0200
0000
0310
1000
,
0010
0000
0100
0010
1000
0001
0010
0000
,
0200
0000
0310
0100
0010
0001
0000
0001
,
0010
0000
0010
0100
1000
0200
0000
0300
,
0010
0000
1000
0010
0001
0000
0001
0010
,
2000
0000
3100
0010
0100
0000
0010
0010
,
0001
0100
0010
1000
0100
0000
0010
0100
,
0100
0000
0010
1000
0001
0000
0010
0100
,
0110
0010
0000
0100
0000
0010
1000
0100
,
0010
0001
0010
0000
0100
0000
1000
0001
,
1001
1000
0000
0100
0000
0010
0100
0010
,
0001
1000
0001
0010
0010
0000
0100
0010
,
0011
0010
0100
1000
0000
0100
1000
0100
,
0010
0010
0200
0000
0310
1000
1000
0100
,
0010
0001
0000
0001
0000
0010
0100
0010
,
1000
0001
0100
0000
0010
0100
0110
0000
,
1001
0000
0000
0000
;

//---------------dance-single - ----------------
#NOTES:
     dance-single:
     :
     Easy:
     3:
     0.197,0.183,0.069,0.083,0.000: // measure 1
1000
1000
0100
0100
,  // measure 2
0010
0010
0001
0001
,  // measure 3
0010
0100
0010
0000
,  // measure 4
0010
0100
0010
0000
,  // measure 5
0001
0001
0010
0010
,  // measure 6
0100
0100
1000
1000
,  // measure 7
0100
0000
0010
1000
,  // measure 8
0001
0010
0200
0300
,  // measure 9
0010
0010
1000
1000
,  // measure 10
0002
0003
0020
0030
,  // measure 11
0100
0100
0010
0010
,  // measure 12
1000
0001
1000
1000
,  // measure 13
0100
0100
1000
1000
,  // measure 14
0020
0030
0200
0300
,  // measure 15
0001
0001
0010
0010
,  // measure 16
0100
0001
1000
0110
,  // measure 17
1001
0010
0100
0010
,  // measure 18
0001
0002
0003
0010
,  // measure 19
0110
0100
0010
1000
,  // measure 20
0010
0010
0100
0100
,  // measure 21
1001
0010
0001
0100
,  // measure 22
0010
0010
1000
1000
,  // measure 23
0001
0010
0100
1000
,  // measure 24
1000
0100
0010
0001
,  // measure 25
1001
0000
0000
0000
;
