#TITLE:LOVE ~refrain~;
#SUBTITLE:;
#ARTIST:浜崎あゆみ;
#TITLETRANSLIT:;
#SUBTITLETRANSLIT:;
#ARTISTTRANSLIT:Ayumi Hamasaki;
#CREDIT:;
#BANNER:LOVE refrain banner.png;
#BACKGROUND:LOVE refrain bg.png;
#LYRICSPATH:;
#CDTITLE:;
#MUSIC:LOVE refrain.mp3;
#OFFSET:-12.520;
#SAMPLESTART:88.540;
#SAMPLELENGTH:15.000;
#SELECTABLE:YES;
#BPMS:0.000=94.000,76.000=93.900;
#STOPS:;
#BGCHANGES:;

//---------------dance-single - ----------------
#NOTES:
     dance-single:
     :
     Hard:
     7:
     0.326,0.278,0.039,0.054,0.046:
1000
0100
0010
0100
0010
0001
0100
0000
,
0100
0010
1000
0100
0001
0100
0010
0000
,
0100
0010
1000
0100
0001
0100
1000
0000
,
0010
0100
0010
0001
0010
0000
0010
0100
,
0000
0000
0000
0000
0100
0000
0010
0000
0100
0000
0000
0001
0000
0000
0100
0000
,
0000
0000
0000
0000
1000
0000
0100
0000
1000
0000
0000
0100
0000
0000
0010
0000
,
0002
0000
0000
0010
0013
0100
0010
0100
,
1000
0000
0100
0000
0010
0000
0001
0010
,
0200
0000
0000
0000
0000
0000
0300
0000
0010
0000
0000
1000
0000
0000
0010
0000
,
0000
0100
0010
1000
0001
0000
0010
0100
,
0010
0000
0001
0000
0010
0000
0100
0000
0010
0000
0000
1000
0000
0000
0010
0000
,
0100
0000
0000
0000
0010
0000
0100
0001
0100
0000
0000
0000
0010
0000
0100
0000
,
0010
0000
0000
0000
0110
0000
1000
0000
0001
0000
0000
0010
0000
0000
0100
0000
,
1000
0000
0100
0000
0010
0000
0100
0000
0010
0000
0000
0100
0000
0000
0010
0000
,
2000
0000
0000
0100
3100
0010
0100
0010
,
0001
0000
0010
0000
0100
0000
1000
0001
,
2000
0000
0000
0000
0000
0000
0100
0000
3001
0000
0000
0010
0000
0000
0100
0000
,
1000
0100
0010
0001
0010
0000
0100
0010
,
0100
0000
0010
0000
0001
0000
1000
0000
0001
0000
0000
1000
0000
0000
0001
0000
,
1000
0100
0010
0001
,
0010
0100
0001
1000
0010
0000
0100
0000
,
1000
0000
0100
0000
0100
0000
0010
0000
0001
0000
0000
0100
0000
0000
0010
0000
,
0100
0010
1000
0001
1000
0000
0100
1000
,
0100
0000
0000
0000
0010
0000
0001
0000
0100
0000
0000
0010
0000
0000
0100
0000
,
0010
1000
0001
0100
,
1000
0000
0001
0000
0100
0000
0010
0000
0100
0000
0000
0010
0000
0000
0100
0000
,
0001
1000
0100
0010
0002
0000
0003
0010
,
0100
0010
1000
0001
1000
0010
0100
0010
,
0100
1000
0001
0010
,
0100
0010
1000
0100
0001
0100
1000
0100
,
0110
0000
0010
0100
0000
0100
0010
0001
,
0010
0200
0000
0000
1300
0010
0100
0001
,
1000
0000
0100
0010
0001
0010
0100
0010
,
1000
0000
0001
0010
0100
0000
0010
0010
,
1001
0000
0010
0001
0100
0010
1000
0100
,
0010
0002
0000
0000
0013
1000
0010
0100
,
0010
0000
0100
0100
0010
1000
0001
0100
,
0000
0000
0010
0100
0001
1000
0010
1000
,
1000
0100
0010
0001
0010
0100
0000
0100
,
0010
1000
0100
0001
0100
0010
0000
0010
,
0001
0100
0010
1000
0100
0010
0000
0010
,
0100
0010
1000
0100
0001
0100
0000
0010
,
0110
1000
0100
0001
0100
0010
0100
0000
,
0001
1000
0010
0100
0010
1000
0100
0000
,
0100
0010
0001
0010
0100
1000
0100
0000
,
1001
0000
0000
0000
;

//---------------dance-single - ----------------
#NOTES:
     dance-single:
     :
     Medium:
     5:
     0.257,0.243,0.046,0.039,0.000:
1000
0100
0010
0001
,
0100
0010
0100
0010
0100
0000
0001
0000
,
0010
0100
1000
0010
,
0100
0000
0100
0000
0010
0000
1000
0020
,
0000
0000
0030
0100
0010
0000
0001
0010
,
0100
0000
0010
1000
0001
0000
0001
1000
,
0010
0000
0000
0010
0100
0000
0100
0010
,
0100
0000
0001
0000
1000
0000
0010
0010
,
0200
0000
0000
0300
0010
0000
0100
0000
,
0010
0000
1000
0001
1000
0000
0100
0000
,
0010
0000
0001
0000
1000
0010
1000
0000
,
0100
0000
0010
0010
0010
0000
1000
0000
,
0010
0000
0100
0010
0001
0000
0001
0020
,
0000
0030
0010
0000
0100
0000
0010
0000
,
1000
0000
0100
0000
0010
0010
0001
0000
,
0002
0000
0013
0100
,
0100
0010
1000
0001
,
0100
0010
0100
0001
1000
0000
0100
0000
,
0010
0010
0100
0001
,
1000
0100
0010
0001
,
0001
0010
0100
1000
,
0010
0110
0100
0100
,
0001
1000
0001
0000
0100
0010
0100
0000
,
0010
0000
0001
0000
0010
0000
0100
1000
,
0100
0000
0010
0001
0010
0000
0100
0000
,
0100
0000
1010
0000
0100
0000
0001
1000
,
0001
0000
0100
0010
0100
0000
0010
0010
,
0010
0100
0001
1000
,
0020
0100
0000
0130
,
1000
0001
1000
0010
,
0110
0000
1000
0001
0000
0001
1000
0010
,
0100
0100
0001
0001
,
1000
0000
0010
0100
0000
0100
0010
1000
,
0001
0010
0100
1000
,
0110
0000
1000
0010
0000
0010
0100
0010
,
0001
0000
0010
0000
0001
0000
1000
1000
,
0100
0000
0010
0001
0001
0000
0010
0100
,
0010
1000
0001
0100
,
0110
0000
0001
1000
0001
0100
0010
0000
,
1000
0000
0100
0010
0100
0010
0001
0000
,
0010
0000
0001
1000
0001
1000
0010
0000
,
0100
0000
0010
1000
0010
0100
0010
0000
,
1000
0001
1000
0100
0010
0000
0010
0000
,
0100
0001
0010
0001
1000
0000
1000
0000
,
0100
0010
1000
0001
0100
0000
0010
0000
,
1001
0000
0000
0000
;

//---------------dance-single - ----------------
#NOTES:
     dance-single:
     :
     Easy:
     3:
     0.205,0.208,0.039,0.193,0.000: // measure 1
1000
1000
0100
0100
,  // measure 2
0010
0010
0001
0010
,  // measure 3
0001
0100
0010
1000
,  // measure 4
0100
0010
0100
0010
,  // measure 5
0020
0030
0100
0100
,  // measure 6
0002
0003
0010
0010
,  // measure 7
2000
3000
0100
0100
,  // measure 8
0020
0030
0000
0100
,  // measure 9
0020
0000
0130
0001
,  // measure 10
1000
1000
0020
0030
,  // measure 11
1000
0100
0010
0001
,  // measure 12
0020
0000
0031
0001
,  // measure 13
0010
0100
0010
1000
,  // measure 14
0020
0130
0001
1000
,  // measure 15
0020
0030
0100
0100
,  // measure 16
0020
0000
0030
0100
,  // measure 17
2000
3000
0100
0010
,  // measure 18
0001
0010
0200
0310
,  // measure 19
1000
0001
0100
0010
,  // measure 20
0200
0000
0320
0000
,  // measure 21
2030
0000
3002
0003
,  // measure 22
0010
0100
0010
1000
,  // measure 23
0001
1000
0100
0010
,  // measure 24
0001
1000
0010
0001
,  // measure 25
0200
0000
0320
0000
,  // measure 26
1030
0100
0010
0001
,  // measure 27
0010
0100
2000
3000
,  // measure 28
0100
0010
1000
0001
,  // measure 29
0200
0300
0020
0030
,  // measure 30
0001
1000
0010
0100
,  // measure 31
1001
0001
0010
0100
,  // measure 32
2000
0000
3000
0100
,  // measure 33
0010
0100
0010
1000
,  // measure 34
0002
0013
0200
1300
,  // measure 35
0110
1000
0001
0100
,  // measure 36
0020
0000
0030
0100
,  // measure 37
0010
1000
0001
0100
,  // measure 38
0010
1000
1000
0100
,  // measure 39
0110
0001
1000
0010
,  // measure 40
0001
0100
0010
1000
,  // measure 41
0100
0010
0100
0001
,  // measure 42
1000
0010
0100
0001
,  // measure 43
1001
1000
0010
0100
,  // measure 44
0010
1000
0001
0100
,  // measure 45
0010
0001
1000
0001
,  // measure 46
1001
0000
0000
0000
;
