#TITLE:LA LA LA;
#SUBTITLE:;
#ARTIST:Bling Bling;
#TITLETRANSLIT:;
#SUBTITLETRANSLIT:;
#ARTISTTRANSLIT:;
#CREDIT:;
#BANNER:LA LA LA banner.png;
#BACKGROUND:LA LA LA bg.png;
#LYRICSPATH:;
#CDTITLE:;
#MUSIC:LA LA LA.mp3;
#OFFSET:-2.080;
#SAMPLESTART:59.660;
#SAMPLELENGTH:15.000;
#SELECTABLE:YES;
#BPMS:0.000=125.000,19.000=250.001,83.000=125.000,151.000=250.001,207.000=125.000,211.000=250.000,274.333=125.000;
#STOPS:16.500=0.480
;
#BGCHANGES:;

//---------------dance-single - ----------------
#NOTES:
     dance-single:
     :
     Hard:
     10:
     0.831,1.000,0.528,0.165,0.352:
0010
0000
0100
0020
0000
0000
0130
0000
1000
0000
0001
0000
1001
0000
0000
0000
,
0001
0000
0010
2000
0000
0000
3001
0000
0100
0000
0010
0000
0110
0000
0000
0000
,
1000
0000
0100
0020
0000
0000
0130
0000
0001
0000
1000
0000
1001
0000
0000
0000
,
0110
0000
1000
0001
1000
0001
0100
0010
0100
0010
0001
0010
0100
1000
0100
0010
,
0001
0001
0110
0100
1000
0110
0001
1000
,
0000
1000
0001
0000
0100
0000
0110
0000
,
0001
1000
0001
0000
0100
0000
0010
0100
,
0000
0100
0010
0000
1000
0000
0100
0000
,
0100
0010
0001
0010
0000
0010
0100
0010
,
0000
0010
0100
0000
1000
0000
1001
0000
,
0001
1000
0001
0000
0100
0000
0010
1000
,
0000
1000
0010
0000
0100
0010
1000
0000
,
0100
0000
0110
0000
1001
0000
0010
0100
,
0000
0100
0010
0000
0001
0010
0100
1000
,
0000
1000
0100
0000
0010
0100
0010
0100
,
0000
0100
0010
0000
0001
1000
0001
0000
,
0100
0000
0110
0000
0010
0000
1000
0001
,
0000
0001
0010
0000
0010
0100
1000
0100
,
0000
0010
0001
0010
0100
0000
1000
0010
,
0000
0010
0100
0000
0010
1000
0001
0000
,
0010
0110
1001
0110
,
1000
0100
0010
0100
0010
0001
0010
0100
0010
0000
0010
0000
0110
0000
0000
0000
,
0001
0010
0001
0010
0100
1000
0100
0010
0100
0000
0100
0000
1100
0000
0100
0010
,
0100
0000
0010
0000
1000
0100
0010
0001
0010
0000
0010
0000
0100
0000
0001
0000
,
1000
0000
0001
0000
0011
0000
0010
0000
0110
0000
0110
0000
0002
0000
0003
0010
,
0100
0000
0010
0000
1000
0000
0001
0000
0100
0000
0000
0000
0100
0000
0000
0100
,
0010
1000
0001
1000
1001
0010
0110
0000
,
0101
0000
0010
1000
0010
0000
0100
0000
1000
0000
1000
0000
0100
0000
0100
0000
,
0010
0010
0001
1000
0010
0100
1001
0001
,
0010
0000
0100
0000
0010
0000
1000
0002
0000
0000
0003
0000
0010
0000
0100
0000
,
0110
0000
0010
1000
0000
0000
0200
0000
0000
0000
0300
0000
1000
0000
0001
0000
,
0100
0000
0010
0001
0000
0000
2000
0000
0000
0000
3100
0000
0110
0000
0010
0000
,
1000
0000
0001
0100
0000
0100
0010
1000
0001
0000
0010
0000
1000
0100
1000
0100
,
1000
0000
0100
0010
0100
0010
0001
0010
0100
0000
0010
0000
0001
0010
0001
0010
,
0001
0000
0010
0100
1000
0100
0010
0001
0010
0000
0100
0000
0010
1000
0010
1000
,
0010
0000
0100
0001
0100
1000
0100
1000
0100
0000
0010
0100
0010
0001
0010
0001
,
0010
0000
0100
0010
1000
0000
0002
0000
0003
0000
0010
0100
0020
0000
0000
0000
,
0100
0000
0100
0130
0000
1000
0100
0010
0001
0000
1000
0000
1001
0000
0000
0000
,
0100
0010
0000
0010
0100
1000
0001
0000
,
1000
0000
1001
0000
0100
0010
0100
0000
,
0100
0010
0000
0001
1000
0000
1000
0010
,
0100
0001
0010
0000
0110
0000
1001
0000
,
0010
0001
0000
0001
0010
0100
1000
0000
,
0100
0000
0110
0000
0010
0100
0010
0000
,
1000
0001
0000
0010
0000
0100
0010
1000
,
0001
0100
0010
0000
0100
0000
0110
0000
,
0100
0001
0000
0001
0010
0100
0010
1000
,
0010
0000
0010
0000
0100
1000
0100
0000
,
0100
0010
0000
1000
0001
0000
0100
0010
,
1000
0001
0010
0000
0110
0000
1001
0000
,
0010
0100
0000
0100
0010
1000
0100
0001
,
0100
0000
0100
0000
0001
0010
2000
0000
,
3100
0000
0010
0100
0010
1000
0001
0000
0010
0100
0010
0000
1100
0000
0000
0000
,
0100
0010
0000
0010
0100
0010
0001
0000
,
1001
0000
1010
0000
0100
0010
0100
0000
,
0010
0001
0000
0010
0100
0000
0010
0000
,
1010
0000
1001
0000
0010
0100
0010
0000
,
0001
0010
0000
0010
0100
0000
2000
0000
,
3200
0000
0310
0000
0100
1000
0001
0000
,
0001
1000
0000
1000
0100
0010
0002
0000
,
0023
0000
0230
0000
1300
0001
1000
0000
,
0010
0100
0000
0100
0010
1000
0001
0000
,
0011
0000
0101
0000
0001
0010
1000
0000
,
1000
0010
0000
0100
0010
0100
0010
0000
,
0011
0000
1001
0000
0100
0010
1000
0000
,
1000
0100
0010
0100
0010
0000
0001
0000
,
0010
0000
0000
0000
0000
0000
0100
0000
0000
0010
0000
0000
1000
0000
0000
0001
0000
0000
1000
0000
0000
0000
1000
0000
,
0000
1000
0000
0001
0000
0001
0000
0001
0000
0110
0000
0110
,
0000
0110
0000
1001
0000
1001
0000
1001
0000
0000
0000
0000
;

//---------------dance-single - ----------------
#NOTES:
     dance-single:
     :
     Medium:
     6:
     0.520,0.565,0.253,0.121,0.044:
0100
0010
0100
0000
0001
0001
0011
0000
,
0010
0100
0010
0000
1000
1000
1100
0000
,
0010
0100
0010
0000
1000
0001
1001
0000
,
0020
0000
0000
0000
0000
0000
0000
0030
,
0100
0100
0010
0100
0010
1000
0001
0000
,
0000
1000
0001
0000
0010
0000
0100
0000
,
0010
1000
0100
0010
,
0000
1000
0010
0000
0100
0000
0001
0000
,
0000
1001
0000
1000
,
0000
0100
1000
0000
0010
0000
0100
0000
,
0010
0001
0100
0010
,
0000
0100
0010
0000
1000
0000
0001
0000
,
0100
0010
0110
0010
,
0000
0100
0001
0000
0010
0000
0100
0000
,
0010
0110
0100
0001
,
0000
1000
0001
0000
0010
0000
0100
0000
,
0010
1010
1000
0100
,
0000
0010
0100
0000
0010
0000
1000
0000
,
0001
1001
1000
0010
,
0000
0100
0010
0000
0001
0000
0010
0000
,
0100
1000
1001
0010
,
0100
0010
0100
0010
0001
0010
0000
0000
,
0100
1000
0100
0010
0100
0010
0000
0100
,
0010
0000
0010
1000
0010
0000
0100
0000
,
0001
1000
1001
0010
,
0100
0010
0001
0010
0100
0000
0010
0000
,
0100
1000
0100
0010
0001
0000
0110
0000
,
1000
1000
0200
0000
0310
0100
0010
0000
,
1000
0000
0001
0000
0010
0000
0100
0100
,
1000
0000
1000
1000
0100
0000
0010
0100
,
0010
0000
0001
0020
0000
0030
0100
0001
,
0100
0000
0010
0100
0010
0000
1000
0001
,
0100
0010
0001
0000
0001
0000
0010
0010
,
0010
0000
0100
1000
0100
0000
0001
0001
,
0001
0000
0010
0001
0010
0000
1000
1000
,
1000
0000
0100
0100
0100
0000
0010
0010
,
0010
0000
0001
0001
0001
0000
0210
0000
,
0000
0000
0310
0010
0100
0010
0110
0000
,
0000
1000
0000
0001
0000
0000
0100
0000
,
0010
0110
0000
0011
,
0000
0010
0000
0100
0000
0000
0010
0000
,
0100
0010
0010
1001
,
0000
0100
0000
0010
0000
0000
0100
0000
,
1000
0100
0000
0011
,
0000
0010
0000
0100
0000
0000
0010
0000
,
0001
0010
0010
0110
,
0000
0200
0000
0320
0000
0030
0100
0000
,
1000
0001
0100
0010
,
0000
0200
0000
2300
0000
3000
0100
0000
,
0010
0100
0110
1001
,
0000
0002
0000
0023
0000
0030
1000
0000
,
0100
0010
0000
0020
,
0030
0100
0001
1000
0010
0001
1000
0000
,
1000
0100
0000
0000
0100
0000
0010
0000
,
0100
0101
0000
0001
,
0001
0010
0000
0000
0010
0000
0100
0000
,
1000
0110
0000
0010
,
0000
0010
0000
0000
0010
0000
0100
0000
,
0001
1000
0001
1000
,
0000
1000
0000
0000
1000
0000
0100
0000
,
0010
0100
0000
0001
,
1000
0001
0000
0000
0010
0000
0100
0000
,
0010
0110
0100
0001
,
1000
0010
0000
0000
0010
0000
1000
0000
,
0010
0100
0100
0001
,
0000
0010
0000
0000
0100
0000
1000
0000
,
0100
0000
0000
0010
0000
0000
0001
0000
0000
0100
0000
0010
,
0000
0100
0000
0010
0000
0100
0000
0010
0000
0100
0000
1000
,
0000
0001
0000
1000
0000
0001
0000
1000
0000
0000
0000
0000
;

//---------------dance-single - ----------------
#NOTES:
     dance-single:
     :
     Easy:
     4:
     0.322,0.452,0.099,0.110,0.000: // measure 1
0010
0010
0100
0100
,  // measure 2
0001
0001
1000
1000
,  // measure 3
0100
0010
0100
0100
,  // measure 4
0020
0000
0000
0030
,  // measure 5
0100
0100
0001
1001
,  // measure 6
0000
1000
0000
0100
,  // measure 7
0000
0010
0000
0100
,  // measure 8
0000
0010
0000
0001
,  // measure 9
0000
0020
0030
0100
,  // measure 10
0000
1000
0000
0001
,  // measure 11
0000
1000
0000
0001
,  // measure 12
0000
0100
0000
0010
,  // measure 13
0000
0110
0000
0100
,  // measure 14
0000
0001
0000
1000
,  // measure 15
0000
0010
0000
0001
,  // measure 16
0000
0010
0000
0100
,  // measure 17
0000
0020
0030
0100
,  // measure 18
0000
0001
0000
0010
,  // measure 19
0000
1000
0000
0010
,  // measure 20
0000
0100
0000
0010
,  // measure 21
0000
0010
0000
0100
,  // measure 22
0010
1000
1000
0100
,  // measure 23
0010
0001
0001
0010
,  // measure 24
0100
0010
0001
0010
,  // measure 25
0100
0010
0100
1000
,  // measure 26
1000
0200
0310
0001
,  // measure 27
0010
0200
0310
0001
,  // measure 28
1001
1000
1001
0010
,  // measure 29
0010
0100
0100
0010
,  // measure 30
1000
0010
0001
0010
,  // measure 31
0100
0020
0030
0100
,  // measure 32
0010
1000
0100
0001
,  // measure 33
0001
2000
3000
0010
,  // measure 34
0010
0100
0100
0001
,  // measure 35
0001
1000
1000
0010
,  // measure 36
0100
0001
1000
0010
,  // measure 37
0100
0010
0010
0200
,  // measure 38
0000
0310
1000
1001
,  // measure 39
0000
0010
0000
0100
,  // measure 40
0000
0100
0000
0010
,  // measure 41
0000
1000
0000
1000
,  // measure 42
0001
1000
0000
0110
,  // measure 43
0000
0100
0000
0010
,  // measure 44
0000
0001
0000
0010
,  // measure 45
0000
0100
0000
0010
,  // measure 46
0100
0010
0000
1000
,  // measure 47
0000
0001
0000
0100
,  // measure 48
0010
0100
0000
0001
,  // measure 49
0000
0010
0000
1000
,  // measure 50
0100
1000
0000
0010
,  // measure 51
0000
0100
0000
0010
,  // measure 52
0001
0010
0000
0200
,  // measure 53
0000
0310
0010
0110
,  // measure 54
0000
0100
0000
0001
,  // measure 55
1000
0001
0000
0010
,  // measure 56
0000
0001
0000
0010
,  // measure 57
0100
0010
0000
1000
,  // measure 58
0000
1000
0000
1000
,  // measure 59
0000
0100
0000
0010
,  // measure 60
0000
0010
0000
0010
,  // measure 61
0000
0001
0000
0100
,  // measure 62
0000
0010
0000
1000
,  // measure 63
0010
1000
0000
0100
,  // measure 64
0000
0010
0000
0001
,  // measure 65
1000
0001
0000
0100
,  // measure 66
0000
0010
0000
0100
,  // measure 67
0000
0010
0000
1001
,  // measure 68
0000
1001
0000
0010
,  // measure 69
0000
0020
0130
0000
;
