#TITLE:JUICY;
#SUBTITLE:;
#ARTIST:Kumi Koda;
#TITLETRANSLIT:;
#SUBTITLETRANSLIT:;
#ARTISTTRANSLIT:;
#CREDIT:;
#BANNER:JUICY banner.png;
#BACKGROUND:JUICY bg.png;
#LYRICSPATH:;
#CDTITLE:;
#MUSIC:JUICY.mp3;
#OFFSET:-8.900;
#SAMPLESTART:35.040;
#SAMPLELENGTH:15.000;
#SELECTABLE:YES;
#BPMS:0.000=110.000;
#STOPS:;
#BGCHANGES:;

//---------------dance-single - ----------------
#NOTES:
     dance-single:
     :
     Hard:
     8:
     0.510,0.490,0.149,0.090,0.438:
1000
0000
0100
0000
0010
0001
0000
0010
0000
0100
1000
0000
0000
0000
0010
0000
,
0100
0000
0010
0000
0001
1000
0000
0001
0000
1000
0001
0000
0000
0001
0000
0000
,
0010
0000
0000
0100
0010
0000
1000
0000
0001
0000
1000
0000
0000
0000
0100
0000
,
0001
0010
0100
1000
0100
0010
0001
0010
0100
1000
0100
0010
0001
0000
0000
0000
,
0110
0000
1000
0000
1000
0000
0000
0100
0000
0000
0010
0000
0001
0000
0010
0000
,
0100
0000
0010
0000
1000
0000
0000
0001
0010
0000
0100
0000
0010
0000
0010
0000
,
0100
0000
0001
0000
1000
0000
0000
0010
0001
0000
0010
0000
0100
0000
0010
0000
,
1000
0000
0001
0010
0000
0010
0001
0000
0000
0000
0010
0000
0000
0010
0000
0000
,
0110
0000
1000
0000
0001
0000
0000
0010
1000
0000
0100
0000
0010
0000
0001
0000
,
0010
0000
0100
0000
1000
0000
0000
0000
0001
0010
0001
0000
0100
0000
0010
0000
,
1000
0000
0001
0000
1000
0000
0000
0000
0100
0010
0001
0010
0100
0000
0100
0000
,
1000
0100
0001
0100
1000
0001
0010
1000
,
0020
0000
0130
0001
1000
0010
0200
0000
,
1300
0000
0000
0000
0100
0000
0010
0100
0010
0000
1000
0000
0001
0000
0100
0000
,
0002
0010
0013
0000
0010
0100
0020
0000
,
0031
1000
0001
0100
0010
0100
1000
0001
,
0200
0000
0000
0000
1300
0000
0010
0000
0100
0000
0000
0001
0010
0000
0100
0000
,
0110
0000
0000
0000
0000
0001
0000
0001
0000
0001
0010
0000
0100
0000
0010
0000
,
1000
0001
1000
0010
0010
0100
0100
0010
,
1001
0000
0110
0000
0001
1000
0010
0100
,
0001
0000
0010
0100
1000
0000
0100
0010
0000
0010
0100
0000
0001
0000
1001
0000
,
1000
0000
0100
0010
0100
0000
0001
1000
0000
1000
0001
0000
0100
0000
1000
0000
,
1100
0000
0100
0010
0001
0000
0010
0100
0000
0100
0010
0000
1000
0000
0011
0000
,
1000
0000
0001
0010
0000
0010
0100
0000
0100
1000
0000
1000
0100
0000
0010
0000
,
0001
1000
0001
1000
0010
0000
0010
0100
0000
0100
0000
0001
1000
0000
0100
0010
,
0001
0010
0100
1000
0100
0000
0010
0100
0000
0100
0000
0001
1000
0000
0010
0000
,
0001
0010
1000
1000
0010
0001
1000
1000
,
0100
0000
0010
1000
0001
0000
0010
0100
0000
0010
0000
0000
1000
0000
0001
0000
,
0110
0000
2000
0000
,
3200
0000
0320
0000
,
0032
0000
0000
0000
0003
0010
0000
0010
,
0100
0010
0100
0000
0001
0000
0010
0000
0100
0000
1000
0000
0000
1000
0000
0000
,
0010
0000
0110
0000
0100
0001
0000
1000
0000
0010
0100
0000
0010
0000
0011
0000
,
0010
0000
1100
0000
0100
0010
0000
1000
0000
0001
0010
0000
0000
0010
0000
0000
,
0100
0000
0000
0100
1000
0000
1100
0000
0100
0000
0010
0000
0001
0000
0010
0000
,
1000
0100
0010
0001
0010
0100
1000
0100
0010
0001
0010
0100
1000
0000
0000
0000
,
0100
0010
0001
0000
0011
0000
0000
0010
0000
0100
0000
0010
1000
0000
0100
0000
,
0001
0000
1000
0000
0001
0000
0000
0010
0100
0000
0010
0001
0010
0000
0100
0000
,
1000
0000
0010
0000
0100
0000
0000
0010
1000
0001
0100
0000
0100
0000
0010
0100
,
1000
0100
0010
0000
0001
0010
0100
0000
0000
0000
0010
0000
0000
0010
0000
0000
,
1000
0001
0100
0000
0100
0000
0000
0010
0000
0001
1000
0010
0001
0000
1000
0000
,
1001
0000
0000
0000
;

//---------------dance-single - ----------------
#NOTES:
     dance-single:
     :
     Medium:
     6:
     0.368,0.326,0.119,0.119,0.015:
1000
0100
0010
0001
0000
0010
0000
0100
,
0010
1000
0001
0010
0000
0100
0000
0010
,
0010
0200
0000
0301
0010
0100
0000
1001
,
0010
0001
1000
0001
0100
0010
1000
0000
,
0100
0010
0110
0000
1000
0100
0001
0000
,
0001
0010
0100
0000
0100
0001
0101
0000
,
0010
1000
0100
0000
0100
1000
0010
0100
,
0010
0000
0001
1000
0000
0100
0000
0010
,
0100
0010
1001
0000
0010
0100
0010
0000
,
1000
0100
0001
0000
0001
0100
0010
1000
,
0100
0000
0110
0000
1000
0010
0010
0001
,
0100
0010
1000
0001
0100
0010
0010
0000
,
0210
0000
0310
0001
1000
0000
0020
0000
,
0130
0000
0000
1000
0100
0001
0100
0010
,
0002
0003
0010
0100
,
0010
0000
1000
0000
0001
0100
0000
0100
,
0021
0000
0030
0100
2000
0000
3200
0000
,
0310
0000
0000
0000
0000
1000
0000
1000
0000
1000
0100
0000
0100
0000
0000
0000
,
0020
0000
0031
0100
0010
1000
0100
0000
,
1001
0000
0110
0000
0001
1000
0010
0000
,
0100
0010
0001
0010
0100
1000
0100
0000
,
0010
1000
0100
0010
0001
0010
0100
0000
,
1000
0010
0100
0001
1000
0010
0001
0000
,
0001
1000
0100
1000
0010
0001
0010
0000
,
0100
0100
0100
0100
0010
0100
0000
1000
,
0001
0001
0001
0001
0001
0010
0000
0100
,
0010
0100
0000
0001
1000
0001
0000
0010
,
0100
0000
1000
0000
0001
0010
0100
1000
,
0200
0000
0320
0000
,
2030
0000
3002
0000
,
0013
0010
0100
0100
,
0001
1000
0010
0100
,
1000
0000
0100
0010
0000
0010
0001
0010
,
0100
0001
0000
0001
0010
1000
0000
1000
,
0010
0000
0110
0000
0100
0100
0100
0000
,
0001
1000
0001
1000
0001
0100
0010
0000
,
1000
0100
0100
0000
0001
0010
0100
0010
,
1000
0001
0010
0000
0010
0100
0110
0000
,
0001
1000
0001
0000
0001
0010
0100
0000
,
0100
0000
0010
1000
0000
0001
0000
0010
,
0100
0001
1000
0000
0001
0000
1000
0000
,
1001
0000
0000
0000
;

//---------------dance-single - ----------------
#NOTES:
     dance-single:
     :
     Easy:
     3:
     0.235,0.224,0.100,0.119,0.000: // measure 1
0001
0010
0100
1000
,  // measure 2
0100
0010
0100
0100
,  // measure 3
0001
1000
0020
0030
,  // measure 4
1000
0001
1000
0001
,  // measure 5
0110
0000
0100
0010
,  // measure 6
1001
0000
0001
0001
,  // measure 7
0010
0100
0010
1000
,  // measure 8
0100
0020
0030
0100
,  // measure 9
1001
0000
0100
0010
,  // measure 10
0110
0000
1000
0001
,  // measure 11
0010
0100
0010
0010
,  // measure 12
1000
0100
0010
0001
,  // measure 13
0200
0000
0300
0010
,  // measure 14
0010
0000
0001
0010
,  // measure 15
2000
0000
3000
0001
,  // measure 16
0001
0010
0100
1000
,  // measure 17
0110
0100
0001
1000
,  // measure 18
0020
0000
0230
0010
,  // measure 19
0310
0001
0010
0100
,  // measure 20
0020
0000
0130
0001
,  // measure 21
1001
0100
0100
0100
,  // measure 22
0110
0010
0010
0010
,  // measure 23
0001
1000
0010
0001
,  // measure 24
1000
0100
1000
0010
,  // measure 25
0100
0100
0100
1000
,  // measure 26
0001
0001
0001
0010
,  // measure 27
1001
0000
0110
0000
,  // measure 28
1000
0100
0010
0001
,  // measure 29
0020
0030
0200
0300
,  // measure 30
0002
0003
2000
3000
,  // measure 31
0010
0000
0010
0000
,  // measure 32
0001
0001
0010
0010
,  // measure 33
0100
1000
0001
0100
,  // measure 34
0010
1000
0100
0001
,  // measure 35
0010
0100
0010
0010
,  // measure 36
1000
0100
0010
0001
,  // measure 37
0100
0010
0010
0100
,  // measure 38
0001
0010
0010
0100
,  // measure 39
1000
0100
0010
0001
,  // measure 40
0010
0200
0300
0010
,  // measure 41
0100
0010
1000
0001
,  // measure 42
1001
0000
0000
0000
;
