#TITLE:INVU;
#SUBTITLE:;
#ARTIST:TAEYEON;
#TITLETRANSLIT:;
#SUBTITLETRANSLIT:;
#ARTISTTRANSLIT:;
#CREDIT:;
#BANNER:INVU banner.png;
#BACKGROUND:INVU bg.png;
#LYRICSPATH:;
#CDTITLE:;
#MUSIC:INVU.mp3;
#OFFSET:-5.060;
#SAMPLESTART:56.820;
#SAMPLELENGTH:15.000;
#SELECTABLE:YES;
#BPMS:0.000=107.000;
#STOPS:;
#BGCHANGES:;

//---------------dance-single - ----------------
#NOTES:
     dance-single:
     :
     Hard:
     8:
     0.469,0.510,0.160,0.282,0.248:
0110
0000
0000
0000
0100
0000
0001
0000
0100
0000
0000
0010
0000
0000
0100
0000
,
2000
0000
0000
0000
3100
0000
0010
0000
0001
0000
0000
1000
0000
0000
0001
0000
,
0100
0000
0000
0020
0000
0000
0000
0000
0130
0000
0000
0100
0000
0000
1000
0000
,
0001
0000
0000
0010
0000
0000
0100
0000
1000
0000
0000
0100
0000
0000
0010
0000
,
1001
0000
0000
0000
0001
0000
0010
0000
0100
0000
0000
0001
0000
0000
0100
0000
,
2000
0000
0000
0000
3100
0000
0010
0000
0100
0000
0000
0001
0000
0000
1000
0000
,
0001
0000
0000
0020
0000
0000
0000
0000
0031
0000
0000
1000
0000
0000
0001
0000
,
0100
0000
0000
0020
0000
0000
0000
0000
0100
0000
0100
0000
0130
0000
0000
0000
,
1000
0100
0001
0100
1000
0100
0010
0000
,
0010
0100
0010
0001
0010
1000
1001
0000
,
0001
0010
0001
0010
0100
0010
0100
0000
,
0001
0000
0000
0000
1000
0000
0000
0000
0001
0000
0000
0000
1000
0000
0000
0000
0000
0000
0000
0000
0000
0100
0000
0000
0000
0000
0000
0100
0000
0000
0010
0000
0000
0000
0000
0000
0110
0000
0000
0000
0000
0000
0000
0000
0000
0000
0000
0000
,
0100
0001
0010
1000
0010
0100
0020
0000
,
0130
0001
1000
0001
0010
1000
1001
0000
,
0010
0001
0100
1000
0100
0010
0100
0002
,
0010
0003
0100
0000
0001
1000
0001
0100
,
0020
0000
0230
0000
0000
0301
0010
0100
,
2000
0000
3200
0000
0000
0310
1000
0001
,
0100
0010
0100
0000
0002
0000
0000
0000
0013
0000
0100
0000
0010
0000
1000
0000
,
0001
0000
0010
0000
0100
0010
0000
0000
0110
0000
0000
0000
1000
0000
0100
0000
,
0002
0000
0203
0010
1300
0010
0100
0001
,
2000
0000
3200
0010
0301
0010
0001
0100
,
0010
1000
0010
0000
0110
0000
0000
0000
0100
0000
0001
0000
1000
0000
0010
0000
,
0000
0010
0100
0000
0001
1000
0001
0001
,
1001
0000
0100
0000
0010
0100
0000
0000
0100
0010
0000
0010
0100
0000
1100
0000
,
0100
0000
0010
0000
0001
0010
0000
0000
1000
0000
0000
0010
0100
0000
0000
0100
,
0010
0001
0010
0000
0100
0000
0010
0000
1000
0001
0000
0001
1000
0000
0100
0000
,
0002
0000
0000
0000
0023
0000
0000
0000
0230
0000
0000
0000
1300
0000
0100
0010
,
0001
0000
1000
0000
0001
0010
0000
0000
0010
0100
0000
0100
0010
0000
1001
0000
,
0100
0000
0010
0000
1000
0001
0000
0000
0001
0010
0000
0010
0100
0000
0100
1000
,
0100
0010
0001
0000
0010
0100
0000
0000
0100
0010
0000
1000
0001
0000
0000
0000
,
0200
0000
0320
0000
2030
0000
3001
0010
,
0100
0000
0110
0000
0100
0010
1000
0001
,
0010
0000
0000
0100
0000
0000
0000
0000
0010
0000
0100
0000
1000
0000
0001
0000
,
0010
0000
1000
0010
0000
0000
0100
0001
,
1000
0001
0100
0010
1000
0001
0100
0010
,
0200
0000
0310
0000
1000
0001
0010
0001
,
0010
0100
2000
0000
3100
0000
0010
0100
,
0002
0000
0000
0003
0010
0100
0010
1000
,
0001
0000
0010
0000
0100
0000
1000
0001
,
0200
0000
0000
0000
0000
0010
0320
0000
,
0032
0000
0010
0010
,
0103
0200
0000
0000
0310
2000
0020
3000
,
0130
0000
0001
0000
1000
0000
0010
0100
,
0001
0000
0001
0020
0200
0030
1000
1000
,
2300
0000
0000
0000
0100
0000
3020
0100
,
0230
0000
0002
0300
0000
0000
0000
0003
,
1100
0000
0110
0000
0011
0000
1001
1000
,
0001
0000
0010
0100
1000
0100
0000
0000
0100
0010
0000
0010
0100
0000
1001
0000
,
0010
0000
0100
0010
0001
0010
0000
0000
0110
0000
0000
1000
0010
0000
0010
0100
,
0010
0001
0010
0000
0100
1000
0000
0000
0100
0010
0000
0010
0100
0000
0001
0000
,
1010
0000
0101
0000
0100
0001
1000
0010
,
0110
0000
1000
0100
0010
0000
0010
0000
0100
0010
0000
0010
0001
0000
0010
0100
,
1000
0000
0100
0000
0010
1000
0000
0001
1000
0000
0100
0010
0100
0010
0000
0001
,
0010
0100
1000
0000
1000
0100
0000
0000
0001
0010
0000
1000
0010
0000
0100
0000
,
0001
0010
0100
1001
;

//---------------dance-single - ----------------
#NOTES:
     dance-single:
     :
     Medium:
     6:
     0.339,0.319,0.053,0.244,0.000:
0001
0000
0010
0000
0100
0010
0000
0010
,
0100
0000
0010
1000
0010
0000
0100
0000
,
0101
0000
0010
0000
1000
0001
0000
0001
,
1000
0000
0100
0010
0100
0000
0010
0000
,
0100
0000
0001
0000
0010
0100
1000
0100
,
0010
0000
0100
0000
0001
0010
0100
1000
,
0100
0000
1000
0000
0100
0010
0001
0010
,
0100
0000
0002
0000
0000
0003
0010
0000
,
0100
0000
0001
1000
0010
0000
0110
0000
,
1000
0000
0100
0010
0001
0000
0020
0000
,
0130
0000
1000
0001
0010
0000
0011
0000
,
0010
0010
0010
0000
1000
1000
0100
0000
,
1000
0000
0100
0010
0001
0000
0110
0000
,
1000
0000
0100
0010
0100
0000
2000
0000
,
3100
0000
0010
0100
0010
0001
0020
0000
,
0000
0100
0000
0130
,
2000
0000
3002
0000
0003
0010
0100
0010
,
0200
0000
0302
0000
0003
0010
0100
0010
,
0001
0000
0010
0000
0100
0010
1000
0001
,
0010
0100
0010
1000
,
0020
0000
0230
0000
0310
0000
0001
1000
,
0020
0000
0032
0000
1003
0000
0100
1000
,
0100
0000
0010
0000
0100
0001
1000
0010
,
0000
0010
0100
0000
0100
0000
0001
1000
,
0002
0000
0013
0000
0100
0010
1000
0200
,
0000
0300
0010
0000
0100
0000
1000
0010
,
0100
0001
0010
0000
0100
0000
0010
0000
,
0001
0010
0100
1000
,
2000
0000
3100
0010
0100
0000
0010
0001
,
0000
0010
0100
0010
0100
0000
1000
0001
,
0010
0002
0000
0013
0100
0010
0100
0000
,
1000
0000
0100
0000
0010
0000
0001
0010
,
0001
0000
0010
0000
0100
0010
1000
0010
,
0100
0000
0200
0000
0300
0010
0100
0000
,
0001
0000
0020
0000
0030
1000
0100
0000
,
0001
0000
0001
0100
0000
0100
0010
1000
,
0010
0000
0010
0000
0100
0000
0001
0010
,
0001
0000
0020
0000
0130
0000
1000
0020
,
0000
0030
0100
0000
0001
0000
0010
0100
,
1000
0100
0010
0001
,
0200
0000
0010
0320
,
0032
0000
0010
0010
,
0023
0000
0130
1000
,
0001
0010
0100
1000
,
0200
0000
0000
2300
0200
0000
3000
0000
,
0320
0000
0100
0100
,
0032
0000
0000
0000
0010
0000
0010
0003
,
1000
0001
0100
0010
,
1000
0001
0100
0010
0001
0000
0010
0000
,
0100
0010
1000
0100
0001
0000
0001
0010
,
0100
1000
0000
0100
0010
0000
0100
0000
,
0110
0000
1001
0000
0010
0001
0100
0010
,
2000
0000
3100
0000
0010
0100
0010
0001
,
0020
0000
0130
0000
0001
1000
0002
0000
,
0013
0000
0100
0010
1000
0001
0100
0000
,
0001
0010
0100
1001
;

//---------------dance-single - ----------------
#NOTES:
     dance-single:
     :
     Easy:
     3:
     0.241,0.234,0.038,0.191,0.000: // measure 1
0100
0000
0100
0010
,  // measure 2
0100
0000
0010
0001
,  // measure 3
0010
0000
1000
0100
,  // measure 4
0010
0100
0010
0001
,  // measure 5
0010
0000
0001
0010
,  // measure 6
0001
0000
0010
0100
,  // measure 7
0010
0000
1000
0100
,  // measure 8
0010
0200
0300
0010
,  // measure 9
0100
0001
1000
1000
,  // measure 10
0100
0010
0001
0001
,  // measure 11
0010
0100
0010
0010
,  // measure 12
1000
0001
0100
0020
,  // measure 13
0030
0100
0100
0010
,  // measure 14
1000
0100
0100
0001
,  // measure 15
0010
0001
0001
0020
,  // measure 16
0030
0100
0000
1000
,  // measure 17
0200
0310
0000
0001
,  // measure 18
0020
0130
0000
0010
,  // measure 19
2000
3100
0000
0100
,  // measure 20
0010
0100
0010
0001
,  // measure 21
1000
0002
0003
0010
,  // measure 22
0100
0020
0030
1000
,  // measure 23
0100
0100
0010
0010
,  // measure 24
0000
0001
1000
0001
,  // measure 25
1001
0010
0001
0100
,  // measure 26
0010
1000
0100
0010
,  // measure 27
0100
0010
0001
0010
,  // measure 28
1000
1000
1000
0100
,  // measure 29
0110
0100
0010
1000
,  // measure 30
0001
0100
0010
0001
,  // measure 31
0010
0100
1000
0010
,  // measure 32
0001
1000
0001
1000
,  // measure 33
0010
0200
0300
0010
,  // measure 34
0001
0010
0000
0010
,  // measure 35
0100
0020
0030
0100
,  // measure 36
1000
0100
0010
0100
,  // measure 37
0001
0002
0003
0010
,  // measure 38
0100
2000
3000
0100
,  // measure 39
0020
0030
0200
0300
,  // measure 40
0010
0010
0010
0100
,  // measure 41
0020
0000
0000
0230
,  // measure 42
2300
0000
0010
3010
,  // measure 43
0200
0000
0310
0002
,  // measure 44
0013
0100
0010
0100
,  // measure 45
0020
0000
0230
0000
,  // measure 46
0302
0000
0023
0230
,  // measure 47
2300
0000
0000
0000
,  // measure 48
3100
0010
1000
0001
,  // measure 49
1001
0010
0001
0100
,  // measure 50
0010
0001
0010
1000
,  // measure 51
0010
0001
0100
0010
,  // measure 52
0100
0010
0100
0110
,  // measure 53
0001
0010
1000
0010
,  // measure 54
0001
0100
1000
0100
,  // measure 55
0001
0100
0010
0100
,  // measure 56
0001
1000
0001
1001
;
