#TITLE:HONEY;
#SUBTITLE:;
#ARTIST:SOLAR;
#TITLETRANSLIT:;
#SUBTITLETRANSLIT:;
#ARTISTTRANSLIT:;
#CREDIT:;
#BANNER:HONEY banner.png;
#BACKGROUND:HONEY bg.png;
#LYRICSPATH:;
#CDTITLE:;
#MUSIC:HONEY.mp3;
#OFFSET:-6.860;
#SAMPLESTART:56.920;
#SAMPLELENGTH:15.000;
#SELECTABLE:YES;
#BPMS:0.000=115.000;
#STOPS:;
#BGCHANGES:;

//---------------dance-single - ----------------
#NOTES:
     dance-single:
     :
     Challenge:
     8:
     0.551,0.583,0.217,0.130,0.357:
0110
0000
0000
0001
0010
0000
0100
0000
0010
0000
0000
1000
0010
0000
0100
0000
,
0010
0000
0000
0100
0010
0000
1000
0000
0001
0000
0010
0000
0100
0000
0010
0000
,
0100
0000
0000
0010
1000
0000
0100
0000
0001
0000
0000
0100
0001
0000
0010
0000
,
0100
0010
0100
0000
0001
0000
0001
0000
0010
0000
0010
0000
0100
0000
0000
0000
,
0010
1000
0000
0000
0100
0010
0000
0000
1000
0001
0000
0000
0110
0000
0000
0000
,
0001
0010
0000
0000
0010
0100
0000
0000
0100
1000
0000
0000
1000
0000
1000
0000
,
0200
0000
0010
0310
0000
0010
0100
0001
,
1000
0100
1000
0000
0100
0000
0010
0000
0002
0000
0000
0000
0000
0003
0000
0000
,
0200
0000
0310
0000
1000
0001
1001
0000
,
0010
0000
0001
0010
0001
0000
0010
0000
0100
0000
0100
0000
1000
0000
0000
0000
,
0200
0000
1300
0000
0010
0100
0001
0000
,
1000
0100
0000
0000
0100
0010
0000
0000
0010
0001
0000
0000
1001
0000
0000
0000
,
0010
0000
0020
0000
0000
0000
0130
0010
0100
0001
0010
0001
0010
0100
0000
0000
,
0001
0000
0010
0000
0010
0000
0100
1000
0100
0001
0000
0010
0100
0010
0000
0000
,
1000
0000
1000
0000
0100
0000
0100
0000
0010
0000
0001
1000
0001
0000
0100
0000
,
0120
0000
0030
0100
0010
0100
0001
1000
,
0001
0001
0020
0030
,
0100
0010
0100
0000
0001
0010
0001
0000
0100
0000
0010
0000
1000
0000
0100
0000
,
1000
1000
0200
0300
,
0010
0010
0100
0100
0001
1000
0001
0000
,
0010
0100
1000
0100
0010
0001
0100
0010
,
0200
0000
0310
0001
0010
0100
0001
1001
,
1000
1000
0002
0003
,
0110
0000
0110
0000
0100
0000
0010
0000
1000
0000
0001
1000
0001
0000
0100
0000
,
0110
0000
0001
0010
0100
1000
0100
0010
0000
0000
0010
0000
0100
0000
0010
0000
,
1000
0000
0100
0001
0010
0100
0010
1000
0000
0000
0100
0010
0100
0000
0001
0000
,
1001
0000
1000
0100
0010
0001
0010
0100
1000
0000
0100
0000
0010
0000
0010
0000
,
0011
0000
0110
0000
1100
0000
0110
0000
1001
0000
0010
0100
0010
0000
0100
0000
,
0001
0000
1000
0010
0100
0010
0001
1000
0010
0000
0100
0000
0100
0000
0010
0000
,
1000
0000
0100
0010
0100
0010
0001
0010
0100
0000
1000
0100
1000
0000
0010
0000
,
0100
0001
1000
0010
0100
0000
0020
0000
,
0130
0100
0001
1000
0001
1000
0200
0000
,
0310
0000
1000
0001
0000
0001
1000
0000
0100
0000
0010
0001
0010
0000
0100
0000
,
0010
0000
1000
0100
0000
0100
1000
0000
0100
0000
0010
0100
0010
0000
0100
0000
,
1000
0000
0010
0001
0000
0001
0010
0000
0010
0100
0000
0100
0010
0000
1000
0001
,
1000
0000
0100
0000
0010
0000
0001
0000
0010
0000
0100
0010
0100
0000
0010
0000
,
1001
0000
0100
0000
0010
0000
0100
0010
0001
0000
0010
0100
1000
0000
0010
0000
,
0100
0000
0010
1000
0000
1000
0100
0000
0100
0000
0010
0100
0010
0000
1000
0000
,
0001
0000
1000
0100
0010
0000
0001
0000
0010
0100
1000
0000
0010
0000
0010
0000
,
0101
1001
0101
0010
1000
0010
0100
1001
;

//---------------dance-single - ----------------
#NOTES:
     dance-single:
     :
     Hard:
     7:
     0.483,0.496,0.227,0.184,0.060:
1000
0000
0100
0010
0001
0000
0001
0010
,
0100
0000
0100
0010
1000
0100
0010
0001
,
0010
0000
0100
1000
0100
0000
0010
0100
,
0001
0001
0010
0010
0100
1000
0100
0000
,
0010
0000
0010
0100
1000
0000
1000
0100
,
0010
0000
0010
0100
0001
1000
0010
0001
,
0200
0000
0010
0310
0000
0100
0001
0010
,
0001
0001
0010
0100
2000
0000
3100
0000
,
0020
0000
0130
0000
0001
1000
0001
0000
,
0010
0100
0010
1000
0100
0100
1000
0000
,
2000
0000
3100
0000
0010
0001
0010
0000
,
0001
0010
0000
0000
0010
0100
0000
0000
0100
1000
0000
0000
1001
0000
0000
0000
,
0100
0200
0000
0310
1000
0001
0100
0000
,
0010
0010
0020
0130
0001
0000
0110
0000
,
1000
1000
1000
0100
0010
0100
0010
0001
,
0020
0000
0030
0100
0010
0100
0010
0001
,
0010
0010
0200
0300
,
0010
1000
0010
0000
0100
0001
0100
0000
0010
0000
1000
0000
0010
0000
0100
0000
,
0001
0001
2000
3000
,
0100
0100
0010
0010
1000
0001
1000
0000
,
0100
0010
1000
0100
0010
0001
0010
0100
,
2000
0000
3100
0010
0010
0100
0010
0001
,
0100
0100
0020
0030
,
0110
0110
0001
1000
0010
0100
0110
0000
,
1000
0000
0100
0000
0010
0000
0001
0100
0000
0000
0010
0000
0100
0000
0010
0000
,
1000
0000
0001
0000
0100
0000
0010
1000
0000
0000
0100
0000
1000
0000
0100
0000
,
0100
0000
0010
0000
1000
0000
0001
0100
0001
0000
0010
0000
0100
0000
0100
0000
,
1100
1100
0011
0010
0100
0010
0100
0000
,
0001
0000
0010
0000
0100
0000
0010
1000
0000
0000
0100
0000
0010
0000
0100
0000
,
0010
0000
1000
0000
0001
0000
0100
1000
0000
0000
0100
0010
0100
0000
0010
0000
,
0100
0010
0001
1000
0001
0000
0020
0000
,
0130
0001
1000
0010
0010
0100
0020
0000
,
0130
1001
0100
0010
0010
0100
0001
0010
,
1000
1100
0100
0010
0010
0001
0100
0010
,
0001
0020
0130
0010
0200
1300
0100
0100
,
0011
0011
1100
1100
0100
0010
0110
0000
,
1000
1010
0100
0001
0010
0100
0010
0001
,
0010
0101
0010
0100
1000
0100
0010
0100
,
0001
0020
0130
0001
2000
3010
0100
0010
,
1001
1001
1001
0001
0010
0100
1000
0110
;

//---------------dance-single - ----------------
#NOTES:
     dance-single:
     :
     Medium:
     5:
     0.343,0.302,0.108,0.097,0.000:
0010
0000
0010
0100
0000
0100
1000
0100
,
0000
0100
0010
0000
1000
0000
0001
0000
,
1001
0000
0010
0100
0000
0100
0010
0000
,
1000
1000
1000
1000
0100
0100
0010
0000
,
0100
0000
0010
0000
1000
0000
0001
0001
,
0010
0000
0100
0000
0010
0000
1000
1000
,
0200
0000
0300
0010
0000
0100
0010
0000
,
0001
1000
0001
0000
1001
0000
1000
0000
,
0200
0000
0310
0000
0001
0010
0001
0000
,
0010
0000
0001
0000
0100
0100
0100
0000
,
0020
0000
0130
0000
1000
0001
1000
0000
,
0100
0010
1000
1001
,
0001
0001
0000
0010
0100
0000
0100
0000
,
1000
0100
0000
0100
0010
0000
0100
0000
,
0010
0010
0010
0000
0100
0000
0001
2000
,
0000
0000
3000
0100
0010
0000
1000
0000
,
0010
0010
0200
0300
,
0010
0100
0001
1001
,
1000
1000
0200
0300
,
0010
0010
0010
0010
0100
0010
0100
0000
,
0010
1001
0001
0110
,
2000
0000
3100
0000
0010
0100
0010
0000
,
1000
1000
0002
0003
,
0100
0100
0100
0100
0100
0000
0001
0000
,
1000
0000
0010
0100
0000
0100
0010
0000
,
1000
0000
0001
0010
0000
0010
0001
0000
,
0100
0000
0010
0000
1000
0010
0100
0000
,
0001
0001
0001
0001
0001
0000
0110
0000
,
0010
0000
0100
1000
0000
1000
0100
0000
,
0010
0000
0100
0010
0000
1000
0001
0000
,
0010
0000
0100
0010
0100
0000
0020
0000
,
0031
0001
0001
1000
0000
0000
0110
0000
,
0100
0010
0000
1000
0001
1000
0001
0000
,
0010
0100
0000
0010
0001
0010
0001
0000
,
0010
0100
0000
0100
1000
0000
0010
0000
,
0100
0100
0100
0100
0010
0000
1001
0000
,
0010
0100
0000
1000
0100
1000
0100
0000
,
0010
0100
0000
0100
0001
0100
0001
0000
,
0010
0100
0000
0100
0010
0000
1000
0001
,
1000
1000
1000
0100
0010
0000
0010
0110
;

//---------------dance-single - ----------------
#NOTES:
     dance-single:
     :
     Easy:
     2:
     0.258,0.237,0.065,0.141,0.000: // measure 1
0010
0020
0030
0200
,  // measure 2
0300
0001
0010
0010
,  // measure 3
0100
2000
3000
0200
,  // measure 4
0310
0010
0010
0010
,  // measure 5
0100
0001
1000
0001
,  // measure 6
0100
1000
0100
0001
,  // measure 7
0020
0030
1000
0100
,  // measure 8
0010
0010
0010
0000
,  // measure 9
0100
0001
1000
1000
,  // measure 10
0100
0010
0100
0100
,  // measure 11
0010
0001
0010
1000
,  // measure 12
0001
0010
0100
1001
,  // measure 13
0010
0010
0100
1000
,  // measure 14
0200
0320
0130
0001
,  // measure 15
1000
1000
0100
0020
,  // measure 16
0000
0030
0100
0010
,  // measure 17
0100
0100
0020
0030
,  // measure 18
1000
0001
0100
0100
,  // measure 19
0010
0001
0020
0030
,  // measure 20
0100
0100
0100
0010
,  // measure 21
1000
0100
0010
0001
,  // measure 22
0020
0030
1000
0100
,  // measure 23
0001
0001
2000
3000
,  // measure 24
0100
0010
0100
0110
,  // measure 25
1001
0001
0010
0100
,  // measure 26
0010
1000
0100
0010
,  // measure 27
0100
0100
0001
0001
,  // measure 28
0010
0010
0010
0010
,  // measure 29
0110
0001
1000
0100
,  // measure 30
0010
0100
1000
0001
,  // measure 31
0100
0010
1000
0002
,  // measure 32
0103
0100
0000
0110
,  // measure 33
0010
0001
1000
1000
,  // measure 34
0100
0010
0100
0100
,  // measure 35
0010
0001
1000
0001
,  // measure 36
0010
0010
0010
0100
,  // measure 37
0001
0010
0001
0010
,  // measure 38
0100
1000
0100
1000
,  // measure 39
0100
0100
0010
0010
,  // measure 40
1000
0001
1000
1001
;
